#VERSION:0.83;
#TITLE:Daily Lunch Special;
#SUBTITLE:~DeliciousREMIX~;
#ARTIST:seiryu;
#TITLETRANSLIT:;
#SUBTITLETRANSLIT:;
#ARTISTTRANSLIT:;
#GENRE:;
#ORIGIN:;
#CREDIT:PaperBox440;
#BANNER:Daily Lunch Special ~DeliciousREMIX~.png;
#BACKGROUND:Daily Lunch Special ~DeliciousREMIX~-bg.png;
#PREVIEWVID:;
#JACKET:Daily Lunch Special ~DeliciousREMIX~-jacket.png;
#CDIMAGE:;
#DISCIMAGE:;
#LYRICSPATH:;
#CDTITLE:;
#MUSIC:Daily Lunch Special ~DeliciousREMIX~.mp3;
#OFFSET:0.000000;
#SAMPLESTART:2.285714;
#SAMPLELENGTH:11.428572;
#SELECTABLE:YES;
#BPMS:0.000=210.000;
#STOPS:;
#DELAYS:;
#WARPS:;
#TIMESIGNATURES:0.000=4=4;
#TICKCOUNTS:0.000=4;
#COMBOS:0.000=1;
#SPEEDS:0.000=1.000=0.000=0;
#SCROLLS:0.000=1.000;
#FAKES:;
#LABELS:0.000=Song Start;
#BGCHANGES:;
#KEYSOUNDS:;
#ATTACKS:
;

//---------------dance-single - ----------------
#NOTEDATA:;
#CHARTNAME:;
#STEPSTYPE:dance-single;
#DESCRIPTION:;
#CHARTSTYLE:;
#DIFFICULTY:Hard;
#METER:14;
#RADARVALUES:0.667898,0.683311,0.639356,0.375621,0.039960,585.000000,505.000000,80.000000,47.000000,0.000000,0.000000,0.000000,0.000000,0.000000,0.667898,0.683311,0.639356,0.375621,0.039960,585.000000,505.000000,80.000000,47.000000,0.000000,0.000000,0.000000,0.000000,0.000000;
#CREDIT:;
#NOTES:
// measure 0
0000
0000
0000
0000
,  // measure 1
0000
0000
0000
0000
,  // measure 2
1000
0000
1001
0000
0001
0000
0010
0100
,  // measure 3
0000
0100
0010
0000
0010
1000
0001
1000
,  // measure 4
0110
0000
0001
0010
0100
0000
0100
0001
,  // measure 5
0010
0001
0100
1000
0000
1000
0002
0003
,  // measure 6
1100
0000
0010
0010
0100
0001
0000
0001
,  // measure 7
1100
0110
1001
1000
,  // measure 8
1001
0000
0010
0000
0010
1000
0001
1000
,  // measure 9
0110
1010
1001
1000
,  // measure 10
1001
0000
0100
0001
0010
0001
1000
1000
,  // measure 11
0100
0010
0100
0001
0000
0001
2000
3000
,  // measure 12
0011
0000
1000
0100
0000
0100
0001
0001
,  // measure 13
1000
0100
1000
0010
0100
0100
0002
0003
,  // measure 14
1100
0000
0001
0100
0010
0100
0000
0010
,  // measure 15
1100
1001
0011
1000
,  // measure 16
1001
0000
0100
1000
0010
0100
0001
0010
,  // measure 17
0001
1000
0000
1000
0010
0100
0001
0001
,  // measure 18
2000
0000
3000
0000
1001
0000
0100
0010
,  // measure 19
0100
1010
0011
1100
,  // measure 20
0010
0010
0100
0001
0001
1000
0100
1000
,  // measure 21
0000
0011
1001
1010
,  // measure 22
1000
0000
1001
0000
0010
0010
1000
0001
,  // measure 23
1000
0000
1001
0000
0001
0010
0100
0100
,  // measure 24
1000
0001
1000
0001
1000
0000
0100
1000
,  // measure 25
0001
0000
0001
0010
0100
0020
0000
0030
,  // measure 26
1001
0000
0000
1000
1000
0010
0100
0001
,  // measure 27
0010
0000
0001
0000
0100
0000
0000
0000
2200
0000
0000
0000
0000
3300
0000
0000
,  // measure 28
1001
0000
0100
0001
0010
0100
0100
0001
,  // measure 29
0010
0001
1000
1000
0010
0000
1001
0100
,  // measure 30
0100
0010
0100
0001
1000
0000
1100
0000
,  // measure 31
2002
0000
3003
0010
0010
0100
0010
0100
,  // measure 32
0001
0000
0001
1000
0100
1000
0010
0001
,  // measure 33
0010
0000
1000
1000
0100
0001
0001
0010
,  // measure 34
0000
1000
0001
1001
0000
0220
0330
0000
,  // measure 35
2000
0000
0200
3000
,  // measure 36
0020
0000
0000
0000
0000
0300
0000
0000
0002
0000
0000
0000
0030
0000
0000
0000
,  // measure 37
0000
2000
0003
0000
3020
0000
0030
0100
,  // measure 38
0000
0000
2002
0000
0000
0000
0000
0000
0000
0003
0000
0000
0020
0000
0000
0000
,  // measure 39
0000
3000
0000
0000
0032
0000
0000
0000
,  // measure 40
0003
0020
0000
0000
0200
0030
0000
0300
,  // measure 41
2000
0001
3001
1001
,  // measure 42
1100
0000
0000
0000
0001
1000
0001
1000
0000
0000
0100
0000
0100
0000
0010
0001
,  // measure 43
0000
1001
0000
0000
0001
1000
1000
0100
,  // measure 44
0010
0100
0010
0001
0001
1000
1000
0000
,  // measure 45
1001
0000
0100
0010
0010
0100
0010
0000
,  // measure 46
0000
0000
1000
0001
1000
0000
0000
0001
1000
0001
0000
0000
0000
0010
0100
0010
,  // measure 47
0000
0000
1000
0000
0001
0000
1001
0000
0100
0000
0000
0110
0000
0000
0001
0000
,  // measure 48
0001
0000
1000
0000
0001
0100
0100
0010
,  // measure 49
0000
0010
1000
0100
1000
0001
0001
0000
,  // measure 50
1100
0010
1010
0000
0001
1000
0001
0100
,  // measure 51
0100
0010
0001
0000
0001
1000
0100
1000
,  // measure 52
0000
0110
0000
0010
0001
1000
1000
0000
,  // measure 53
0100
0010
0100
0000
0010
0100
0000
0100
,  // measure 54
0001
0010
0001
1000
1000
0000
0100
0010
,  // measure 55
0100
1001
0000
0001
1000
1001
0000
0010
,  // measure 56
0001
1000
1001
0000
0100
0010
1001
0000
,  // measure 57
0110
1100
1010
0220
,  // measure 58
0330
0001
1000
0001
1000
0100
0010
0000
,  // measure 59
0110
0000
0000
1001
0000
1100
0000
1010
,  // measure 60
0000
0001
1001
0000
0010
1000
1000
0000
,  // measure 61
0100
0010
0100
0001
0001
0000
1000
0000
,  // measure 62
1001
0000
0010
0100
1000
0001
0001
0000
,  // measure 63
0010
0100
0100
0000
1001
0000
0011
0000
,  // measure 64
1000
1000
0100
0001
0000
0001
0010
0010
,  // measure 65
0200
0000
0300
0001
0001
0010
1000
0100
,  // measure 66
0010
0100
1000
0001
0010
0001
1000
0000
,  // measure 67
1000
0001
0001
0100
0010
0100
1000
0000
,  // measure 68
1000
0001
0010
0001
0010
0100
0100
0000
,  // measure 69
1001
0000
0002
0000
0000
0003
1100
0000
,  // measure 70
1001
0000
0000
0000
0010
0000
0010
0000
0100
0000
1000
0001
1000
0000
0010
0000
,  // measure 71
0001
1000
1000
0001
0000
1100
0000
1001
,  // measure 72
0000
0010
0010
0100
0000
1000
0000
0011
,  // measure 73
0000
1000
1000
0001
0001
0010
0100
0010
,  // measure 74
2000
3001
1001
1100
,  // measure 75
1001
0000
0001
0001
1000
1000
0220
0000
,  // measure 76
0330
1001
0000
1000
0000
1000
0001
1000
,  // measure 77
0001
0100
0010
0100
0001
1000
0001
0010
,  // measure 78
0200
0000
0000
0300
2000
0000
0000
0000
,  // measure 79
3000
0002
0000
0000
0003
2000
0000
0000
,  // measure 80
3020
0000
0000
0000
0000
0030
1000
1000
,  // measure 81
0001
0110
0000
0010
2000
0000
3001
0001
,  // measure 82
0020
0000
0130
0100
0001
0010
0001
1000
,  // measure 83
1000
0000
2002
3003
0000
0010
2200
3300
,  // measure 84
0000
0001
0001
0000
1000
0001
0001
0000
,  // measure 85
0100
0010
0100
0001
0000
0001
1100
0000
,  // measure 86
1000
0001
0000
0010
0100
0100
0001
1000
,  // measure 87
0001
0000
0010
0100
0100
0000
0011
0000
,  // measure 88
2002
0000
0000
0000
0000
3003
0000
1000
,  // measure 89
1000
0001
0001
0010
0010
0100
0010
2000
,  // measure 90
0000
0000
0000
0000
,  // measure 91
3000
0000
0001
0001
1000
0100
0100
0010
,  // measure 92
0000
0001
0001
1000
0100
0100
0010
0000
,  // measure 93
0000
0001
0001
1000
0100
0100
0010
0000
,  // measure 94
0110
1000
0000
1001
0220
0000
0000
0000
,  // measure 95
0330
0000
0000
0000
;
