#VERSION:0.83;
#TITLE:DEADLOCK;
#SUBTITLE:(STARDOM Remix);
#ARTIST:RoughSketch;
#TITLETRANSLIT:;
#SUBTITLETRANSLIT:;
#ARTISTTRANSLIT:;
#GENRE:;
#ORIGIN:;
#CREDIT:Paperbox440;
#BANNER:DEADLOCK (STARDOM Remix).png;
#BACKGROUND:DEADLOCK (STARDOM Remix)-bg.png;
#PREVIEWVID:;
#JACKET:DEADLOCK (STARDOM Remix)-jacket.png;
#CDIMAGE:;
#DISCIMAGE:;
#LYRICSPATH:;
#CDTITLE:cdtitle.png;
#MUSIC:DEADLOCK (STARDOM Remix).mp3;
#OFFSET:0.000000;
#SAMPLESTART:74.813454;
#SAMPLELENGTH:17.899155;
#SELECTABLE:YES;
#BPMS:0.000=119.000;
#STOPS:67.000=0.300,
138.000=0.300,
145.000=0.300;
#DELAYS:34.500=0.300;
#WARPS:;
#TIMESIGNATURES:0.000=4=4;
#TICKCOUNTS:0.000=4;
#COMBOS:0.000=1;
#SPEEDS:0.000=1.000=0.000=0;
#SCROLLS:0.000=1.000;
#FAKES:;
#LABELS:0.000=Song Start;
#BGCHANGES:;
#KEYSOUNDS:;
#ATTACKS:
;

//---------------dance-single - ----------------
#NOTEDATA:;
#CHARTNAME:;
#STEPSTYPE:dance-single;
#DESCRIPTION:;
#CHARTSTYLE:;
#DIFFICULTY:Hard;
#METER:14;
#RADARVALUES:0.556023,0.581121,0.320022,0.147037,0.549227,450.000000,413.000000,37.000000,17.000000,0.000000,0.000000,0.000000,0.000000,0.000000,0.556023,0.581121,0.320022,0.147037,0.549227,450.000000,413.000000,37.000000,17.000000,0.000000,0.000000,0.000000,0.000000,0.000000;
#CREDIT:;
#NOTES:
0000
0000
0000
0000
,
1000
1001
0000
0000
,
0010
0110
0000
0000
,
1000
1001
0000
0000
,
0010
0110
0000
0000
,
0001
0000
0001
0000
0010
0100
0010
0000
1000
0000
1000
0100
1000
0000
0010
0000
,
0010
0100
0010
0000
1000
0001
1000
0000
1000
0000
0100
0000
0100
0010
0100
0000
,
0001
0000
0001
0000
0000
0000
1000
0100
0001
0010
1000
0100
0010
0100
0000
0000
,
1000
0010
0110
0100
0101
0000
0100
0100
,
0010
0000
0010
0000
0000
1000
0001
1000
0001
1000
0000
0000
0100
0000
0000
0000
,
1100
0000
0000
0000
0001
1000
0001
1000
0001
1000
0001
0000
0010
0100
0000
0000
,
1001
0000
0000
0000
0100
0010
0100
0010
0100
0000
0000
0000
1000
0100
1000
0000
,
0010
0000
0001
0000
0001
0000
1000
0000
1000
0000
0100
0010
0100
0000
0110
0000
,
0000
0000
0010
0000
0001
1000
0001
1000
0001
0000
0000
0010
0000
0000
0100
0000
,
1001
0000
0000
0000
0000
0000
0010
0100
0010
0100
0010
0100
0010
0000
0000
0000
,
1001
0000
0000
0000
0000
0000
1000
0001
1000
0001
1000
0001
0000
0010
0000
0010
,
0100
0000
0001
0010
0001
0000
1000
0000
1000
0000
1000
0000
0220
0000
0000
0330
,
0000
0000
0100
0000
0100
0000
0010
1000
0010
0000
0000
0000
1001
0000
0000
0000
,
0100
0000
0001
0010
0001
0000
1000
0000
1000
0000
0000
0000
0110
0000
0000
0000
,
1000
0000
0001
0010
0001
0000
0100
0000
1000
0000
1000
0000
0000
0001
0010
0001
,
1000
0000
1000
0000
0000
0010
0100
0010
0100
0000
1001
0000
0110
0000
0000
0000
,
1000
0000
0000
0000
0000
0010
0100
0010
0100
0010
0000
0000
1001
0000
0000
0000
,
2002
3003
0000
0000
0000
1000
0001
1000
0001
1000
0000
0000
0110
0000
0000
0000
,
1000
0001
1000
0010
1000
0000
1000
0100
1000
0000
0000
0001
0010
0000
0100
0000
,
0100
0000
1000
0000
0000
0010
0000
0010
0000
0110
0000
0000
2000
0000
0000
0000
,
0100
0000
0000
0000
0010
0000
3200
0010
,
0001
0000
0320
1000
0100
0000
2000
0030
,
0000
0001
0100
3020
,
0100
0000
0000
1000
0100
0000
2030
0000
,
0001
0001
0010
0100
3100
0000
0020
1000
,
1000
0100
0001
0001
0100
0100
2030
0000
,
0001
0001
0100
0010
0010
0000
3200
0001
,
0001
0000
0000
0010
0000
0000
1000
0000
0000
1000
0000
0000
0300
0000
0000
0000
0000
0000
1000
0000
0000
0000
1000
0000
,
0100
0000
0000
0010
0000
0000
0000
0000
0100
0000
0000
0000
0001
0000
0000
0000
0000
0000
0000
0000
0001
0000
0000
0000
0010
0000
0000
0100
0000
0000
0000
0000
0010
0000
0000
0000
1000
0000
0000
0000
0000
0000
0000
0000
1000
0000
0000
0000
,
0100
0000
0000
0001
0000
0000
0000
0000
0100
0000
0000
0000
0010
0000
0000
0000
0000
0000
0000
0000
0010
0000
0000
0000
2000
0000
0000
3000
0000
0000
0000
0000
0000
0000
0000
0000
0001
0000
0000
1000
0000
0000
0000
0000
0001
0000
0000
0000
,
0100
0000
0000
0000
0100
0000
0010
0000
0000
0000
0010
0000
0100
0000
0000
0000
0100
0000
1000
0000
0000
1001
0000
0000
,
0110
0000
2010
0000
3000
0000
0000
0000
1000
0001
1000
0001
1000
0001
0000
0100
,
0000
0100
0010
0000
0001
1000
0000
0000
0100
0010
0100
0010
0100
0000
0000
0000
,
0001
0010
1000
0000
1000
0100
0000
0000
0001
1000
0001
1000
0001
1000
0000
0010
,
0000
0000
0010
1000
0000
1000
0010
0000
0000
0000
0100
0010
0100
0010
0100
0000
,
0001
0000
0010
0000
0100
0000
1000
0001
1000
0001
1000
0001
1000
0001
1000
0000
,
0010
0000
0100
0000
0001
0010
0000
0000
0001
1000
0001
1000
0001
1000
0001
1000
,
0000
0000
0010
0000
0110
0000
0000
0000
1000
0010
1000
0010
1000
0010
1000
0010
,
1000
0000
0000
0000
0010
0100
0010
0000
1000
0001
1000
0001
1000
0001
1000
0000
,
0000
0000
0000
0000
0000
0000
0001
0000
0000
1000
0000
0000
0010
0000
0000
0000
0000
0000
0002
0000
0000
0000
0000
0000
1000
0000
0000
0000
0000
0000
0000
0000
1000
0000
0000
0000
0010
0000
0000
0000
0000
0000
0000
0000
0010
0000
0000
0000
,
0100
0000
0000
1000
0000
0000
0000
0000
0100
0000
0000
0000
0013
0000
0000
0000
0000
0000
0110
0000
0000
0000
0000
0000
1001
0000
0000
0000
0000
0000
0000
0000
0000
0100
0000
0000
0010
0000
0000
0000
0000
0000
1000
0000
0000
0000
0000
0000
,
0010
0000
0100
0010
0100
0000
0000
0000
1001
0000
0010
0000
0100
0000
0100
0001
,
0000
0001
0000
1000
0100
1000
0000
0000
0110
0000
0000
0000
0001
0010
0001
1000
,
0100
1000
0000
0000
0010
0000
0100
0000
0001
0000
1001
0000
0010
0000
0100
0000
,
0100
0000
0010
0000
1010
0000
1000
0000
1001
0000
0000
0100
0010
0000
1000
0000
,
1000
0000
0010
0100
0010
0100
0000
0000
1001
0000
0000
0000
0100
0001
1000
0000
,
1000
0000
0010
0100
0010
0100
0000
0000
1001
0000
0010
0000
0000
0100
0010
0100
,
0010
0000
0000
0000
1000
0000
1001
0000
0001
0000
1100
0000
0100
0000
0000
0010
,
0000
0010
0000
0010
0002
0000
0003
0000
1100
0000
0000
0000
0110
0000
0000
0000
;

//---------------dance-single - ----------------
#NOTEDATA:;
#CHARTNAME:;
#STEPSTYPE:dance-single;
#DESCRIPTION:;
#CHARTSTYLE:;
#DIFFICULTY:Medium;
#METER:12;
#RADARVALUES:0.446054,0.488142,0.354619,0.164336,0.095142,361.000000,320.000000,41.000000,19.000000,0.000000,0.000000,0.000000,0.000000,0.000000,0.446054,0.488142,0.354619,0.164336,0.095142,361.000000,320.000000,41.000000,19.000000,0.000000,0.000000,0.000000,0.000000,0.000000;
#CREDIT:;
#NOTES:
0000
0000
0000
0000
,
1000
1001
0000
0000
,
0100
0110
0000
0000
,
1000
1001
0000
0000
,
0010
0110
0000
0000
,
1000
0100
1100
0010
0010
1000
0110
0000
,
1000
0010
0011
0000
0100
0010
1001
0000
,
0000
1000
1000
0010
0010
0001
0001
1000
,
1000
0010
0110
0100
2020
0000
3030
0000
,
1001
0000
0001
0001
0001
0100
1000
0000
,
0110
0000
1000
1000
1000
0100
0010
0000
,
0110
0000
0001
0001
0001
0010
1000
1000
,
0010
0100
0100
0001
1000
0100
1100
0000
,
1001
0000
0000
0010
0010
0010
0100
1000
,
1001
0000
0010
0010
0010
1000
0100
0000
,
0110
0000
1000
1000
1000
0001
0001
0010
,
0100
0010
1000
1000
1000
0000
2002
3003
,
0110
0000
1000
0001
0001
0001
2200
3300
,
0001
0000
0001
0000
1000
0000
1000
0001
1000
0000
0000
0000
0220
0000
0330
0000
,
0000
0001
0001
0001
0010
0010
1000
1000
,
0010
0100
0010
0000
0100
1000
1001
0000
,
0010
0010
0010
0100
0010
1000
1001
0000
,
0100
0000
1000
0000
0001
0000
0001
1000
0001
0000
0000
0000
1100
0000
0000
0000
,
0010
0010
0010
1000
0100
0010
1100
0001
,
0001
0010
1000
1000
1000
0010
2000
0000
,
0000
0000
0000
0002
,
3000
0000
0100
0023
,
0000
0000
0000
2030
,
0000
0000
0000
3002
,
1000
1000
0010
2003
,
0100
0000
0100
0000
0001
3000
0200
0000
,
0010
0010
1300
0020
,
0100
0000
1000
0000
0130
0000
1000
1000
,
1100
0010
1010
0100
0011
0100
0110
0001
,
0001
1000
1000
0010
2002
3003
0010
0010
,
0100
0000
0000
0000
0010
0000
1000
0001
1000
0000
0100
0010
0100
0000
0001
0000
,
0001
0000
1000
0000
1001
0000
0000
0000
1000
0000
1000
0000
1000
0000
0001
0010
,
0001
0000
0000
0000
0010
0100
0010
0000
1000
0000
0000
0000
0001
0000
0001
0000
,
0001
0000
1000
0100
1000
0000
0010
0000
0100
0000
0100
0000
0100
0000
0001
0000
,
0010
0000
0010
0000
0001
1000
0001
0000
0010
0000
0010
0000
0010
0000
0000
0000
,
0100
0010
0100
0000
1000
0000
1000
0000
0001
0000
0010
0000
0001
0000
1000
0000
,
1000
0000
1000
0000
0100
0010
0100
0000
0010
0000
0001
0000
0001
0000
0001
0000
,
1000
0010
1000
0000
0100
0000
0100
0000
0001
0000
0010
0000
0001
0000
1000
0000
,
1000
0000
1000
0000
0010
0100
0010
0000
0000
0000
0100
0000
0010
0000
0010
0000
,
0000
1000
0001
1000
0001
0000
2000
0000
0010
0000
0010
0000
0000
0010
0000
0010
,
0000
0010
3010
0000
0110
0000
1000
1000
,
1000
0000
0010
0100
0010
0000
0000
0000
1001
0000
0000
0000
0100
0000
0100
0000
,
0100
0000
0000
0000
0010
0100
0010
0000
1001
0000
0000
0000
0010
0000
0010
0000
,
0010
0000
1000
1100
0010
0010
0100
0001
,
0001
0000
1000
0001
1000
0000
0000
0000
0110
0000
0000
0000
0010
0000
0010
0000
,
0010
0000
0000
0000
1000
0001
1000
0000
0110
0000
0000
0000
0001
0000
0001
0000
,
0001
0000
1000
0100
1000
0000
0000
0000
0110
0000
0000
0000
0001
0000
0001
0000
,
0001
0000
0000
0000
1000
0000
1000
0000
0001
0010
0001
0000
1000
0000
0000
0000
,
0100
0100
1001
0000
1010
0000
0110
0000
;

//---------------dance-single - ----------------
#NOTEDATA:;
#CHARTNAME:;
#STEPSTYPE:dance-single;
#DESCRIPTION:;
#CHARTSTYLE:;
#DIFFICULTY:Easy;
#METER:8;
#RADARVALUES:0.331143,0.348673,0.276776,0.060545,0.000000,268.000000,236.000000,32.000000,7.000000,0.000000,0.000000,0.000000,0.000000,0.000000,0.331143,0.348673,0.276776,0.060545,0.000000,268.000000,236.000000,32.000000,7.000000,0.000000,0.000000,0.000000,0.000000,0.000000;
#CREDIT:;
#NOTES:
// measure 0
0000
0000
0000
0000
,  // measure 1
1000
1001
0000
0000
,  // measure 2
0100
0110
0000
0000
,  // measure 3
1000
1001
0000
0000
,  // measure 4
0010
0110
0000
0000
,  // measure 5
1000
1001
0010
0110
,  // measure 6
1000
1001
1000
0101
,  // measure 7
0010
0000
1000
0000
1000
0100
0000
0100
,  // measure 8
0010
0010
0001
0001
2000
0000
3000
0000
,  // measure 9
1001
0000
0010
0000
1000
0100
1000
0000
,  // measure 10
0110
0000
0001
0000
0100
1000
0100
0000
,  // measure 11
1001
0000
0010
0100
0010
0000
0100
0000
,  // measure 12
0010
0000
1000
0000
0001
0100
0001
0000
,  // measure 13
0110
0000
0001
0000
1000
0010
1000
0000
,  // measure 14
0110
0000
0001
0000
0100
0010
0100
0000
,  // measure 15
1001
0000
0010
0100
0010
0000
1000
0000
,  // measure 16
0001
0000
0001
0000
1000
1000
1000
0000
,  // measure 17
0010
0000
0001
1000
0001
0000
0110
0000
,  // measure 18
0100
0010
0100
1001
,  // measure 19
1000
0000
0100
0000
0010
0000
0001
1000
,  // measure 20
0001
0000
0100
0010
0100
0000
1001
0000
,  // measure 21
0100
0000
0010
0000
1000
0001
1000
0000
,  // measure 22
0110
0001
1000
0110
,  // measure 23
1000
0000
0001
0000
0100
0000
0001
1000
,  // measure 24
0001
0000
0100
0100
0100
0000
2000
0000
,  // measure 25
0000
0000
0000
3200
,  // measure 26
0000
0000
0000
0302
,  // measure 27
0000
0000
0000
2003
,  // measure 28
0000
0000
0000
3000
,  // measure 29
0001
1000
0001
0000
0100
0000
1000
0000
,  // measure 30
0010
0100
0010
0000
0001
0000
1000
0000
,  // measure 31
1000
0000
0010
0001
0010
0000
0100
1000
,  // measure 32
0100
0001
0010
1000
,  // measure 33
1000
0001
1001
0000
0010
0100
0110
0000
,  // measure 34
1000
0001
1001
0000
0002
0003
0100
0000
,  // measure 35
0010
0000
0001
0100
0001
0000
1000
1000
,  // measure 36
1000
0000
1001
0000
0010
1000
0010
0000
,  // measure 37
0100
0010
0100
0000
0001
0000
1000
0000
,  // measure 38
1000
1000
0001
0000
1000
0000
0001
1000
,  // measure 39
0001
0000
0010
0010
0100
0000
0001
0000
,  // measure 40
1000
1000
0000
0100
0010
0000
0010
0000
,  // measure 41
0001
0000
0100
0100
0010
0000
0010
0000
,  // measure 42
1000
0000
0001
0001
0100
0000
0010
0000
,  // measure 43
1000
0000
0100
0010
0001
0000
0001
1000
,  // measure 44
1000
0000
0100
0000
1002
0000
1000
1000
,  // measure 45
1000
1003
1001
0010
,  // measure 46
1000
0001
1000
0000
0110
0000
0001
0000
,  // measure 47
1000
0001
1000
0000
0110
0000
1000
0000
,  // measure 48
0001
1000
0001
0000
0100
0000
0100
0000
,  // measure 49
1000
0001
1000
0000
1001
0000
0010
0000
,  // measure 50
1000
0001
1000
0000
0110
0000
1000
0000
,  // measure 51
0010
0100
0010
0000
1001
0000
0010
0000
,  // measure 52
1000
0001
1000
0000
0100
0100
0001
0000
,  // measure 53
0100
0010
0100
0000
1001
0000
1001
0000
;

//---------------dance-single - ----------------
#NOTEDATA:;
#CHARTNAME:;
#STEPSTYPE:dance-single;
#DESCRIPTION:;
#CHARTSTYLE:;
#DIFFICULTY:Beginner;
#METER:3;
#RADARVALUES:0.211289,0.302183,0.207582,0.077843,0.000000,171.000000,147.000000,24.000000,9.000000,0.000000,0.000000,0.000000,0.000000,0.000000,0.211289,0.302183,0.207582,0.077843,0.000000,171.000000,147.000000,24.000000,9.000000,0.000000,0.000000,0.000000,0.000000,0.000000;
#CREDIT:;
#NOTES:
0000
0000
0000
0000
,
1000
1001
0000
0000
,
0010
0110
0000
0000
,
1000
1001
0000
0000
,
0010
0110
0000
0000
,
1000
1001
0010
0110
,
1000
1001
0010
0110
,
1000
1000
0001
0001
,
0010
0100
1000
0000
,
1001
0000
0100
0100
,
0110
0000
1000
1000
,
1001
0000
0010
0010
,
0100
0010
0100
1000
,
0110
0000
0001
1000
,
1001
0000
0010
0100
,
0110
0000
0000
1000
,
0001
0100
0100
0001
,
0000
0010
0010
1001
,
0000
0100
0100
1001
,
0000
0000
0100
0100
,
0001
0001
0100
0010
,
0000
1000
1000
1001
,
0000
0010
0010
0110
,
0000
1000
1000
0100
,
0010
0001
0000
2000
,
0000
0000
3000
0002
,
0000
0000
0003
2000
,
0000
0000
3000
0002
,
0000
0000
0003
0200
,
0000
0000
0300
0020
,
0000
0000
0030
2000
,
0000
0000
3000
0002
,
0000
0000
0003
0100
,
0100
0010
0010
1000
,
1000
0001
0001
0000
,
0100
0100
0010
1000
,
0001
1000
0000
0010
,
0010
0100
0100
0001
,
1000
0000
0001
0100
,
0010
0100
0100
0000
,
0010
0010
1000
0001
,
1000
0010
0010
0000
,
0100
0100
0010
0100
,
0000
0001
1000
0001
,
0001
0000
0200
0000
,
0000
0000
0310
0000
,
1000
1000
1001
0000
,
0010
0100
0110
0000
,
0001
0001
1000
0001
,
0010
0010
0100
0000
,
1000
1000
0110
0000
,
1000
0001
1001
0000
,
0010
0100
0110
0000
,
0100
0010
1000
1001
;

//---------------dance-single - ----------------
#NOTEDATA:;
#CHARTNAME:;
#STEPSTYPE:dance-single;
#DESCRIPTION:;
#CHARTSTYLE:;
#DIFFICULTY:Challenge;
#METER:17;
#RADARVALUES:0.764841,0.766188,0.648694,0.501656,1.042234,619.000000,544.000000,75.000000,58.000000,0.000000,0.000000,0.000000,0.000000,0.000000,0.764841,0.766188,0.648694,0.501656,1.042234,619.000000,544.000000,75.000000,58.000000,0.000000,0.000000,0.000000,0.000000,0.000000;
#CREDIT:;
#NOTES:
0000
0000
0000
0000
,
1100
0000
0000
0000
0000
0000
0000
0000
0000
0000
0000
0000
1001
0000
0000
0000
0000
0000
0010
0000
0000
0100
0000
0000
0010
0000
0000
0100
0000
0000
0000
0000
0000
0001
0000
0000
1000
0000
0000
0001
0000
0000
0000
0000
0100
0000
0000
0000
,
0110
0000
0000
0000
1001
0000
0001
0010
0100
0000
2000
0000
3000
0100
0010
0100
,
0010
0000
1001
0000
0000
0000
0110
0000
0001
0010
0100
0010
0100
1000
0000
0000
,
1001
0000
0000
0000
0100
0000
0000
0000
0000
0000
0000
0000
0110
0000
0000
0000
0000
0000
1000
0000
0000
1000
0000
0000
0100
0000
0000
0010
0000
0000
0002
0000
0000
0000
0000
0000
1003
0000
0000
0000
0000
0000
0000
0000
0000
0000
0000
0000
,
0110
0000
1010
0000
1100
0000
1001
0000
0001
0010
0100
0010
1000
0000
1000
0001
,
0010
0001
1000
0000
1000
0100
0100
0010
0100
0001
0001
0010
0010
0100
1000
0000
,
1100
0000
1001
0100
0010
0100
0010
0000
0101
0000
0110
0000
1010
0000
1100
0000
,
2200
0000
0000
3300
0000
0000
2020
0000
0000
3030
0000
0000
0220
0000
0000
0330
0000
0000
1000
0000
0000
0000
0000
0000
2002
0000
0000
0000
0000
0000
3003
0000
0000
0000
0000
0000
0020
0000
0000
0000
0000
0000
0000
0000
0030
0000
0000
0000
,
1001
0000
0000
0000
0010
0100
0010
1000
0000
1000
0001
0010
0010
0000
2200
0000
,
3300
0000
0000
0000
1000
1000
0001
0010
0001
0100
0100
0010
1000
0010
0000
0000
,
2002
3003
0000
0000
1000
1000
0010
0100
0001
0001
1000
0001
0010
0100
1000
0000
,
1000
0000
0000
0010
0000
0000
0100
0000
0000
0010
0000
0000
0001
0000
0000
0000
0010
0000
0001
0000
0000
1000
0000
0000
0000
0000
0000
0000
0000
0000
1100
0000
0000
0000
0000
0000
1010
0000
0000
0000
0000
0000
2002
0000
0000
0000
0000
0000
,
3003
0000
0100
0010
0001
0001
1000
0100
1000
0100
0010
0010
0100
2000
3000
0000
,
2002
3003
0000
0000
0010
0000
0010
0100
0010
0001
0000
0001
2000
0000
3000
0000
,
2002
0000
0000
0000
0000
0000
0000
0000
3003
0000
0000
0000
0000
0000
0000
0100
0000
0000
0001
0000
0000
0000
0000
0000
0001
0000
0000
0010
0000
0000
0000
0000
0000
0100
0000
0000
1000
0000
0000
0000
0000
0000
1000
0000
0000
0001
0000
0000
,
0010
0001
0000
0100
0000
0100
0010
0100
0010
1000
1000
0000
2002
3003
0110
0000
,
0000
0000
0000
1000
0000
1000
0001
0001
0010
0001
0000
0000
2002
0000
3003
0000
,
0000
0000
1000
1000
0010
0100
0010
0001
0000
0001
1000
0100
2000
0000
3000
0000
,
0000
0000
0001
0000
0001
0010
0100
0010
0000
1000
0001
1000
0010
0010
0100
0010
,
0001
0000
1000
0001
0001
0100
0000
0100
0010
0000
1100
0000
2002
3003
0000
0000
,
0010
0000
0000
0000
0000
0000
0000
0000
0000
0000
0000
0000
0100
0000
0000
0100
0000
0000
0010
0000
0000
0100
0000
0000
1000
0000
0000
0000
0000
0000
1000
0000
0010
0001
0000
0000
0000
0000
0000
0001
0000
0000
0000
0000
1001
0000
0000
0000
,
0000
0000
0000
0000
0000
0000
0100
0000
0000
0010
0000
0000
0100
0000
0000
0000
0000
0000
0001
0000
0010
0000
0000
0000
0001
0000
0000
0100
0000
0000
1000
0000
0000
0000
0000
0000
2002
0000
0000
0000
0000
0000
0000
0000
3003
0000
0000
0000
,
0000
0000
0000
0000
0100
0000
0000
0000
0100
0000
0000
0000
0010
0000
0001
0000
0000
0000
0001
0010
1000
0000
1000
0000
0100
0000
0010
0000
0100
0000
0001
0000
,
0000
1000
0000
0000
0001
0000
0000
0000
1100
0000
0000
0000
0001
0000
0000
0000
1001
0000
0000
0000
0000
0000
0000
0000
0002
0000
0000
0000
0000
0000
0000
0000
,
1000
0000
1000
0000
0100
0010
0100
0000
0000
0000
0010
0000
2003
0000
0100
0000
,
0100
0010
0001
0000
0200
0000
0000
0000
0000
0000
0000
0000
0300
0000
0002
0000
,
0000
0000
3000
0000
0010
0000
0010
0100
0000
0000
2000
0000
0003
0000
0000
0000
,
0100
0000
0010
0001
0000
0000
0010
0000
0100
0000
3100
0000
0000
0000
0001
0000
,
0001
0000
0000
0000
0000
0000
0010
0000
0000
0000
0000
0000
0000
0000
0000
0000
0000
0000
0000
0000
0000
0000
0000
0000
0100
0000
0000
0000
0000
0000
0000
0000
0000
0000
0000
0000
0010
0000
0000
0000
0000
0000
0000
0000
0000
0000
0000
0000
0100
0000
0000
0000
0000
0000
0000
0000
0000
0000
0000
0000
1000
0000
0000
0000
0000
0000
0000
0000
0000
0000
0000
0000
0000
0000
0000
0000
0000
0000
1000
0000
0000
0000
0000
0000
0000
0000
0000
0000
0001
0000
0000
0000
0000
0000
0000
0000
0000
0000
0000
0000
0000
0000
0000
0000
0010
0000
0000
0000
0000
0000
0000
0000
0000
0000
0000
0000
0000
0000
0000
0000
0110
0000
0000
0000
0000
0000
0000
0000
0000
0000
0000
0000
0000
0000
0000
0000
0000
0000
0000
0000
0000
0000
0000
0000
1000
0000
0000
0000
0000
0000
0000
0000
0000
0000
0000
0000
0000
0000
0000
0000
1000
0000
0000
0000
0000
0000
0000
0000
0001
0000
0000
0000
0000
0000
0000
0000
0000
0000
0000
0000
0010
0000
0000
0000
0000
0000
0000
0000
0000
0000
0000
0000
,
0100
0000
0000
0000
0000
0000
0000
0000
0000
0000
0000
0000
0010
0000
0000
0000
0000
0000
0000
0000
0000
0000
0000
0000
0000
0000
0000
0000
0000
0000
0100
0000
0000
0000
0000
0000
0000
0000
0000
0000
0000
0000
0000
0000
0000
0000
0000
0000
1000
0000
0000
0000
0000
0000
0000
0000
0001
0000
0000
0000
0000
0000
0000
0000
0000
0000
0000
0000
0000
0000
0000
0000
0010
0000
0000
0000
0000
0000
0000
0000
0001
0000
0000
0000
0000
0000
0000
0000
0100
0000
0000
0000
0000
0000
0000
0000
1000
0000
0000
0000
0000
0000
0000
0000
0000
0000
0000
0000
0000
0000
0000
0000
1000
0000
0000
0000
0000
0000
0000
0000
0000
0000
0000
0000
0000
0000
0000
0000
0000
0000
0000
0000
0000
0000
0000
0000
0000
0000
0000
0000
0000
0000
0000
0000
1001
0000
0000
0000
0000
0000
0000
0000
0000
0000
0000
0000
0000
0000
0000
0000
0000
0000
0000
0000
0000
0000
0000
0000
0010
0000
0000
0000
0000
0000
0000
0000
0000
0000
0000
0000
0000
0000
0000
0000
0100
0000
0000
0000
0000
0000
0000
0000
,
0000
0000
0000
0000
0000
0000
0000
0000
0010
0000
0000
0000
0000
0000
0000
0000
0100
0000
0000
0000
0000
0000
0000
0000
1000
0000
0000
0000
0000
0000
0000
0000
0000
0000
0000
0000
0000
0000
0000
0000
1000
0000
0000
0000
0000
0000
0000
0000
0001
0000
0000
0000
0000
0000
0000
0000
0000
0000
0000
0000
0001
0000
0000
0000
0000
0000
0000
0000
0000
0000
0000
0000
0010
0000
0000
0000
0000
0000
0000
0000
0000
0000
0000
0000
0100
0000
0000
0000
0000
0000
0000
0000
0000
0000
0000
0000
0010
0000
0000
0000
0000
0000
0000
0000
0000
0000
0000
0000
0000
0000
0000
0000
0000
0000
0100
0000
0000
0000
0000
0000
1000
0000
0000
0000
0000
0000
0000
0000
0000
0000
0000
0000
0000
0000
0000
0000
0000
0000
0000
0000
0000
0000
0000
0000
1001
0000
0000
0000
0000
0000
0000
0000
0000
0000
0000
0000
0000
0000
0000
0000
0000
0000
0000
0000
0000
0000
0000
0000
0001
0000
0000
0000
0000
0000
0000
0000
0000
0000
0000
0000
0100
0000
0000
0000
0000
0000
0000
0000
0000
0000
0000
0000
,
0100
0000
0000
0000
0000
0000
0000
0000
0000
0000
0000
0000
0010
0000
0000
0000
0000
0000
1000
0000
0000
0000
0000
0000
0000
0000
0000
0000
0000
0000
0100
0000
0000
0000
0000
0000
1000
0000
0000
0000
0000
0000
0000
0000
0000
0000
0000
0000
0001
0000
0000
0000
0000
0000
0010
0000
0000
0000
0000
0000
0000
0000
0000
0000
0000
0000
0000
0000
0000
0000
0000
0000
0000
0000
0000
0000
0000
0000
0010
0000
0000
0000
0000
0000
0000
0000
0000
0000
0100
0000
0000
0000
0000
0000
0000
0000
0000
0000
0000
0000
0000
0000
0000
0000
0000
0000
0000
0000
0000
0000
0000
0000
0100
0000
0000
0000
0000
0000
0000
0000
0001
0000
0000
0000
0000
0000
0000
0000
0000
0000
0000
0000
0000
0000
0000
0000
0001
0000
0000
0000
0000
0000
0000
0000
1000
0000
0000
0000
0000
0000
0000
0000
0000
0000
0000
0000
0000
0000
0000
0000
0000
0000
0000
0000
0000
0000
0000
0000
1100
0000
0000
0000
0000
0000
0000
0000
0000
0000
0000
0000
0000
0000
0000
0000
0000
0000
0000
0000
0000
0000
0000
0000
,
0010
0100
0010
0001
0000
1001
1100
0000
0001
0000
1100
0000
0010
0001
0010
0100
,
0000
0000
1001
0000
0000
0000
0100
0000
0010
0000
0000
0000
1100
0000
0000
0000
2002
3003
0000
0000
0110
0000
0000
0000
1010
0000
0000
0000
0101
0000
0000
0000
,
0001
0000
0000
0000
0001
0000
0100
0000
0000
1000
0000
0000
0010
0000
0000
0010
0000
0000
0001
0000
0000
0000
0000
0000
1100
0000
0000
0000
0000
0000
0022
0000
0000
0033
0000
0000
2002
0000
0000
3003
0000
0000
2200
0000
0000
3300
0000
0000
,
0220
0000
0000
0000
0000
0000
0000
0000
0000
0000
0000
0000
0330
0000
0000
0000
0000
0000
0000
0000
0000
0000
0000
0000
0000
0000
0000
0000
0000
0000
0000
0000
0000
0000
0000
0000
0000
0000
0000
0000
0000
0000
0000
0000
0000
0000
0000
0000
1001
0000
0000
0000
0000
0000
0000
0000
0000
0000
0000
0000
0000
0000
0000
0000
0000
0000
0000
0000
0000
0000
0000
0000
0000
0000
0000
0000
0000
0000
0000
0000
0000
0000
0000
0000
0000
0000
0000
0000
0000
0000
0000
0000
0000
0000
0000
0000
1000
0000
0000
0000
0000
0000
0000
0000
0000
0000
0000
0000
0000
0000
0000
0000
0001
0000
0000
0000
0000
0000
0000
0000
0000
0000
0000
0000
0000
0000
1000
0000
0001
0000
0000
0000
0000
0000
0000
0000
0000
0000
0000
0000
0000
0000
0000
0000
0100
0000
0000
0000
0000
0000
0000
0000
0000
0000
0000
0000
1000
0000
0000
0000
0000
0000
0000
0000
0000
0000
0000
0000
0000
0000
0000
0000
0000
0000
0010
0000
0000
0000
0000
0000
0000
0000
0000
0000
1000
0000
0000
0000
0000
0000
0000
0000
,
0000
0000
0000
0000
0000
0000
1000
0000
0000
0000
0000
0000
0000
0000
0000
0010
0100
0000
0000
0000
0010
0000
0001
0000
0000
0000
1000
0000
0000
0000
0000
0000
1000
0000
0010
0000
0000
0000
0100
0000
0000
0000
0001
0000
0010
0000
0000
0000
,
0100
0000
0000
0000
0010
0100
0000
0000
0000
0000
0000
0000
1000
0000
0001
0000
0000
0000
0000
0000
0001
0000
0000
0000
1000
0000
0000
0100
0000
0000
0000
0000
1000
0000
0000
0000
0010
0000
0000
0100
0000
0000
0010
0000
0000
1000
0000
0000
,
0000
0000
0000
0000
0000
0000
0000
0000
0000
0000
0000
0000
0000
0000
0000
0000
0001
0000
0000
0000
0000
0000
0000
0000
1000
0000
0000
0000
0000
0000
0000
0000
0000
0000
0000
0000
0000
0000
0000
0000
0000
0000
0000
0000
0000
0000
0000
0000
0001
0000
0000
0000
0000
0000
0000
0000
0000
0000
0000
0000
0010
0000
0000
0000
0000
0000
0000
0000
0000
0000
0000
0000
0100
0000
0000
0000
0000
0000
0000
0000
0000
0000
0000
0000
0010
0000
0000
0000
0000
0000
0000
0000
0000
0000
0000
0000
1000
0000
0000
0000
0000
0000
0000
0000
0000
0000
0000
0000
0000
0000
0000
0000
0001
0000
0000
0000
0000
0000
0000
0000
0000
0000
0000
0000
0000
0000
0000
0000
0001
0000
0000
0000
0000
0000
0000
0000
1000
0000
0000
0000
0000
0000
0000
0000
0100
0000
0000
0000
0000
0000
0000
0000
1000
0000
0000
0000
0000
0000
0000
0000
0000
0000
0000
0000
0000
0000
0000
0000
0000
0000
0000
0000
0000
0000
0010
0000
0000
0000
0000
0000
0000
0000
0000
0000
0000
0000
0100
0000
0000
0000
0000
0000
,
0000
0000
0000
0000
0000
0000
0000
0000
0010
0000
0000
0000
0000
0000
0000
0000
0000
0000
0000
0000
0000
0000
0000
0000
0001
0000
0000
0000
0000
0000
0000
0000
0000
0000
0000
0000
0000
0000
0000
0000
0001
0000
0000
0000
0000
0000
0000
0000
0100
0000
0000
0000
0000
0000
0000
0000
0010
0000
0000
0000
0000
0000
0000
0000
0000
0000
0000
0000
0000
0000
0000
0000
0100
0000
0000
0000
0000
0000
0000
0000
0000
0000
0000
0000
0000
0000
0000
0000
0000
0000
0000
0000
0000
0000
0000
0000
0001
0000
0000
0000
0000
0000
0000
0000
0000
0000
0000
0000
0100
0000
0000
0000
0000
0000
0000
0000
0000
0000
0000
0000
0000
0000
0000
0000
0000
0000
1000
0000
0000
0000
0000
0000
0100
0000
0000
0000
0000
0000
0000
0000
0000
0000
0000
0000
0010
0000
0000
0000
0000
0000
0000
0000
0000
0000
0000
0000
0000
0000
0000
0000
0001
0000
0000
0000
0000
0000
0000
0000
1000
0000
0000
0000
0000
0000
0000
0000
0000
0000
0000
0000
0000
0000
0000
0000
0100
0000
0000
0000
0000
0000
0000
0000
,
1000
0000
0000
0000
0000
0000
0000
0000
0000
0000
0000
0000
0000
0000
0000
0000
0000
0000
0000
0000
0010
0000
0000
0000
0000
0000
0000
0000
0000
0000
0000
0000
0000
0000
0000
0000
0001
0000
0000
0000
0000
0000
0000
0000
0000
0000
0000
0000
0000
0000
0000
0000
0000
0000
1000
0000
0000
0000
0000
0000
0010
0000
0000
0000
0000
0000
0000
0000
0000
0000
0000
0000
0100
0000
0000
0000
0000
0000
0000
0000
0000
0000
0000
0000
0000
0000
0000
0000
0000
0000
0000
0000
0000
0000
0000
0000
1001
0000
0000
0000
0000
0000
0000
0000
0000
0000
0000
0000
0000
0000
0000
0000
0000
0000
0000
0000
0000
0000
0000
0000
0010
0000
0000
0000
0000
0000
0000
0000
0000
0000
0000
0000
0100
0000
0000
0000
0000
0000
0000
0000
0000
0000
0000
0000
0010
0000
0000
0000
0000
0000
0000
0000
0000
0000
0000
0000
0000
0000
0000
0000
0000
0000
0000
0000
0000
0000
0000
0000
0100
0000
0000
0000
0000
0000
0000
0000
0000
0000
0000
0000
0000
0000
0000
0000
0000
0000
0000
0000
0000
0000
0000
0000
,
0001
0000
0000
0000
0000
0000
0000
0000
0000
0000
0000
0000
0000
0000
0000
0000
0000
0000
0001
0000
0000
0000
0000
0000
0100
0000
0000
0000
0000
0000
0010
0000
0000
0000
0000
0000
0000
0000
0000
0000
0000
0000
0000
0000
0000
0000
0000
0000
0100
0000
0000
0000
0000
0000
0000
0000
0000
0000
0000
0000
0000
0000
0000
0000
0000
0000
0000
0000
0000
0000
0000
0000
0000
0000
0000
0000
0000
0000
0000
0000
0000
0000
0000
0000
0000
0000
0000
0000
0000
0000
0000
0000
0000
0000
0000
0000
1000
0000
0000
0000
0000
0000
0000
0000
0000
0000
0000
0000
0000
0000
0000
0000
0001
0000
0000
0000
0000
0000
0000
0000
0010
0000
0000
0000
0000
0000
0000
0000
0001
0000
0000
0000
0000
0000
0000
0000
0100
0000
0000
0000
0000
0000
0000
0000
0000
0000
0000
0000
0000
0000
0000
0000
0000
0000
0000
0000
0010
0000
0000
0000
0000
0000
0000
0000
0000
0000
0000
0000
1000
0000
0000
0000
0000
0000
0000
0000
0000
0000
0000
0000
0000
0000
0000
0000
0000
0000
0000
0000
0000
0000
0000
0000
,
1000
0000
0000
0000
0000
0000
0010
0000
0000
0000
0000
0000
0001
0000
0000
0000
0000
0000
0000
0000
0000
0000
0000
0000
0100
0000
0000
0000
0000
0000
0000
0000
0000
0000
0000
0000
0000
0000
0000
0000
0000
0000
0100
0000
0000
0000
0000
0000
0010
0000
0000
0000
0000
0000
0000
0000
0000
0000
0000
0000
0000
0000
0000
0000
0001
0000
0000
0000
0000
0000
0000
0000
1000
0000
0000
0000
0000
0000
0000
0000
0001
0000
0000
0000
0000
0000
0000
0000
0000
0000
0000
0000
0000
0000
0000
0000
0100
0000
0000
0000
0000
0000
0000
0000
0000
0000
0000
0000
0000
0000
0000
0000
0000
0000
0100
0000
0000
0000
0000
0000
0010
0000
0000
0000
0000
0000
0000
0000
0000
0000
0000
0000
0000
0000
0000
0000
0000
0000
1000
0000
0000
0000
0000
0000
0000
0000
0000
0000
0000
0000
0001
0000
0000
0000
0000
0000
0000
0000
0000
0000
0000
0000
0000
0000
0000
0000
0000
0000
0001
0000
0000
0000
0000
0000
0000
0000
0000
0000
0000
0000
0000
0000
0000
0000
0100
0000
0000
0000
0000
0000
0000
0000
,
0000
0000
0010
0000
0100
0000
0000
0000
0001
0000
0000
0000
0000
0000
0001
0000
0010
0000
2000
0000
0000
0000
0000
0000
0100
0000
0000
0000
0000
0000
0000
0000
0000
0100
0000
0000
3010
0000
0000
0000
0000
0000
0000
0000
0000
1001
0000
0000
,
0000
0000
0000
1100
0000
0000
0001
0000
0000
0010
0000
0000
0001
0000
0000
0000
0000
0000
1000
0000
0000
0100
0000
0000
2002
0000
0000
0000
3003
0000
0000
0000
0000
0000
0000
0000
0000
0000
0000
0000
0000
0000
1000
0000
0000
0001
0000
0000
,
1000
0000
0000
0000
0000
0000
0100
0000
0000
0010
0000
0000
0001
0000
0000
0010
0000
0000
0100
0000
0000
0000
0000
0000
0220
0000
0000
0000
0000
0000
0000
0000
0330
0000
0000
0000
0000
0000
0000
1000
0000
0000
0000
0000
0000
1000
0000
0000
,
0100
0000
0000
0010
0000
0000
0100
0000
0000
0001
0000
0000
0000
0000
0000
0000
0000
0000
0001
0000
0000
0000
0000
0000
1100
0000
0000
0000
0000
0000
0001
0000
0000
0000
0100
0000
0000
0000
0000
0000
0100
0000
0010
0000
1000
0000
0000
0000
,
1000
0000
0000
0000
0001
0000
0010
0000
0001
0000
0000
0000
1000
0000
0000
0000
0000
0000
0010
0000
0000
0000
0000
0000
1100
0000
0000
0000
0000
0000
1001
0000
0000
0000
0000
0000
0010
0000
0000
0100
0000
0000
0010
0000
0000
1000
0000
0000
,
0000
0000
0000
0000
0000
0000
0000
0000
0000
0000
0000
0000
1000
0000
0000
0000
0000
0000
0000
0000
0000
0000
0000
0000
0001
0000
0000
0000
0000
0000
0000
0000
0000
0000
0000
0000
0000
0000
0000
0000
0000
0000
0000
0000
0000
0000
0000
0000
0101
0000
0000
0000
0000
0000
0000
0000
0000
0000
0000
0000
0000
0000
0000
0000
0000
0000
0000
0000
0000
0000
0000
0000
1100
0000
0000
0000
0000
0000
0000
0000
0000
0000
0000
0000
0000
0000
0000
0000
0000
0000
0000
0000
0000
0000
0000
0000
2002
0000
0000
0000
0000
0000
0000
0000
0000
0000
0000
0000
0000
0000
0000
0000
0000
0000
0000
0000
0000
0000
0000
0000
0000
0000
0000
0000
0000
0000
0000
0000
3003
0000
0000
0000
0000
0000
0000
0000
0000
0000
0000
0000
0000
0000
0000
0000
0010
0000
0000
0000
0000
0000
0000
0000
0000
0000
0000
0000
0000
0000
0000
0000
0000
0000
0000
0000
0000
0000
0000
0000
0100
0000
0000
0000
0000
0000
0000
0000
0000
0000
0000
0000
0010
0000
0000
0000
0000
0000
0100
0000
0000
0000
0000
0000
,
0000
0000
0000
0000
0000
0000
0001
0000
0000
0000
0000
0000
0000
0000
0000
0000
0000
0000
0000
0000
0000
0000
0000
0000
0001
0000
0000
0000
0000
0000
0000
0000
0000
0000
0000
0000
0010
0000
0000
0000
0000
0000
0000
0000
0000
0000
0000
0000
0100
0000
0000
0000
0000
0000
0000
0000
0000
0000
0000
0000
0010
0000
0000
0000
0000
0000
0000
0000
0000
0000
0000
0000
1000
0000
0000
0000
0000
0000
0000
0000
0000
0000
0000
0000
0000
0000
0000
0000
0000
0000
0000
0000
0000
0000
0000
0000
2002
0000
0000
0000
0000
0000
0000
0000
0000
0000
0000
0000
0000
0000
0000
0000
0000
0000
0000
0000
0000
0000
0000
0000
0000
0000
0000
0000
0000
0000
0000
0000
3003
0000
0000
0000
0000
0000
0000
0000
0000
0000
0000
0000
0000
0000
0000
0000
0000
0000
0000
0000
0000
0000
0000
0000
0000
0000
0000
0000
0000
0000
0000
0000
0000
0000
0000
0000
0000
0000
0000
0000
1000
0000
0000
0000
0000
0000
0000
0000
0000
0000
0000
0000
0000
0000
0000
0000
0000
0000
0000
0000
0000
0000
0000
0000
,
1000
0000
0000
0001
0000
0000
0010
0000
0000
0001
0000
0000
0100
0000
0000
0000
0010
0000
0100
0000
0000
0000
0000
0000
2002
0000
0000
0000
0000
0000
0000
0000
3003
0000
0000
0000
0000
0000
0000
0000
0000
0000
1000
0000
0000
0000
0000
0000
,
1000
0000
0000
0000
0000
0000
0000
0000
0000
0000
0000
0000
0001
0000
0000
0000
0000
0000
0000
0000
0000
0000
0000
0000
0010
0000
0000
0000
0000
0000
0000
0000
0000
0000
0000
0000
0001
0000
0000
0000
0000
0000
0000
0000
0000
0000
0000
0000
0100
0000
0000
0000
0000
0000
0000
0000
0000
0000
0000
0000
0000
0000
0000
0000
0000
0000
0000
0000
0000
0000
0000
0000
0100
0000
0000
0000
0000
0000
0001
0000
0000
0000
0000
0000
0010
0000
0000
0000
0000
0000
0000
0000
0000
0000
0000
0000
1000
0000
0000
0000
0000
0000
0000
0000
0000
0000
0000
0000
0000
0000
0000
0000
0000
0000
0000
0000
0000
0000
0000
0000
1000
0000
0000
0000
0000
0000
0000
0000
0000
0000
0000
0000
0001
0000
0000
0000
0100
0000
0000
0000
0000
0000
0000
0000
0010
0000
0000
0000
0000
0000
0000
0000
0000
0000
0000
0000
0001
0000
0000
0000
0000
0000
0000
0000
0000
0000
0000
0000
0000
0000
0000
0000
0000
0000
0000
0000
0000
0000
0000
0000
0000
0000
0000
0000
0000
0000
0000
0000
0000
0000
0000
0000
,
1100
0000
1000
0000
1001
0000
0000
0000
1001
0000
0000
0110
0000
0000
0000
0000
;
