#TITLE:DDR cursed;
#SUBTITLE:;
#ARTIST:Unknown artist;
#TITLETRANSLIT:;
#SUBTITLETRANSLIT:;
#ARTISTTRANSLIT:;
#GENRE:;
#CREDIT:PaperBox440;
#BANNER:DDR Cursed.png;
#BACKGROUND:DDR Cursed-bg.png;
#LYRICSPATH:;
#CDTITLE:;
#MUSIC:DDR cursed.ogg;
#OFFSET:0.000000;
#SAMPLESTART:2.250000;
#SAMPLELENGTH:9.375000;
#SELECTABLE:YES;
#BPMS:0.000000=160.000000
;
#STOPS:
;
#BGCHANGES:0.000=DDR cursed.mp4=1.000=0=0=0=StretchNoLoop====,
99999=-nosongbg-=1.000=0=0=0 // don't automatically add -songbackground-
;
#KEYSOUNDS:;
#ATTACKS:;

//---------------dance-single - ----------------
#NOTES:
     dance-single:
     :
     Hard:
     8:
     0.578229,0.696222,0.830277,0.449734,0.294057,117.000000,92.000000,24.000000,13.000000,14.000000,1.000000,0.578229,0.696222,0.830277,0.449734,0.294057,117.000000,92.000000,24.000000,13.000000,14.000000,1.000000:
// measure 0
0000
0000
0000
0000
,  // measure 1
0000
0000
0110
M010
,  // measure 2
010M
0010
1001
0M01
,  // measure 3
1000
0000
0001
0000
M110
0000
0010
000M
,  // measure 4
0100
0010
0000
0000
0100
0000
0100
0000
,  // measure 5
0100
0000
1001
0000
0010
0100
0010
0010
,  // measure 6
0000
0000
0110
0000
0000
1000
0001
0000
0000
1000
0001
0000
0010
0000
0000
0000
,  // measure 7
0110
MMMM
0110
0000
1000
0000
1001
0000
,  // measure 8
1000
0010
0100
0001
0000
0002
0003
0000
0110
0000
0000
0000
0110
0000
0000
0000
,  // measure 9
2000
3002
0203
0320
0030
0000
0020
0030
0000
0000
0100
0000
0010
0000
0100
0000
,  // measure 10
0000
0000
0110
0000
0000
0000
0001
1000
0000
0000
0001
1000
0000
0010
0000
0000
,  // measure 11
1000
0001
1000
0001
1000
0001
1000
0000
0010
0000
0000
0010
0000
0000
0020
0000
,  // measure 12
0000
0000
0000
0000
0000
0030
00M0
0000
1000
0000
0000
0000
1001
0000
M00M
0000
,  // measure 13
0100
0110
0001
1001
,  // measure 14
1000
0000
1001
0000
0000
0010
0100
0000
0100
0000
0010
0000
0001
0000
0000
0000
,  // measure 15
0010
0010
0010
0000
0010
0010
0010
0000
1001
0000
0000
0000
1001
0000
0000
0000
,  // measure 16
2002
3003
2002
3003
2002
3003
0000
0000
0010
0000
0100
0000
0010
0000
0000
0000
,  // measure 17
0110
1010
1001
0111
MM00
0000
0000
0000
;
