#VERSION:0.83;
#TITLE:D2R;
#SUBTITLE:;
#ARTIST:NightWritten;
#TITLETRANSLIT:;
#SUBTITLETRANSLIT:;
#ARTISTTRANSLIT:;
#GENRE:;
#ORIGIN:;
#CREDIT:Unknown StepMaker;
#BANNER:D2R.png;
#BACKGROUND:D2R-bg.png;
#PREVIEWVID:D2R-bg.png;
#JACKET:D2R-jacket.png;
#CDIMAGE:;
#DISCIMAGE:;
#LYRICSPATH:;
#CDTITLE:;
#MUSIC:D2R.mp3;
#OFFSET:-0.032000;
#SAMPLESTART:1.344500;
#SAMPLELENGTH:12.937500;
#SELECTABLE:YES;
#DISPLAYBPM:160.000000;
#BPMS:0.000=160.000;
#STOPS:;
#DELAYS:;
#WARPS:;
#TIMESIGNATURES:0.000=4=4;
#TICKCOUNTS:0.000=2;
#COMBOS:0.000=1;
#SPEEDS:0.000=1.000=0.000=0;
#SCROLLS:0.000=1.000;
#FAKES:;
#LABELS:0.000=Song Start;
#BGCHANGES:;
#KEYSOUNDS:;
#ATTACKS:
;

//---------------dance-single - ----------------
#NOTEDATA:;
#CHARTNAME:;
#STEPSTYPE:dance-single;
#DESCRIPTION:;
#CHARTSTYLE:;
#DIFFICULTY:Beginner;
#METER:2;
#RADARVALUES:0.217844,0.260455,0.012199,0.000000,0.000000,125.000000,124.000000,1.000000,0.000000,0.000000,0.000000,0.000000,0.000000,0.000000,0.217844,0.260455,0.012199,0.000000,0.000000,125.000000,124.000000,1.000000,0.000000,0.000000,0.000000,0.000000,0.000000,0.000000;
#CREDIT:;
#OFFSET:-0.032000;
#BPMS:0.000000=185.000000
;
#STOPS:;
#DELAYS:;
#WARPS:;
#TIMESIGNATURES:0.000000=4=4
;
#TICKCOUNTS:0.000000=2
;
#COMBOS:0.000000=1
;
#SPEEDS:0.000000=1.000000=0.000000=0
;
#SCROLLS:0.000000=1.000000
;
#FAKES:;
#LABELS:0.000000=Song Start
;
#DISPLAYBPM:185.000000;
#NOTES:
// measure 0
0000
0000
0000
0000
,  // measure 1
0000
0000
0000
0000
,  // measure 2
0000
0000
0000
0000
,  // measure 3
1000
0000
0000
0000
,  // measure 4
0000
0000
1000
1000
,  // measure 5
0000
0000
0100
0100
,  // measure 6
0000
0000
0010
0010
,  // measure 7
0000
0000
0001
0001
,  // measure 8
0000
0000
0100
0100
,  // measure 9
0100
0000
0001
0000
,  // measure 10
1000
0000
0100
0000
,  // measure 11
0001
0000
0100
0000
,  // measure 12
1000
0000
0100
0000
,  // measure 13
0010
0000
0001
0000
,  // measure 14
0010
0000
0001
0000
,  // measure 15
0010
0000
0010
0000
,  // measure 16
0010
0010
0010
0010
,  // measure 17
0010
0000
0001
0000
,  // measure 18
1000
0000
1000
0000
,  // measure 19
0010
0000
0010
0000
,  // measure 20
0100
0000
0100
0000
,  // measure 21
0001
0000
1000
1000
,  // measure 22
1000
0000
0001
0001
,  // measure 23
0001
0000
0001
0000
,  // measure 24
0100
0100
0100
0000
,  // measure 25
1000
0000
0000
0000
,  // measure 26
0100
0000
0000
0000
,  // measure 27
0001
0000
0000
0000
,  // measure 28
0100
0000
0000
0000
,  // measure 29
0010
0000
0010
0000
,  // measure 30
0100
0000
0100
0000
,  // measure 31
0001
0000
0100
0000
,  // measure 32
0010
0000
1000
0000
,  // measure 33
0001
0000
1000
0000
,  // measure 34
0010
0010
0010
0010
,  // measure 35
0000
1000
0000
0001
,  // measure 36
0000
0100
0100
0100
,  // measure 37
0000
0010
0000
0100
,  // measure 38
0100
0000
0100
0100
,  // measure 39
0000
0001
0000
0001
,  // measure 40
0000
1000
0000
0110
,  // measure 41
0000
0000
1000
1000
,  // measure 42
0000
0000
0100
0100
,  // measure 43
0000
0000
0001
0001
,  // measure 44
0000
0000
0100
0100
,  // measure 45
0000
0000
0001
0001
,  // measure 46
0000
0000
1000
1000
,  // measure 47
0000
0000
0010
0010
,  // measure 48
0000
1000
0000
1000
,  // measure 49
0000
0000
0100
0100
,  // measure 50
0000
0001
0000
0001
,  // measure 51
0000
0100
0000
0100
,  // measure 52
0000
0001
0001
0001
,  // measure 53
0001
0000
1000
1000
,  // measure 54
1000
0000
0010
0000
,  // measure 55
0010
0000
0010
0000
,  // measure 56
0100
0100
0100
0100
,  // measure 57
0100
0000
0000
0000
,  // measure 58
0001
0000
0000
0000
,  // measure 59
0000
0100
0000
0100
,  // measure 60
0000
0010
0010
0010
,  // measure 61
0010
0000
0000
0000
;

//---------------dance-single - ----------------
#NOTEDATA:;
#CHARTNAME:;
#STEPSTYPE:dance-single;
#DESCRIPTION:;
#CHARTSTYLE:;
#DIFFICULTY:Easy;
#METER:4;
#RADARVALUES:0.264899,0.334870,0.060996,0.060996,0.000000,152.000000,147.000000,5.000000,5.000000,0.000000,0.000000,0.000000,0.000000,0.000000,0.264899,0.334870,0.060996,0.060996,0.000000,152.000000,147.000000,5.000000,5.000000,0.000000,0.000000,0.000000,0.000000,0.000000;
#CREDIT:;
#OFFSET:-0.032000;
#BPMS:0.000000=185.000000
;
#STOPS:;
#DELAYS:;
#WARPS:;
#TIMESIGNATURES:0.000000=4=4
;
#TICKCOUNTS:0.000000=2
;
#COMBOS:0.000000=1
;
#SPEEDS:0.000000=1.000000=0.000000=0
;
#SCROLLS:0.000000=1.000000
;
#FAKES:;
#LABELS:0.000000=Song Start
;
#DISPLAYBPM:160.000000;
#NOTES:
0000
0000
0000
0000
,
0000
0000
0000
0000
,
0000
0000
0000
0000
,
2000
0000
0000
0000
,
0000
3000
0100
0100
,
0001
0000
0100
0100
,
1000
0000
0100
0100
,
0001
0000
0100
0000
,
1000
0000
0100
0100
,
0001
0000
0100
0000
,
1000
0000
0100
0000
,
0001
0001
0100
0100
,
1000
1000
0100
0100
,
0010
0001
0010
0001
,
0010
0001
0100
0100
,
0010
0000
0010
0000
,
0010
0010
0010
1001
,
0001
0000
0001
0000
,
1000
0000
1000
0000
,
0010
0000
0010
0000
,
0100
0000
0100
0000
,
0001
0000
1000
1000
,
0001
0000
1000
1000
,
0001
0000
0001
0000
,
0001
0001
0001
0001
,
2000
0000
0000
3000
,
0100
0000
0000
0000
,
0002
0000
0000
0003
,
0100
0000
0000
0000
,
0010
0000
0010
0000
,
0100
0000
0100
0000
,
0001
0001
0100
0100
,
0010
0010
1000
1000
,
0001
0000
1000
0000
,
0010
0010
0010
0010
,
1000
0000
0001
0000
,
0100
0100
0100
0100
,
0010
0000
0010
0000
,
0100
0000
0100
1001
,
0001
0000
0001
0000
,
1000
1000
0100
1001
,
0001
0000
1000
0000
,
0100
0000
1000
0000
,
0001
0000
0100
0000
,
0010
0000
0100
0000
,
0001
0001
0001
1000
,
1000
1000
0001
0000
,
1000
0000
0001
0000
,
1000
1000
1000
0000
,
1001
0000
0100
0000
,
1001
0000
0100
0000
,
0001
0000
1000
0000
,
0010
0100
0100
0100
,
0002
0000
0003
2000
,
0000
3000
0010
0000
,
0010
0000
0010
0000
,
0100
0100
0001
0001
,
1000
0000
0000
0000
,
0001
0000
0000
0000
,
0100
0000
0100
0000
,
0010
0010
0010
0010
,
0100
0000
0000
0000
;

//---------------dance-single - ----------------
#NOTEDATA:;
#CHARTNAME:;
#STEPSTYPE:dance-single;
#DESCRIPTION:;
#CHARTSTYLE:;
#DIFFICULTY:Medium;
#METER:8;
#RADARVALUES:0.465316,0.529449,0.378178,0.390377,0.000000,267.000000,236.000000,31.000000,32.000000,0.000000,0.000000,0.000000,0.000000,0.000000,0.465316,0.529449,0.378178,0.390377,0.000000,267.000000,236.000000,31.000000,32.000000,0.000000,0.000000,0.000000,0.000000,0.000000;
#CREDIT:;
#OFFSET:-0.032000;
#BPMS:0.000000=185.000000
;
#STOPS:;
#DELAYS:;
#WARPS:;
#TIMESIGNATURES:0.000000=4=4
;
#TICKCOUNTS:0.000000=2
;
#COMBOS:0.000000=1
;
#SPEEDS:0.000000=1.000000=0.000000=0
;
#SCROLLS:0.000000=1.000000
;
#FAKES:;
#LABELS:0.000000=Song Start
;
#DISPLAYBPM:160.000000;
#NOTES:
0000
0000
0000
0000
,
0000
0000
0000
0000
,
0000
0000
0000
0000
,
0020
0000
0000
0000
,
0100
0000
0130
0000
0000
0001
0100
0000
,
0010
1000
0010
0000
0010
1000
0010
0000
,
0001
0100
0001
0000
0001
0100
0001
0000
,
2000
3100
0002
0103
,
2000
0000
3000
1001
,
0010
0010
2000
3100
,
0010
0010
0002
0103
,
0010
1000
0010
0000
0001
0100
0001
0000
,
1001
0100
0010
1001
,
0010
1000
0100
0001
,
0001
1000
0100
0000
0010
0000
0010
0000
,
0100
1000
1000
0000
0100
0001
0001
0000
,
0010
1000
0010
1000
0010
0000
1001
0000
,
1000
0000
0100
0000
0001
0010
0100
0000
,
0001
0000
0100
0000
1000
0010
0100
0000
,
0001
0010
0100
0000
0001
0010
0100
0000
,
1000
0010
0100
0000
1000
0010
0100
0000
,
0002
0103
2000
3100
,
0002
0103
2000
3100
,
0010
0010
0010
0010
,
0001
0100
0010
1001
,
0220
0000
0000
0330
,
1001
0202
0000
0303
,
0001
0001
0100
0100
,
0010
0010
1000
0101
,
1001
0000
0100
0000
0010
1000
0100
0000
,
0001
0100
0001
0100
,
2000
3100
0002
0103
,
2000
3100
0001
0101
,
0010
1000
0010
0001
,
0010
1000
0001
1001
,
1000
0100
0001
0100
,
1000
0100
0001
0101
,
0001
0001
1000
1000
,
0010
0010
0100
0101
,
0002
0003
2000
3000
,
0010
0010
1001
1001
,
0010
1000
0010
0000
0010
1000
0010
0000
,
0001
0100
0001
0000
0001
0100
0001
0000
,
2000
3100
0002
0103
,
2000
3100
0002
0103
,
1001
0000
0110
1001
,
1001
0000
0100
0100
,
1001
0100
0010
1001
,
0010
0010
0010
1001
,
2000
3100
1002
0103
,
2001
3100
1002
0103
,
0010
0000
1000
0000
,
0001
0001
0001
0000
,
1001
0000
0110
1001
,
1001
0000
0100
0100
,
0010
0100
0010
0100
,
0100
0000
0010
0000
1000
0001
0100
0000
,
2002
0000
0000
3003
0000
0010
0100
2000
,
0000
0000
0000
3000
0000
0010
0100
0002
,
0000
0000
0000
0003
0000
0001
0000
0100
,
0000
1000
0000
0100
0000
0010
0001
0000
,
1000
0010
0200
0000
0000
0000
0000
0000
,
0300
0000
0000
0000
;

//---------------dance-single - ----------------
#NOTEDATA:;
#CHARTNAME:;
#STEPSTYPE:dance-single;
#DESCRIPTION:;
#CHARTSTYLE:;
#DIFFICULTY:Hard;
#METER:10;
#RADARVALUES:0.611707,0.680720,0.292783,0.134192,0.109794,351.000000,327.000000,24.000000,11.000000,0.000000,0.000000,0.000000,0.000000,0.000000,0.611707,0.680720,0.292783,0.134192,0.109794,351.000000,327.000000,24.000000,11.000000,0.000000,0.000000,0.000000,0.000000,0.000000;
#CREDIT:;
#OFFSET:-0.032000;
#BPMS:0.000000=185.000000
;
#STOPS:;
#DELAYS:;
#WARPS:;
#TIMESIGNATURES:0.000000=4=4
;
#TICKCOUNTS:0.000000=2
;
#COMBOS:0.000000=1
;
#SPEEDS:0.000000=1.000000=0.000000=0
;
#SCROLLS:0.000000=1.000000
;
#FAKES:;
#LABELS:0.000000=Song Start
;
#DISPLAYBPM:160.000000;
#NOTES:
0000
0000
0000
0000
,
0000
0000
0000
0000
,
0000
0000
0000
0000
,
0010
0010
0020
0000
0000
2000
0030
0000
,
3000
0001
0000
0100
0000
1001
1001
0000
,
0010
1000
0100
0000
0010
0001
0100
0000
,
0001
1000
0100
0000
1000
0001
0100
0000
,
0010
1000
0100
0001
0100
1000
0010
0000
,
0000
1000
0000
0001
0000
0010
1001
0000
,
0010
1000
0001
1000
0100
0001
0100
0000
,
0010
0010
0010
0000
1000
0000
0100
0000
,
0010
0001
0100
0001
1000
0010
0100
0001
,
1000
0010
0001
0010
1000
0100
0001
0000
,
0100
1000
1000
0000
0100
0001
0001
0000
,
1000
0010
0100
0001
0010
0100
1000
0000
,
0010
1000
0101
0000
0001
1000
1100
0000
,
0100
0001
1000
0100
1001
0000
1001
0000
,
1000
0000
0000
0000
0001
0000
0000
0000
0100
0010
0100
0000
0110
0000
0000
0000
,
0010
0000
0000
0000
0100
0000
0000
0000
0001
1000
0001
0000
1001
0000
0000
0000
,
1000
0000
0000
0000
0010
0000
0000
0000
0100
0001
0100
0000
0101
0000
0000
0000
,
1000
0000
0000
0000
0100
0000
0000
0000
0010
0001
0010
0000
0011
0000
0000
0000
,
0100
0000
1000
0001
0000
0000
0100
0000
,
0010
1000
0000
0001
0000
1000
0100
0010
,
0001
0000
1000
0100
0000
1000
0001
0000
,
0010
1000
0100
0000
0010
0001
0100
0000
,
2002
0000
0000
3003
,
1000
1000
1000
1000
,
0010
0000
1000
0000
0001
0000
1000
0100
0000
0010
0000
0001
1000
0000
0100
0000
,
0010
0000
0001
0000
0100
0000
0010
1000
0000
0000
0001
0000
0100
0000
1000
0000
,
1000
0000
0000
0001
0000
0000
0100
0000
0000
0010
0100
0000
0001
0000
1000
0000
,
1000
1000
1000
1000
,
0100
0000
1000
0000
0010
0000
0001
0010
0000
1000
0000
0100
0010
0000
0001
0000
,
0100
0000
0010
0000
1000
0000
0100
0001
0000
0000
0000
0000
0000
0000
0000
0000
,
0010
0100
0001
0000
1000
0001
1000
0000
,
0010
0100
1000
0100
0001
0000
0100
0000
,
1000
0001
1000
0100
0010
0100
0001
0100
,
1000
0010
0001
0010
1000
0000
0001
0000
,
0100
1000
0010
0000
0010
1000
0100
0000
,
0010
0001
0100
0010
1000
0100
1000
0000
,
1000
0010
0100
0000
0001
1000
0100
0000
,
1000
0000
0000
1000
0000
0000
1000
0000
0001
0000
0101
0000
0101
0000
0000
0000
,
1000
0000
0000
0000
1000
0000
0000
0000
0001
1000
0001
0000
0101
0000
0000
0000
,
0001
0000
0000
0000
0001
0000
0000
0000
1000
0001
1000
0000
1100
0000
0000
0000
,
0001
0000
1000
0100
0000
0001
0100
0000
,
0010
0000
0100
0010
0000
1000
0100
0000
,
1000
0000
1000
0001
0000
0000
0010
0000
,
0100
0010
0000
0001
0000
1000
0100
0010
,
0001
0000
1000
1000
0000
0001
0001
0000
,
0000
0010
0000
0100
0000
1000
1000
0000
,
1000
0000
0010
0100
0000
0001
0001
0000
,
0010
0100
1000
0000
0010
0100
0001
0000
,
0010
0000
0100
1000
0000
1000
0010
0000
,
0000
1001
0000
0100
0000
1000
0010
1000
,
0010
0000
1001
1001
0000
0000
0010
0000
,
0110
0110
0000
1000
0000
0001
0100
1000
,
1000
0000
1000
1000
0000
1000
1000
0000
,
0001
0000
0000
0010
0000
0000
0100
0000
1000
0000
0001
0000
0100
0000
0000
0000
,
2020
0000
3030
0000
0100
0010
2002
0000
,
0000
0000
3003
0000
1000
0100
0220
0000
,
0000
0330
0000
1000
0000
1000
0000
1000
,
0000
0100
0000
0100
0001
1000
0100
0000
,
1000
0010
0020
0000
0000
0000
0000
0000
,
0030
0000
0000
0000
;

//---------------dance-single - Copied from----------------
#NOTEDATA:;
#CHARTNAME:Copied from;
#STEPSTYPE:dance-single;
#DESCRIPTION:Copied from;
#CHARTSTYLE:;
#DIFFICULTY:Challenge;
#METER:14;
#RADARVALUES:0.670961,0.869809,0.439174,0.195189,0.317181,385.000000,349.000000,36.000000,16.000000,0.000000,0.000000,0.000000,0.000000,0.000000,0.670961,0.869809,0.439174,0.195189,0.317181,385.000000,349.000000,36.000000,16.000000,0.000000,0.000000,0.000000,0.000000,0.000000;
#CREDIT:Copied from;
#OFFSET:-0.032000;
#BPMS:0.000000=185.000000
;
#STOPS:;
#DELAYS:;
#WARPS:;
#TIMESIGNATURES:0.000000=4=4
;
#TICKCOUNTS:0.000000=2
;
#COMBOS:0.000000=1
;
#SPEEDS:0.000000=1.000000=0.000000=0
;
#SCROLLS:0.000000=1.000000
;
#FAKES:;
#LABELS:0.000000=Song Start
;
#DISPLAYBPM:160.000000;
#NOTES:
0000
0000
0000
0000
,
0010
0020
0000
0000
0030
0000
0000
0100
,
0010
0100
0000
1000
2000
0000
0000
3000
,
0010
0020
0000
0000
0130
0000
0200
0000
,
0000
0000
0300
0110
,
0010
1000
0100
0100
0010
0001
0100
0000
,
0001
0010
0000
0000
0000
0000
1000
0000
1000
0000
0001
0000
0100
0000
0000
0000
,
0010
1000
0100
0001
0100
2000
0010
3010
,
0000
0100
2000
0000
0000
0000
0000
0000
0000
0000
0000
0000
0000
0000
3010
0000
,
0000
0000
0100
0000
0100
0010
0000
0010
1000
0000
0001
1000
0001
0000
0100
0000
,
0010
0100
0010
0100
0010
0000
0000
0000
1000
0100
0000
0000
0100
0010
0000
0000
,
0010
0000
0001
0000
0100
0000
0001
0000
1000
0000
0000
1000
0010
0010
0100
0000
,
0100
0001
0000
0010
1000
0000
0000
1000
0100
0001
0000
0000
0010
0000
0100
0000
,
0000
0100
0010
0000
1000
0000
0000
1000
0001
0010
0010
0100
0000
0100
0001
1000
,
0000
0000
1000
1000
0000
0100
0001
0010
0000
0100
0010
0000
0000
1000
1000
0001
,
0000
0010
0100
0000
0010
0000
0100
0100
0000
0001
0000
1000
0000
0000
1000
0000
,
0000
0100
1001
0000
0011
0000
0010
0010
,
1000
0000
0000
0000
1001
0000
0000
0000
0100
0010
0100
0000
0000
0000
0000
0000
,
0010
0000
0000
0000
0100
0000
0000
0000
0001
1000
0001
0000
1001
0000
0000
0000
,
1000
0000
0000
0000
0010
0000
0000
0000
0100
0001
0100
0000
0101
0000
0000
0000
,
1000
0000
0000
0000
0100
0000
0000
0000
0010
0001
0010
0000
0011
0000
0000
0000
,
0100
0000
1000
0001
0000
0000
0100
0000
,
0110
1000
0000
0001
0000
0100
0010
0100
,
0001
0000
1000
0100
0100
1000
0001
0200
,
0000
0000
0000
0000
0000
0300
0000
0000
,
0000
0000
0010
0000
0010
0000
1000
0000
0001
0000
1000
0000
0000
0100
0010
0100
,
0010
1000
1000
1000
,
0010
0000
1000
0000
0001
0000
1000
0100
0000
0010
0000
0001
1000
0000
0100
0000
,
0010
0000
0001
0000
0100
0000
0010
1000
0000
0000
0001
0000
0100
0000
1000
0000
,
1000
0000
0000
0001
0000
0000
0100
0000
0000
0010
0100
0000
0001
0000
1000
0000
,
1000
1000
1000
1000
,
1000
0000
1000
0000
0010
0000
0001
0010
0000
1000
0000
0100
0010
0000
0001
0000
,
0100
0000
0010
0000
1000
0000
0100
0001
0000
0001
1000
0000
0000
0000
0000
0000
,
0010
0100
0001
0000
1000
0001
1000
0000
,
0011
0100
1000
0100
0011
0000
0100
0000
,
1010
0001
1000
0100
0010
0100
0001
0100
,
1000
0010
0011
0010
1100
0000
0001
0000
,
0100
1000
0010
0000
0011
1000
1100
0000
,
0110
0001
0101
0010
1000
0100
1000
0000
,
1000
0010
0100
0000
0001
1000
0100
0000
,
1000
0000
0000
1000
0000
0000
1000
0000
0001
0000
0101
0000
0101
0000
0000
0000
,
1000
0000
0000
0000
1000
0000
0000
0000
0001
1000
0001
0000
0101
0000
0000
0000
,
0001
0000
0000
0000
0001
0000
0000
0000
1000
0001
1000
0000
1100
0000
0000
0000
,
0001
0000
1000
0100
0000
0001
0002
0000
,
0000
0003
0100
0100
0000
1000
0100
0000
,
1000
0000
1000
0001
1001
0000
0000
0000
,
0010
0010
0000
0001
0000
1000
0100
0010
,
0001
0000
1000
1000
0000
0001
1001
0000
,
0000
0010
0000
0100
0000
1000
1000
0000
,
1000
1100
0100
0110
,
0010
0011
0001
2000
,
3001
0110
1001
0011
,
0110
0000
1100
0000
0010
0100
0100
0000
,
1000
0000
0010
0001
0000
0000
0010
0000
,
0110
0110
0000
1000
0000
0001
0100
1000
,
1000
0000
1000
1000
0000
1000
1000
0000
,
0001
0000
0000
0010
0000
0000
0100
0000
1000
0000
0001
0000
0100
0000
0000
0000
,
2020
0000
3030
0000
0100
0010
2002
0000
,
0000
0000
3003
0000
1000
0100
0220
0000
,
0000
0330
0000
1000
0000
1000
0000
1000
,
0000
0100
0000
0100
0001
1000
0010
0000
,
1000
0010
0020
0000
0000
0000
0000
0000
,
0030
0000
0000
0000
;

//---------------dance-single - ----------------
#NOTEDATA:;
#CHARTNAME:BAD EDIT;
#STEPSTYPE:dance-single;
#DESCRIPTION:;
#CHARTSTYLE:;
#DIFFICULTY:Edit;
#METER:14;
#RADARVALUES:0.620421,0.825282,0.231786,2.732641,1.104035,356.000000,337.000000,19.000000,224.000000,0.000000,3.000000,0.000000,0.000000,0.000000,0.620421,0.825282,0.231786,2.732641,1.104035,356.000000,337.000000,19.000000,224.000000,0.000000,3.000000,0.000000,0.000000,0.000000;
#CREDIT:;
#OFFSET:-0.032000;
#BPMS:0.000000=185.000000
;
#STOPS:;
#DELAYS:;
#WARPS:;
#TIMESIGNATURES:0.000000=4=4
;
#TICKCOUNTS:0.000000=2
;
#COMBOS:0.000000=1
;
#SPEEDS:0.000000=1.000000=0.000000=0
;
#SCROLLS:0.000000=1.000000
;
#FAKES:;
#LABELS:0.000000=Song Start
;
#DISPLAYBPM:160.000000;
#NOTES:
0000
0000
0000
0000
,
0002
2000
0000
0000
0000
0000
0000
0000
0000
0000
0000
0003
0000
0010
0000
0020
,
0000
3000
0000
0200
0000
0000
0000
0000
0300
0000
0002
0000
0000
0000
0000
0003
,
0000
2000
0000
0000
3000
0000
0002
0000
0000
0000
0000
0030
0000
0200
0000
0000
,
0000
0000
0300
0000
2000
0000
0000
0000
0003
0000
0001
0000
3001
0000
0000
0200
,
0020
0000
0000
0030
0000
2000
0300
0000
0002
3000
0000
0000
0020
0000
0003
0000
,
2000
0000
3000
0030
0000
2000
0200
0000
0300
0000
0002
3000
0000
0020
0000
0000
,
0030
0000
0200
0000
0000
0303
0000
2000
0000
0200
0300
0020
0030
0002
3003
0000
,
0002
0000
0000
0000
0000
1000
2000
0000
,
3003
0000
0000
2000
0020
0000
3030
0000
0200
0002
0300
0000
0003
1000
0010
0000
,
0200
0000
0001
0300
0002
0000
0010
0200
0003
0000
0300
0001
0000
1000
0020
0000
,
0100
0000
0031
0000
0002
1000
0000
2000
0003
0000
0000
3010
0000
0200
0000
0010
,
0000
1300
0000
0002
0000
0010
0000
0203
0000
2000
0000
3300
0000
0010
0000
0020
,
0000
0001
0000
0032
0000
0000
0200
0003
0000
0000
0020
0000
0000
0000
0000
0000
,
0030
0000
2000
0000
0000
3000
0000
0001
0000
0001
0000
2000
0000
0000
0000
3000
,
0000
0010
0000
0002
0000
0000
0000
0003
0000
0001
2000
0000
0000
0000
3000
0000
,
0000
1300
0000
0110
0000
0000
0000
0000
0200
0000
0010
0000
0020
0000
0300
0001
,
0000
2000
0030
0000
0000
0002
0000
0000
0000
0000
0000
0000
0000
3000
0000
0000
,
0000
0000
0003
0000
0002
0010
0100
0020
,
0000
0003
0000
1000
0000
0200
0030
0000
0002
0000
0300
0000
0000
1000
0000
0000
,
0000
0100
0000
0000
0000
1000
0000
0203
0000
0020
0000
0300
0000
0000
0230
0000
,
0000
0000
0010
0000
0300
0000
0020
0000
0000
1000
0000
0002
0030
0000
0100
0000
,
0003
0000
0110
0000
0210
0000
0020
0000
0300
0000
0000
2000
0030
0000
0000
0002
,
3000
0000
0000
0100
0000
0010
0000
0000
0000
0000
0103
0000
0200
0000
0020
0000
,
0000
0000
0000
0000
0000
0000
0000
0000
0000
0000
0000
0000
0000
0000
0000
0330
,
0000
0000
1000
0001
0100
0000
0010
1000
0001
0100
0010
0100
0001
0000
0011
0000
,
0000
0002
0000
0023
0000
2030
0000
3200
0000
0302
0003
0020
0000
0230
0000
0302
,
0003
0000
0000
0000
0000
0000
0000
0000
0000
1000
0000
0000
0010
0000
0000
0100
0000
0000
0000
0000
0000
0100
0000
0000
0001
0000
0000
0000
0000
0000
1000
0000
0000
0010
0000
0000
0000
0000
0100
0000
0000
0000
0010
0000
0000
0000
0000
0000
,
0001
1000
0010
0100
0000
0020
0000
0100
0000
0030
1000
0002
0000
0100
0000
0010
,
0000
0000
1000
0000
0013
0000
0100
0000
0001
1000
0000
0020
0100
0000
0001
1000
,
0030
0000
0110
0000
0001
1000
0100
1000
0200
0000
0020
0000
0300
0000
0000
2030
,
0000
0000
3002
0000
0003
0010
1000
0000
0102
0010
0000
0100
0010
1003
0000
0110
,
0000
0000
0110
0000
0000
0002
0000
2000
0000
0000
0003
0010
0000
0020
0000
0000
,
0000
3000
0000
0230
0000
0000
0302
0000
0000
0003
0020
0000
0000
2030
0000
0000
,
0000
3200
0000
0000
0300
0002
0003
0020
0000
0000
0000
0230
0000
0000
0302
0000
,
0000
2003
0000
0020
3000
0000
0200
0030
0000
0000
0302
0000
0003
0020
0000
2000
,
0030
0000
0000
3200
0000
0000
2300
0000
0000
3002
0000
0023
0000
0000
0200
0030
,
0000
0302
0000
0003
0020
0000
2000
0030
0000
0000
3200
0020
0030
0000
0000
0002
,
0000
0000
2003
0000
0000
3000
0020
0000
0000
0000
0030
0300
0000
0002
0000
2000
,
0000
0000
3000
0023
0000
0200
0000
0000
0300
0030
0002
0000
2000
0000
3000
0003
,
0020
0000
0200
0000
0030
0300
0000
2000
0002
0000
3003
0000
0000
0102
0000
0000
,
0020
0000
0030
0000
0000
0200
0000
0303
0000
0000
2200
0000
3300
0000
0220
0000
,
0330
0000
0022
0000
0000
0033
0000
0000
0010
0200
0000
0010
0300
0002
0000
0010
,
0000
1003
0000
0020
0000
0200
0000
0030
0000
0000
0000
0310
0000
0002
0000
1000
,
0000
0023
0000
0000
2000
0030
0000
0000
0100
3000
0200
0000
0010
0000
0300
0002
,
0000
0000
0010
0003
0000
0000
2000
0000
0002
0000
3000
0000
0000
0013
0000
0020
,
0000
0100
0000
2030
0000
0002
0000
3000
0000
0000
0020
0000
0003
0000
0200
0030
,
0000
0000
0300
2000
0000
0000
0002
3000
0000
0003
0020
0000
0000
0200
0030
0000
,
0002
0300
0003
0020
0000
2000
0030
0000
0000
3002
0200
0003
0000
0320
0000
0000
,
0230
0000
0000
0302
0000
0000
0000
0023
0000
0000
2030
0000
0000
3002
0000
0020
,
0000
0030
0200
0000
0323
0000
2030
0000
3002
0000
0023
0000
0230
0000
0300
0002
,
0000
0023
0000
1030
0000
2000
0000
0100
3002
0000
0010
0003
0200
0000
0000
0310
,
0000
0110
0000
0002
0000
0000
2000
0003
0000
0000
3020
0000
0200
0030
0000
0302
,
0023
0000
2030
0000
3020
0000
0230
0000
0000
0302
0003
0200
0320
2030
0000
3002
,
0020
0033
0000
0000
0200
0000
0320
0000
2030
0000
3002
0023
0200
0030
0302
0000
,
0023
0000
0030
0002
0000
2000
0000
0000
3203
0000
0320
0000
2000
0030
3200
0000
,
0000
0310
0000
0000
0220
0000
0000
0000
0330
0000
0000
2100
0000
0002
0000
0003
,
0000
0000
0100
0020
0000
0000
0030
0000
0001
0000
0000
0002
0003
0200
0000
0000
,
3300
0000
0000
0020
0000
0200
0030
0000
0002
0300
0000
0003
2000
0000
3020
0000
,
0000
0230
0000
0302
0000
0003
0020
2030
0000
0000
0000
0100
0000
0010
3000
0100
,
0000
0001
0000
0000
0201
0000
0000
0000
0000
0010
0000
1000
0000
0301
0000
0000
,
0110
0110
0220
0000
0330
0000
0000
0000
;

//---------------dance-double - ----------------
#NOTEDATA:;
#CHARTNAME:;
#STEPSTYPE:dance-double;
#DESCRIPTION:;
#CHARTSTYLE:;
#DIFFICULTY:Easy;
#METER:3;
#RADARVALUES:0.240500,0.336243,0.000000,0.048797,0.000000,138.000000,138.000000,0.000000,4.000000,0.000000,0.000000,0.000000,0.000000,0.000000,0.240500,0.336243,0.000000,0.048797,0.000000,138.000000,138.000000,0.000000,4.000000,0.000000,0.000000,0.000000,0.000000,0.000000;
#CREDIT:;
#OFFSET:-0.032000;
#BPMS:0.000000=160.000000
;
#STOPS:;
#DELAYS:;
#WARPS:;
#TIMESIGNATURES:0.000000=4=4
;
#TICKCOUNTS:0.000000=2
;
#COMBOS:0.000000=1
;
#SPEEDS:0.000000=1.000000=0.000000=0
;
#SCROLLS:0.000000=1.000000
;
#FAKES:;
#LABELS:0.000000=Song Start
;
#DISPLAYBPM:160.000000;
#NOTES:
00000000
00000000
00000000
00000000
,
00000000
00000000
00000000
00000000
,
00000000
00000000
00000000
00000000
,
10000000
00000000
00010000
00000000
,
01000000
00000000
00001000
00001000
,
00000010
00000000
00000010
00000000
,
00000010
00001000
00010000
00000000
,
00100000
00000000
00100000
00000000
,
10000000
01000000
01000000
00000000
,
01000000
00000000
00010000
00000000
,
00001000
00000000
00000100
00000100
,
00000001
00000000
00000100
00000000
,
00001000
00000000
00010000
00010000
,
01000000
00000000
10000000
00000000
,
10000000
00000000
00100000
00010000
,
00001000
00000000
00000100
00000000
,
00000001
00000001
00000100
00000100
,
00001000
00000000
00010000
00000000
,
01000000
00000000
10000000
10000000
,
00010000
00000000
01000000
00001000
,
00010000
00000000
00000010
00010000
,
00001000
00000000
00000000
00010000
,
00000000
00000000
01000000
00000000
,
10000000
00000000
00100000
00000000
,
00010000
00001000
00010000
00000000
,
00000200
00000000
00000000
00000300
,
00000010
00000010
00000010
00000010
,
00000001
00000000
00000000
00000000
,
00010000
00000000
00000000
00000000
,
10000000
10000000
00000000
00000000
,
01000000
01000000
00000000
00000000
,
00010000
00001000
00000000
00000000
,
00000100
00000001
00000010
00000000
,
00000001
00000001
00000001
00000001
,
00000100
00000100
00001000
00010000
,
01000000
00000000
01000000
00000000
,
10000000
00000000
00100000
00100000
,
00010000
00000000
00001000
00000000
,
00000100
00000100
00000100
00000100
,
00000001
00000000
00000001
00000000
,
00000100
00001000
00010000
01000000
,
00000000
10000000
00000000
01000000
,
00000000
00010000
00001000
00000000
,
00000100
00000000
00000100
00000000
,
00000001
00000001
00000100
00000000
,
00001000
00000000
00000000
00010000
,
00000000
00000000
00100000
00000000
,
00100000
00000000
10000000
00000000
,
01000000
00010000
00001000
00000000
,
00000010
00000000
00000010
00000000
,
00000001
00000000
00000001
00000000
,
00000100
00000000
00000100
00000000
,
00001000
00000000
00010000
00000000
,
01000000
00000000
00000000
10000000
,
00000000
00000000
01000000
00000000
,
00010000
00000000
00001000
00000000
,
00010000
00010000
00010000
00000000
,
00000020
00000000
00000030
00000000
,
00020000
00000000
00030000
00000000
,
00002000
00000000
00003000
00000000
,
00100000
00100000
00001000
00010000
,
00000010
00000100
00000000
00000000
;

//---------------dance-double - ----------------
#NOTEDATA:;
#CHARTNAME:;
#STEPSTYPE:dance-double;
#DESCRIPTION:;
#CHARTSTYLE:;
#DIFFICULTY:Medium;
#METER:5;
#RADARVALUES:0.428718,0.523044,0.097594,0.121993,0.006100,246.000000,238.000000,8.000000,10.000000,0.000000,0.000000,0.000000,0.000000,0.000000,0.428718,0.523044,0.097594,0.121993,0.006100,246.000000,238.000000,8.000000,10.000000,0.000000,0.000000,0.000000,0.000000,0.000000;
#CREDIT:;
#OFFSET:-0.032000;
#BPMS:0.000000=160.000000
;
#STOPS:;
#DELAYS:;
#WARPS:;
#TIMESIGNATURES:0.000000=4=4
;
#TICKCOUNTS:0.000000=2
;
#COMBOS:0.000000=1
;
#SPEEDS:0.000000=1.000000=0.000000=0
;
#SCROLLS:0.000000=1.000000
;
#FAKES:;
#LABELS:0.000000=Song Start
;
#DISPLAYBPM:160.000000;
#NOTES:
00000000
00000000
00000000
00000000
,
00000000
00000000
00000000
00000000
,
00000000
00000000
00000000
00000000
,
00002000
00000000
00000000
00003000
,
00010000
00000000
00100000
00000000
01000000
00010000
00001000
00000000
,
00000100
00000100
00000001
00000001
,
00000010
00000010
00001000
00010000
,
00100000
00100000
10000000
10000000
,
00000000
10000000
00000000
01000000
00000000
00010000
00001000
00000000
,
00000010
00000010
00000001
00000001
,
00000100
00000000
00000100
00000000
00001000
00010000
01000000
00000000
,
10000000
00100000
01000000
00000000
00010000
00000000
00001000
00000000
,
00001000
00000000
00000100
00000000
00000001
00001000
00000100
00000000
,
00000010
00000010
00000100
00000100
,
00010000
00000000
00001000
00000000
00100000
01000000
00010000
00000000
,
10000000
01000000
00010000
00001000
,
00001000
00000000
00000000
00000000
00000100
00000001
00000010
00001000
,
00010000
00000000
00100000
10000000
,
20000000
30000000
01000000
00010000
,
00001000
00000100
00000001
00000010
,
00000200
00000000
00000300
00000000
00010000
00001000
00010000
00000000
,
02000000
03000000
10000000
00010000
,
00002000
00003000
00000001
00001000
,
00001000
00001000
00000010
00000100
,
00001000
00010000
01000000
01000000
,
20000000
00000000
00000000
30000000
,
01000000
00000000
00010000
00000000
00001000
00000000
00010000
00001000
,
00000100
00000100
00000100
00000100
,
00001000
00010000
01000000
00000000
01000000
00000000
01000000
00000000
,
10000000
00000000
10000000
00000000
,
10000000
00000000
01000000
00000000
01000000
00010000
00001000
00000000
,
00100000
00001000
00100000
00001000
,
00010000
00001000
00000010
00000001
00000100
00000000
00001001
00000000
,
00000101
00000000
00000010
00000000
00001000
00000000
00010000
00001000
,
00000000
00010000
00001000
00000000
01000000
00000000
01010000
00000000
,
10000000
01000000
00010000
00000000
00011000
00000000
00001000
00000100
,
00000000
00000100
00000010
00000000
00001000
00000000
01001000
00000000
,
00010000
00010000
01000000
01000000
,
00001000
00000000
00010000
00000000
00001000
00000100
00000001
00000000
,
00000010
00000010
00000100
00000100
,
00011000
00000000
00000000
00101000
00000000
00000000
00110000
00000000
00000000
00000000
01000000
00000000
10000000
00000000
00000000
00000000
,
00100000
10000000
01000000
00010000
,
00001000
00000100
00000001
00000001
,
00000010
00000001
00000100
00001000
,
00010000
01000000
10000000
10000000
,
00200000
00000000
00000000
00000000
00300000
10000000
01000000
00000000
,
00020000
00000000
00000000
00000000
00030000
00001000
00010000
00000000
,
00000010
00000010
00000100
00000100
,
00000000
00001000
00000000
00010000
00000000
01000000
10000000
00000000
,
00100000
00100000
00010000
00010000
,
00001000
00000100
00000001
00000010
,
00001000
00001000
00010000
00010000
,
00100000
10000000
01000000
00010000
,
00002000
00003000
00000100
00000001
,
00000020
00000030
00001000
00010000
,
00100000
10000000
01000000
00010000
,
00001000
00000000
00010000
00000000
00001000
00000100
00000010
00000001
,
00000010
00000000
00000010
00000000
00000100
00000000
00010000
00001000
,
00000000
00000000
00100000
00000000
00100000
00000000
01000000
10000000
,
00000000
00010000
00010000
10000000
,
00000000
01000000
00000000
00010000
00001000
00010000
00000100
00000000
,
00000010
00000001
00000100
00000000
00000000
00000000
00000000
00000000
;

//---------------dance-double - ----------------
#NOTEDATA:;
#CHARTNAME:;
#STEPSTYPE:dance-double;
#DESCRIPTION:;
#CHARTSTYLE:;
#DIFFICULTY:Hard;
#METER:7;
#RADARVALUES:0.622164,0.669741,0.304982,0.000000,0.146391,357.000000,332.000000,25.000000,0.000000,0.000000,0.000000,0.000000,0.000000,0.000000,0.622164,0.669741,0.304982,0.000000,0.146391,357.000000,332.000000,25.000000,0.000000,0.000000,0.000000,0.000000,0.000000,0.000000;
#CREDIT:;
#OFFSET:0.000000;
#BPMS:0.000000=160.000000
;
#STOPS:;
#DELAYS:;
#WARPS:;
#TIMESIGNATURES:0.000000=4=4
;
#TICKCOUNTS:0.000000=4
;
#COMBOS:0.000000=1
;
#SPEEDS:0.000000=1.000000=0.000000=0
;
#SCROLLS:0.000000=1.000000
;
#FAKES:;
#LABELS:0.000000=Song Start
;
#DISPLAYBPM:160.000000;
#NOTES:
00000000
00000000
00000000
00000000
,
00000000
00000000
00000000
00000000
,
00000000
00000000
00000000
00000000
,
10000000
10000000
01000000
01000000
,
00000000
00010000
00000000
00001000
00000100
00000001
00000010
00000000
,
00001100
00000000
00000000
00000000
00011000
00000000
00000000
00000000
00001000
00010000
00001000
00000000
01000000
00000000
00000000
00000000
,
01010000
00000000
00000000
00000000
10010000
00000000
00000000
00000000
00100000
10000000
00100000
00000000
01000000
00000000
00000000
00000000
,
01001000
00000000
00000000
00000000
00011000
00000000
00000000
00000000
00000100
00001000
00000100
00000000
00000010
00000000
00000000
00000000
,
00000000
00000001
00000000
00000100
00000000
00001000
00010000
00000000
,
00100000
10000000
01000000
00010000
00001000
00000100
00001000
00010000
,
00001000
00000100
00000001
00000010
00001000
00010000
00100000
00000000
,
00100000
00010000
00100000
10000000
01000000
00010000
00001000
00000100
,
00000001
00000010
00000001
00000100
00001000
00010000
01000000
00000000
,
10000000
00100000
01000000
00000000
11000000
00000000
00010000
00001000
,
00000000
00000100
00000000
00000001
00000010
00000001
00000100
00000000
,
00001000
00010000
00001000
00000000
00100000
00000000
00010000
10000000
,
01000000
00000000
00000000
01000000
00000000
00000000
01000000
00000000
10000000
00000000
01000000
00000000
00010000
00000000
00001000
00000000
,
00000100
00000000
00000000
00000001
00000000
00000000
00000010
00000000
00000100
00000000
00000000
00010000
00000000
00000000
00001000
00000000
,
00100000
00000000
00000000
01000000
00000000
00000000
10000000
00000000
00010000
00000000
00000000
00000000
01100000
00000000
00000000
00000000
,
10000000
00000000
00000000
01000000
00000000
00000000
00100000
00000000
01000000
00000000
00000000
00010000
00000000
00000000
00001000
00000000
,
00000100
00000000
00000000
00000100
00000000
00000000
00000001
00000000
00001000
00000000
00000000
00000000
00000110
00000000
00000000
00000000
,
00000001
00000000
00000000
00001000
00000000
00000000
00001000
00000000
00010000
00000000
00000000
00000000
01000000
00000000
00000000
00000000
,
10000000
00000000
00000000
00010000
00000000
00000000
00010000
00000000
00001000
00000000
00000000
00000000
00000100
00000000
00000000
00000000
,
00000010
00000000
00000000
00000100
00000000
00000000
00001000
00000000
00010000
00000000
00000000
01000000
00000000
00000000
10000000
00000000
,
00100000
00000000
00000000
00010000
00000000
00000000
00001000
00000000
00000010
00000000
00000000
00000000
00001001
00000000
00000000
00000000
,
00000010
00000000
00001000
00000000
00000100
00000000
00000001
00000100
,
00000000
00001000
00000000
00010000
00000000
01000000
10000000
00000000
,
00010000
00000000
10000000
00000000
01000000
00000000
10000000
01000000
00000000
00100000
00000000
00010000
10000000
00000000
01000000
00000000
,
00010000
00000000
00001000
00000000
00000100
00000000
00000001
00001000
00000000
00000000
00000001
00000000
00001000
00000000
00000100
00000000
,
00010000
00000000
00000000
00000010
00000000
00000000
00000100
00000000
00000000
00000001
00000100
00000000
00001000
00000000
00010000
00000000
,
00000000
01000000
00000000
01000000
00000000
10000000
10000000
00000000
,
00100000
10000000
00010000
00000000
00001000
00010000
00001000
00000000
,
00000010
00001000
00000001
00000000
00000110
00000000
00000101
00000000
,
00001000
00001000
00010000
00010000
,
00100000
00000000
00100000
00000000
00010000
00001000
00000100
00000000
,
00000001
00000001
00000010
00000010
,
00001000
00000000
00001000
00000000
00010000
00100000
10000000
00000000
,
01000000
00010000
00001000
00000000
00000010
00000001
00000100
00000000
,
00001000
00010000
00100000
10000000
01000000
00010000
01000000
00000000
,
10000000
00100000
00010000
00100000
10000000
01000000
00010000
00001000
,
00000100
00000001
00000010
00000100
00000010
00000001
00000100
00000000
,
00010100
00001000
00011000
01000000
,
00010000
00100000
10000000
01000000
00010000
01000000
10000000
00000000
,
01010000
00001000
00011000
00000010
,
00000010
00000000
00000100
00000000
00000001
00001000
00000100
00000000
,
00010000
00000000
00001000
00000000
01000000
00010000
10000000
00000000
,
01000000
00100000
00000000
00001000
00010000
00010000
00000100
00000000
,
00001000
00000001
00000100
00000100
00001000
00010000
01000000
00000000
,
10000000
00000000
00100000
00000000
00010000
00001000
00010000
00000000
,
00010010
00001000
00000110
00000001
,
00000100
00001000
00010000
01000000
10000000
00100000
00010000
00000000
,
01100000
10000000
01001000
00010000
,
00010000
00001000
00000010
00000001
00000100
00001000
00010000
00000000
,
00100000
00000000
10000000
01000000
00000000
00010000
00001000
00000000
,
00000010
00000001
00000000
00000100
00001000
00010000
00010000
00000000
,
00100000
00000000
00000000
10000000
00000000
00000000
10000000
00000000
01000000
00000000
00000000
00010000
00000000
00000000
00010000
00000000
,
00001000
00000100
00000001
00000010
00000100
00001000
00000001
00000000
,
00000110
00000000
00000100
00000000
00000100
00000000
00001000
00010000
,
00001000
00000000
00101000
00000000
01000000
00000000
01000000
10000000
,
00010000
00000000
10010000
00000000
00100000
00000000
01000000
00010000
,
00000000
00000000
00000000
00011000
00000000
00000000
00011000
00000000
00001000
00000000
00000100
00000000
00000001
00000000
00000000
00000000
,
00000010
00000000
00000000
00000000
;
