#TITLE:Crystarium;
#SUBTITLE:;
#ARTIST:BlackY;
#TITLETRANSLIT:;
#SUBTITLETRANSLIT:;
#ARTISTTRANSLIT:;
#GENRE:;
#CREDIT:PaperBox440;
#BANNER:Crystarium.png;
#BACKGROUND:Crystarium-bg.png;
#LYRICSPATH:;
#CDTITLE:;
#MUSIC:Crystarium.mp3;
#OFFSET:0.000000;
#SAMPLESTART:91.494255;
#SAMPLELENGTH:10.574715;
#SELECTABLE:YES;
#BPMS:0.000000=130.500000
;
#STOPS:
;
#BGCHANGES:;
#KEYSOUNDS:;
#ATTACKS:;

//---------------dance-single - ----------------
#NOTES:
     dance-single:
     :
     Hard:
     10:
     0.457903,0.547630,0.225849,0.208476,0.369177,369.000000,343.000000,26.000000,24.000000,0.000000,0.000000,0.457903,0.547630,0.225849,0.208476,0.369177,369.000000,343.000000,26.000000,24.000000,0.000000,0.000000:
0000
0000
2000
0000
,
3001
0000
0010
0000
,
0100
0000
0000
0000
0110
0000
0000
0001
,
0000
1001
0000
0000
0110
0000
0000
0000
,
0010
0000
0110
0000
0100
0000
0001
0001
,
0000
0100
0000
0000
1001
0000
0010
0100
,
0000
0100
0010
0000
0110
0000
0001
0001
,
2000
0000
0010
0000
0001
0100
0000
0100
,
0010
0100
0010
3100
,
0001
0000
0010
0000
0000
0000
1000
0000
1000
0000
0100
0010
0100
0000
0001
0000
,
0001
0000
0001
0000
0100
0000
0000
0100
0001
0000
1000
0000
0001
0000
0010
0100
,
0000
0000
0100
1000
0001
0000
0000
0000
0001
0000
0000
0010
0100
0000
1000
0000
,
1000
0000
0001
1000
0001
0000
0000
0010
0100
0000
0100
0000
1000
0000
0000
1000
,
0001
0010
0000
0000
0010
0000
0001
0000
0100
1000
0000
0000
1000
0100
0000
0000
,
0100
0001
0010
0000
0001
0000
0100
0010
0000
0000
0010
0000
1000
0100
1000
0000
,
0001
0000
0010
0100
0000
0000
0100
0000
1000
0000
1000
0000
1000
0000
0000
0010
,
0100
0010
0000
0000
0001
0000
0001
0000
0100
0000
2000
0000
0000
0000
0000
0000
,
0000
0000
3001
0000
0000
0000
0010
0000
0010
0000
0100
0000
1000
0001
1000
0000
,
1000
0000
0010
0000
0100
0010
0000
0000
0000
0100
0000
0100
0000
0000
0001
0000
,
0001
1000
0001
0000
0000
0100
0010
0000
0000
1000
0001
0000
0000
0010
0100
0000
,
1000
1001
0000
0100
0010
0001
0010
0100
,
0110
0000
0000
0000
1000
0000
1000
0001
0010
0001
0000
1000
0000
1000
0100
0000
,
0100
0000
1001
0000
0010
0001
0000
1000
0000
0000
1000
0001
0010
0001
0100
0000
,
0100
0000
0100
0010
0000
0000
0001
0010
0000
1000
0000
1000
0000
0100
0010
0000
,
1000
1000
0001
0010
0200
0000
0000
0310
,
0000
1001
0110
0000
,
0000
0000
0100
0000
0110
0000
0000
1000
,
0000
0001
1001
0000
,
0000
0000
0010
0100
0100
0000
0010
0000
,
1000
0002
0000
0000
0103
0000
1000
0000
,
0010
0000
0010
0100
0010
0000
1000
1000
,
0001
0000
0110
0000
0000
1010
0000
0100
,
0100
0000
0001
0010
0001
0000
0000
0000
0110
0000
0000
0000
1001
0000
0000
0000
,
0100
0000
0000
0000
0001
0000
0000
0000
0010
0000
0000
0010
0000
0000
0100
0000
,
0000
0000
0100
0000
0010
0000
0010
0000
1000
0001
1000
0000
0200
0000
0000
0000
,
0310
0000
0000
0000
0010
0000
0000
0001
0000
0000
0000
0000
1000
0000
0100
0000
,
0010
0200
0000
0000
0000
0000
0301
0000
0001
0010
0000
0000
1000
0000
0000
0100
,
0000
0100
1000
0001
0000
2000
0000
3010
,
0020
0000
0000
0030
0000
0100
1000
0000
0000
0000
0001
0000
0000
0000
1001
0000
,
0100
0000
0000
0000
2000
0000
0010
0000
0000
0010
0000
0000
0100
0000
0000
0000
,
0000
0010
0000
0000
0001
0000
0001
0000
0100
0000
3100
0000
0000
0100
0000
0000
,
0001
0020
0000
0000
0000
0000
0030
0000
1001
0000
0000
0000
0100
0000
0000
0100
,
0000
0010
0001
0000
0000
0001
0000
0000
1000
0000
0000
1000
0001
0000
0001
0000
,
1000
0000
0100
0000
0000
0000
0001
0000
0000
0001
0010
0100
0010
0000
0000
1000
,
0000
1000
0010
0100
0010
0000
0001
0000
0001
0000
0000
1000
0000
1000
0001
1000
,
0010
1000
0000
0000
0100
0010
0100
0000
0000
0000
1000
0000
1000
0001
0000
0001
,
0000
0000
0100
0010
0100
0000
0001
0000
0001
0000
0010
0000
0010
0000
0000
0100
,
0010
0100
1000
0000
1001
0000
0010
0000
1000
0100
1000
0001
0010
0000
0000
0010
,
0001
0100
0000
0000
0100
0000
0010
0000
1010
0000
0000
0000
1001
0000
0000
0010
,
0000
0010
0100
0000
0100
0000
1000
0000
1001
0000
0000
0000
0020
0000
0000
0030
,
0002
0000
0000
0000
2003
0000
0000
0000
3010
0010
0002
0000
0000
0000
0003
0000
,
0020
0000
0000
0000
0230
0000
0000
0300
0000
0001
0000
0000
0001
0000
0010
0000
,
1000
0000
1000
0000
0010
0000
0000
0000
0001
0010
0000
0000
1000
0000
0000
0002
,
0000
0000
0003
0000
2000
0000
0000
3000
,
0020
0000
0000
0030
0200
0000
0000
0300
0010
0002
0000
0000
0000
0000
0000
0000
,
1003
0000
0100
0000
1000
0000
0010
0110
,
0000
0001
0010
0000
0110
0000
0000
1000
0001
1000
0000
0000
0210
0000
0000
0302
,
0000
0000
0000
0000
0000
1003
0000
0000
0000
0000
0000
0000
0000
0000
0000
0000
;

//---------------dance-single - ----------------
#NOTES:
     dance-single:
     :
     Medium:
     8:
     0.367315,0.447573,0.217163,0.121611,0.000000,296.000000,271.000000,25.000000,14.000000,0.000000,0.000000,0.367315,0.447573,0.217163,0.121611,0.000000,296.000000,271.000000,25.000000,14.000000,0.000000,0.000000:
0000
0000
2000
0000
,
3001
0000
0010
0000
,
0000
0100
0000
0000
1001
0000
0000
0000
,
0010
0000
0000
0110
0000
0000
0000
0000
,
1000
0001
1000
0010
,
0110
0001
1000
1001
,
0010
0001
0100
0100
,
0002
1000
0100
0100
,
0000
1000
0100
1003
,
1000
0001
1000
0000
0100
0000
0100
0010
,
1000
0000
1000
0001
0010
0000
0100
0000
,
0110
0000
1000
0000
1000
0010
0100
0010
,
0001
0000
0001
0100
1000
0000
0002
0000
,
0000
0003
1000
0100
,
0001
1000
0001
0000
0100
0010
0000
0020
,
0000
0000
0100
0000
0030
1000
1000
0000
,
0100
0001
0001
0001
2000
0000
0000
0000
,
0000
0000
3010
0000
0100
0000
0100
0010
,
0010
0001
1000
0100
0001
0000
0001
0010
,
0110
0000
1000
0100
0001
1000
0001
0000
,
0010
0110
1000
0100
0001
0000
0011
0100
,
0110
0000
0000
1000
1000
0100
0001
0010
,
0110
0000
1000
1000
0001
0001
0100
0010
,
0100
0000
2000
0100
0000
0010
0001
0001
,
0010
3000
0100
0000
0110
0000
1000
0000
,
0001
0000
1001
0000
,
0000
0000
0010
0000
0000
0110
0000
0000
,
0001
0000
1000
0000
0000
1001
0000
0000
,
0000
0000
0100
0100
0010
0000
0000
0010
,
1000
0100
0220
0000
0330
1001
0000
0010
,
0000
0100
0000
0010
0010
0000
0001
0000
,
1000
0100
1000
0000
0001
0000
0010
0010
,
0100
0000
0100
0000
1000
0100
1000
0000
,
0011
0000
0000
0000
2000
0000
3000
0010
,
0100
0000
0100
1000
0001
0010
0100
0000
,
1001
0000
0100
0010
0010
0000
0001
0000
,
1000
0001
1000
0010
0000
0002
0000
2003
,
0000
3000
0010
0000
0100
0000
0010
0001
,
1000
0000
1000
0010
0100
0001
1000
0000
,
1001
0000
0100
0001
0010
0001
1000
0000
,
1000
1000
0010
0000
0110
1000
1010
0000
,
0001
2000
0010
0000
0100
0000
0001
0000
,
0001
0000
0010
0100
0000
0100
0010
0000
,
3001
0000
0000
0001
1000
0000
1000
1000
,
0010
0100
1000
0000
0010
0001
0100
1000
,
0001
0010
0100
1000
0001
1000
0001
0010
,
0100
0000
0100
0001
1000
0001
1000
0000
,
0100
0000
0100
0010
1000
0000
1000
0001
,
0000
0010
0001
1000
0100
0010
1000
0001
,
0100
0100
0000
1000
0000
0001
1000
0000
,
1000
0010
0001
0000
0100
0010
1000
0000
,
1001
0100
0010
1000
,
1000
1000
0000
1000
0001
0010
0100
0000
,
2000
0000
3000
0100
,
0010
0000
0001
0000
1000
1000
0010
0000
,
0100
0000
0110
0000
0000
0010
0001
1000
,
1001
0000
0000
1000
1001
0000
0200
0000
,
0010
0300
0000
0000
;

//---------------dance-single - ----------------
#NOTES:
     dance-single:
     :
     Easy:
     6:
     0.297823,0.348112,0.191103,0.104238,0.004343,240.000000,218.000000,22.000000,12.000000,0.000000,0.000000,0.297823,0.348112,0.191103,0.104238,0.004343,240.000000,218.000000,22.000000,12.000000,0.000000,0.000000:
0000
0000
2000
0000
,
3001
0000
0110
0000
,
1000
0000
0000
0000
1001
0000
0000
0100
,
0000
0010
0000
0000
1001
0000
0000
0000
,
0000
1000
0001
0000
1000
0000
0100
0000
,
0010
0100
1001
1000
,
0010
0100
1001
0010
,
0100
2000
0000
0000
0100
0000
0000
0000
,
0010
0001
0001
3000
,
0010
0000
0100
0000
1000
0000
0000
1000
,
0001
0000
0100
1000
0020
0000
0030
0000
,
0100
0010
0001
1000
,
1000
0000
0000
0001
1000
0000
0110
0000
,
0000
0000
1000
0001
,
1000
0000
0001
0000
0100
0010
0002
0000
,
0000
1003
0000
0100
0000
1000
1000
0000
,
0000
0001
1001
0000
0220
0000
0000
0000
,
0000
0330
0000
1000
1000
0000
0001
0000
,
0010
0010
1000
1000
0100
0000
0100
0000
,
0110
0000
0001
0001
0100
0000
0100
0000
,
0001
1000
0000
0001
0001
0010
1000
0100
,
0010
1000
1000
0001
,
0100
0010
0000
0001
0001
0000
1000
0000
,
1001
0000
0200
0000
0001
0000
0001
0010
,
0010
0310
0001
1001
,
0000
0100
0000
0000
0110
0000
0000
0000
,
0000
0100
0000
0000
1001
0000
0000
0000
,
0010
0100
0000
0000
1001
0000
0000
0000
,
0000
0000
1000
0000
0000
0001
0000
0000
1000
0000
0000
0000
0010
0000
0000
0000
,
0001
0000
1000
0000
0000
1001
0000
0100
,
0000
0000
0100
0000
0000
0110
0000
0000
,
0001
0000
1000
0000
0000
1001
0000
0000
,
0000
0100
0000
0010
0000
0001
1000
0000
,
1001
0000
0000
0100
,
0010
0000
0010
0000
0001
1000
0010
0100
,
0000
0100
0010
0010
,
1000
0001
1000
0000
0010
0100
0000
2000
,
0000
3000
0001
0010
,
0100
0000
0010
0001
1000
0100
0000
0010
,
0000
0000
0110
0000
1000
0000
0100
0010
,
0000
0000
0001
1000
1001
0000
0010
0000
,
0010
0200
0000
0000
,
0001
0010
0010
0001
,
0001
0310
1000
0001
,
1000
1000
0000
0000
1000
0010
1000
0000
,
0001
0000
0010
1000
0100
0000
0001
1000
,
0001
0000
1000
0000
1000
0010
0100
0000
,
0010
0010
0001
1000
,
1000
0000
0001
0000
0100
0000
0010
1000
,
0010
0000
0100
0000
0001
0000
0000
1001
,
0000
0000
0010
0000
1000
0010
0100
0000
,
0002
0000
0000
1003
0000
0000
0100
0000
,
0001
0001
0000
0010
0100
0000
2000
0000
,
0000
3001
0000
0000
0100
0000
0000
0110
,
0000
0000
1000
0000
0001
0010
0000
0000
,
0100
0000
0000
0010
0000
0000
0001
0000
,
1000
0000
0001
1000
0001
0000
2000
0000
,
0010
3000
0000
0000
;

//---------------dance-single - ----------------
#NOTES:
     dance-single:
     :
     Beginner:
     4:
     0.275487,0.298382,0.208476,0.078179,0.000000,222.000000,198.000000,24.000000,9.000000,0.000000,0.000000,0.275487,0.298382,0.208476,0.078179,0.000000,222.000000,198.000000,24.000000,9.000000,0.000000,0.000000:
// measure 0
0000
0000
2000
0000
,  // measure 1
3001
0000
0110
0000
,  // measure 2
1000
0000
1001
0000
,  // measure 3
0110
0000
1000
0000
,  // measure 4
0001
1000
0001
0100
,  // measure 5
0010
0001
1001
0100
,  // measure 6
0100
0001
0001
0010
,  // measure 7
2000
0001
0100
0100
,  // measure 8
0001
0010
0010
3000
,  // measure 9
0001
1000
0001
0000
0100
0000
0010
0000
,  // measure 10
0100
0001
1000
0200
,  // measure 11
0000
0310
0001
1000
,  // measure 12
0100
0001
0001
0220
,  // measure 13
0000
0330
1000
0001
,  // measure 14
1000
0100
0010
0001
,  // measure 15
0000
1001
0000
0100
,  // measure 16
0010
0001
2000
0000
,  // measure 17
3000
0001
0001
0010
,  // measure 18
0100
1000
1000
0100
,  // measure 19
0110
0001
0001
0010
,  // measure 20
0100
1000
0100
0110
,  // measure 21
1001
1000
1000
0001
,  // measure 22
1000
0010
0010
0100
,  // measure 23
1000
0100
1000
0001
,  // measure 24
0100
0010
0100
1001
,  // measure 25
0000
0110
1000
0000
,  // measure 26
0000
0110
1001
0000
,  // measure 27
0100
0010
1001
0000
,  // measure 28
0000
0000
1000
0100
0010
0000
0001
0000
,  // measure 29
0001
1000
1001
0010
,  // measure 30
0100
0100
0010
0100
,  // measure 31
1000
0001
1001
0100
,  // measure 32
0000
0110
1010
0001
,  // measure 33
1001
0000
0100
0010
,  // measure 34
0001
1000
0001
1000
,  // measure 35
0000
0001
1001
0100
,  // measure 36
0001
0001
0010
0200
,  // measure 37
0000
0300
0010
1000
,  // measure 38
0100
1000
0001
1000
,  // measure 39
0000
0010
0110
1000
,  // measure 40
0001
0000
0001
0000
1000
0000
1000
0010
,  // measure 41
0002
0000
0000
0000
,  // measure 42
1000
0010
0100
0100
,  // measure 43
1003
0000
1000
0010
,  // measure 44
0010
0100
0100
0001
,  // measure 45
0010
0001
1000
1000
,  // measure 46
0010
0100
0001
1001
,  // measure 47
1000
0100
0001
0010
,  // measure 48
0001
1000
1000
0001
,  // measure 49
0010
0100
1000
0001
,  // measure 50
1000
0001
0010
0100
,  // measure 51
1001
0001
0000
0010
,  // measure 52
0100
1000
0010
0001
,  // measure 53
1001
0100
0001
0001
,  // measure 54
0100
1000
0010
0001
,  // measure 55
0100
0010
0100
0001
,  // measure 56
1000
0001
0001
2000
,  // measure 57
0010
3000
0000
0000
;
