#TITLE:Cosmic Hurricane-Try to Sing Ver.-;
#SUBTITLE:;
#ARTIST:TAG rejected by DJ YOSHITAKA;
#TITLETRANSLIT:;
#SUBTITLETRANSLIT:;
#ARTISTTRANSLIT:;
#GENRE:;
#CREDIT:;
#BANNER:Cosmic Hurricane-Try to Sing Ver.-.png;
#BACKGROUND:Cosmic Hurricane-Try to Sing Ver.--bg.png;
#LYRICSPATH:;
#CDTITLE:;
#MUSIC:Cosmic Hurricane-Try to Sing Ver.-.mp3;
#OFFSET:0.000000;
#SAMPLESTART:23.936169;
#SAMPLELENGTH:10.851063;
#SELECTABLE:YES;
#BPMS:0.000000=188.000000
;
#STOPS:
;
#BGCHANGES:;
#KEYSOUNDS:;
#ATTACKS:;

//---------------dance-single - ----------------
#NOTES:
     dance-single:
     :
     Hard:
     14:
     0.834225,0.989059,1.065262,0.203368,0.004842,603.000000,493.000000,110.000000,21.000000,0.000000,0.000000,0.834225,0.989059,1.065262,0.203368,0.004842,603.000000,493.000000,110.000000,21.000000,0.000000,0.000000:
// measure 0
0000
0000
0000
0000
,  // measure 1
0000
0000
0000
0000
0110
0110
0000
1100
,  // measure 2
1100
0000
0011
0011
0000
1010
1010
0000
,  // measure 3
0200
0000
0020
0330
0011
0011
0000
1010
,  // measure 4
1010
0000
1100
1100
0000
0011
0011
0000
,  // measure 5
1000
2000
0000
0010
3010
0000
0110
0110
,  // measure 6
0000
0000
1100
0000
0000
0110
0000
0000
,  // measure 7
1010
0200
0310
0011
,  // measure 8
0001
1001
2000
3000
,  // measure 9
0220
0000
0330
0000
0010
0100
0010
0010
,  // measure 10
1000
0100
0001
0001
0100
0100
0000
1000
,  // measure 11
0010
0100
0010
0000
0001
0001
0010
0100
,  // measure 12
0010
1000
0100
0100
0001
0010
1000
0010
,  // measure 13
0001
0011
0000
1000
0100
1000
0001
0010
,  // measure 14
0010
0000
1000
0100
1000
0100
0010
0001
,  // measure 15
0001
0100
0010
0000
0020
0000
0130
0000
,  // measure 16
0200
0301
0002
2003
,  // measure 17
3000
1000
0010
0100
0220
0000
0000
0000
,  // measure 18
0330
0100
0010
0100
1001
0000
0100
1000
,  // measure 19
0110
0001
0010
0000
1100
0010
1000
0001
,  // measure 20
0110
1000
0010
0001
1010
0000
0100
0010
,  // measure 21
1100
0000
0011
0100
1010
0000
1100
0010
,  // measure 22
0101
1000
0011
0000
1100
0001
1010
0001
,  // measure 23
0110
1000
0100
0010
0101
1000
0011
0100
,  // measure 24
1100
0010
0110
0001
1010
0100
0011
1000
,  // measure 25
0011
1000
0110
0001
1010
0010
1100
0001
,  // measure 26
1010
0100
0001
1000
0110
1000
0100
0001
,  // measure 27
1100
0010
1001
0010
0001
0100
0011
1000
,  // measure 28
0100
0010
0110
1000
1010
0001
1000
0100
,  // measure 29
0011
1000
0001
0100
0110
1000
0010
0100
,  // measure 30
1100
0010
1000
0001
1010
0001
1100
0100
,  // measure 31
0001
0010
1001
0100
0010
1000
0110
0001
,  // measure 32
0100
1000
0001
0100
1001
0010
0100
0010
,  // measure 33
1100
0100
0010
0001
0110
0010
0100
1000
,  // measure 34
0001
0010
1001
0100
0100
0010
2002
0000
,  // measure 35
3003
0010
0100
0010
1000
0100
0001
0010
,  // measure 36
0100
0010
0100
0001
1000
0100
0010
0001
,  // measure 37
0010
0100
0010
0100
1000
0100
1000
0100
,  // measure 38
0010
0001
1000
0100
1000
0010
0100
0001
,  // measure 39
1100
0010
0100
0010
0001
1000
0001
0100
,  // measure 40
0010
1000
0001
1001
0010
0100
0010
0100
,  // measure 41
1000
0001
0010
0100
0010
0001
0000
0000
,  // measure 42
0000
0100
0000
0000
0110
0000
1000
0000
0100
0000
1000
0000
0011
0000
0100
0000
,  // measure 43
0001
0010
1100
0001
0100
0010
1001
0100
,  // measure 44
0001
1000
0110
0001
1010
0001
1100
0010
,  // measure 45
1000
0100
0001
0010
0001
1000
0010
0001
,  // measure 46
0100
1000
0010
0001
1100
0010
1000
0100
,  // measure 47
0011
1000
0001
0100
0010
1000
0100
0001
,  // measure 48
1010
0100
1000
0010
0001
1000
0110
0001
,  // measure 49
0100
0001
1010
0100
1000
0100
0011
1000
,  // measure 50
0001
0010
1100
0001
1000
0100
0010
0001
,  // measure 51
0110
0000
1010
0100
1100
0000
1010
0000
,  // measure 52
0110
0000
0101
0001
1000
0010
1100
0001
,  // measure 53
0110
0010
1000
0100
0011
1000
0001
0010
,  // measure 54
0100
0001
0110
0000
1010
0001
1000
0100
,  // measure 55
0011
1000
0001
0010
0100
0001
0110
1000
,  // measure 56
0010
0001
1100
0010
0001
0100
0011
0100
,  // measure 57
1000
0010
0000
0100
0020
0000
0000
0000
,  // measure 58
0030
0200
0000
0000
0310
0000
0100
0100
,  // measure 59
0000
0001
0000
0001
0100
0000
1000
0010
,  // measure 60
0010
0000
0100
0010
0100
0001
1000
0000
,  // measure 61
0100
0100
0000
0010
0011
0000
1001
1000
,  // measure 62
0000
0010
0000
0010
0001
0001
1000
0100
,  // measure 63
1000
0010
0010
0000
0001
0100
0000
0100
,  // measure 64
0010
1000
0100
1000
0001
0001
0100
0000
,  // measure 65
1010
1010
0000
0100
0010
0001
0000
0110
,  // measure 66
0110
0000
0002
0003
1000
0000
0010
0010
,  // measure 67
0000
1000
0000
0100
0000
0001
0010
0010
,  // measure 68
0000
0100
1000
0000
0100
0000
0000
0100
,  // measure 69
0100
0000
0010
0000
0100
0000
1010
0100
,  // measure 70
1100
0000
0010
0000
0011
0000
1000
1000
,  // measure 71
0010
0100
0000
0001
0010
1000
1000
0010
,  // measure 72
0100
0000
0001
1000
0010
0100
0010
0000
,  // measure 73
1100
0000
0100
0000
0000
0100
0010
0100
,  // measure 74
1000
0001
0100
0010
1000
1000
0010
0100
,  // measure 75
0010
0001
0100
1000
0010
0100
0100
0000
,  // measure 76
0002
2000
0000
0000
,  // measure 77
0000
0000
0000
0000
,  // measure 78
0000
0000
0000
0000
0003
0000
3001
0000
2000
3000
0000
0000
0000
0000
0000
0000
;

//---------------dance-single - ----------------
#NOTES:
     dance-single:
     :
     Medium:
     11:
     0.579668,0.607199,0.406736,0.087158,0.000000,419.000000,377.000000,42.000000,9.000000,0.000000,0.000000,0.579668,0.607199,0.406736,0.087158,0.000000,419.000000,377.000000,42.000000,9.000000,0.000000,0.000000:
0000
0000
0000
0000
,
0000
0000
0000
0000
0010
0010
0000
1000
,
1000
0000
0100
0100
0000
0001
0001
0000
,
1000
0000
1100
0000
0100
0100
0000
0010
,
0010
0000
0001
0001
0000
1000
0000
0100
,
0020
0000
0030
0100
0100
0000
0010
0010
,
0000
0001
0001
0000
1000
1000
0000
0000
,
0100
0110
0010
0011
,
0001
0000
1001
0000
2000
0000
0000
3000
,
0020
0000
0000
0130
0100
0000
0010
0001
,
1000
0000
0100
0010
0000
0100
0001
0000
,
0001
1000
0010
1000
0100
0000
0010
0100
,
0001
1000
0000
1000
0100
0010
0100
0000
,
0001
0010
0001
1000
0100
1000
0010
0001
,
0020
0030
0000
0010
0001
1000
0100
0010
,
0100
0001
0000
0000
1000
0000
1100
0000
,
0010
1010
0100
0110
,
0001
0100
1000
0000
0002
0000
0000
0000
,
1003
0100
0010
0000
0001
0100
0011
0000
,
1000
0000
1100
0000
0010
1000
0100
0010
,
0100
0000
0001
0010
1000
0000
1100
0000
,
0010
0000
0100
0010
0100
1000
0001
0000
,
0011
0000
1000
0100
1000
0000
0010
0000
,
1010
0000
0110
0000
0100
0001
0010
0001
,
1000
0000
1000
0010
0010
0100
0001
1000
,
0000
1100
0010
0000
1010
0000
0001
1000
,
0100
0000
0010
0100
0001
0000
1100
0000
,
0010
0001
0010
1000
0100
0000
1010
0000
,
1000
0100
0000
0001
0110
0000
0010
0001
,
0100
0010
1000
0000
0101
0000
0010
0100
,
0001
0010
1000
0000
0110
0000
0100
0010
,
1000
0000
0011
0000
0001
1000
0010
0000
,
0100
0010
0100
0000
1000
0001
0100
0000
,
0110
0000
1000
0001
0000
0100
0010
0000
,
1010
0000
0001
0001
0000
1000
0000
0010
,
0200
0000
0000
0300
0000
0010
0000
0010
,
1000
0000
0100
0010
0000
0010
1000
0000
,
0100
0000
1000
0001
0000
0100
0001
0000
,
0100
0010
0000
0010
1000
0000
0100
1000
,
0110
0000
0001
0100
0000
0010
1000
0000
,
0010
0000
0100
1000
0001
0000
0001
0000
,
0100
1000
0000
0010
0000
0100
0100
0000
,
1000
1001
0000
0010
,
1000
0000
1000
0010
0100
0000
0110
0000
,
0001
0010
0001
1000
0100
0000
0110
0000
,
0001
0000
0100
0010
1000
0000
1001
0000
,
0010
1000
0001
0000
0100
0001
0010
0000
,
1000
0010
1000
0000
0110
0000
1000
0000
,
0010
0100
0010
0000
0001
0010
0100
0000
,
1000
0001
0010
0000
0100
1000
0100
0001
,
0010
0000
2000
0000
3001
0010
0001
0000
,
0011
1000
1100
0100
,
0010
1000
0001
0000
0101
0000
1000
0010
,
1000
0001
0100
0000
0010
0100
0010
0000
,
1000
0000
0100
0010
1000
0000
0001
0100
,
0001
1000
0010
0000
0100
0001
0010
0000
,
1000
0010
0100
0000
1000
0000
0010
0100
,
0000
0100
0000
1000
0010
0200
0000
0000
,
0000
0000
0300
0000
0010
0000
0001
0001
,
0000
0000
1000
0000
0100
0000
0010
0010
,
0000
0000
0000
0000
0100
0000
0000
0010
,
0010
0000
1000
0000
1100
0000
0001
0010
,
0110
0000
0001
1000
,
0100
0001
0100
0000
0010
1000
0100
0000
,
0001
0010
0001
0000
1000
0000
1100
0100
,
0000
0000
0000
0000
0010
0000
1010
1000
,
0000
0000
0100
0000
,
0010
0010
0000
0000
0100
0000
1000
1000
,
0000
0000
0000
0000
0010
0000
0000
0001
,
0001
0000
1000
0000
1100
0000
0010
0010
,
0000
0100
0000
1000
0000
0010
0000
0100
,
0001
0000
1010
0000
0100
0000
0011
1000
,
0000
1100
0001
0110
,
0001
0000
1010
0000
0000
0100
0001
0000
,
0010
0000
0100
0100
0000
0001
0100
1000
,
0000
0010
0010
0100
1000
0001
0000
0001
,
0100
0010
0000
0100
0000
0000
2000
0000
,
0000
0000
0000
0000
,
0000
0000
0000
3001
0000
0000
0000
0000
;

//---------------dance-single - ----------------
#NOTES:
     dance-single:
     :
     Easy:
     8:
     0.444090,0.530452,0.338947,0.087158,0.000000,321.000000,286.000000,35.000000,9.000000,0.000000,0.000000,0.444090,0.530452,0.338947,0.087158,0.000000,321.000000,286.000000,35.000000,9.000000,0.000000,0.000000:
0000
0000
0000
0000
,
0000
0000
0000
0000
0010
0010
0000
0001
,
0001
0000
1000
1000
0000
0100
0100
0000
,
0010
0000
0001
0000
0010
0010
0000
1000
,
1000
0000
0100
0100
0000
0010
0000
0002
,
0000
0000
0003
0000
1000
1000
0000
0100
,
0100
0000
0010
0010
0000
0000
1000
0000
,
0001
0001
0010
0110
,
1000
0000
1001
0000
0020
0000
0000
0030
,
0200
0000
0000
0300
0001
0000
0000
0001
,
0000
1000
0000
0000
1000
0010
0000
0000
,
0010
0100
0000
0001
0000
0000
0001
1000
,
0000
0100
0000
1000
0010
0000
0000
0010
,
0100
0000
0001
0000
0000
0001
1000
0000
,
0000
0100
0010
0000
0100
0001
0000
0000
,
0001
1000
0000
0100
0000
0010
0100
0000
,
1000
0100
0000
0000
0001
0010
0000
0000
,
0200
0300
0001
0000
2000
0000
0000
0000
,
0000
3001
0000
0010
,
0010
0100
0010
1000
,
0100
1000
0001
0001
,
0110
0100
1000
0110
,
0010
1100
1000
0011
,
0001
0010
0110
0100
,
1000
1000
1010
0001
,
0010
0010
0100
1100
,
1000
0020
0030
0001
,
0011
0010
0110
1000
,
0100
0001
0010
1010
,
0100
0100
0001
0010
,
1000
0100
1100
0010
,
0001
0110
0100
1000
,
0011
1000
0110
0010
,
0001
0100
1000
0000
,
0110
0010
1000
0100
,
1000
0000
0001
0001
,
0001
0100
0100
0100
,
1000
1000
1000
0010
,
0010
0010
0100
0100
,
0100
0001
0001
0001
,
0010
0100
1000
1000
,
1000
0000
0000
0010
0001
0000
0000
0000
,
0000
1001
1000
0100
,
0010
0010
1010
0100
,
0010
0110
0001
0010
,
0010
0100
1000
0001
,
0110
0100
1000
0010
,
0001
0100
0110
0010
,
1000
1100
0001
0100
,
1000
0010
0010
0100
,
1000
0000
0110
0011
,
0010
0110
1010
1100
,
0100
0010
0001
0001
,
1100
1010
0010
0100
,
0001
0110
0010
0100
,
1000
0001
0001
0110
,
0010
1000
0100
1000
,
0011
0010
0200
0300
,
2000
0000
3000
0000
0010
0000
0001
0001
,
0000
0000
1000
0000
0100
0000
0010
0010
,
0000
0000
0000
0000
0001
0000
1000
1000
,
0000
0000
0100
0000
0010
0000
0001
0001
,
0000
0000
1000
1000
,
0010
0100
0010
0001
,
0100
0000
1000
0000
1000
0000
0000
0010
,
0100
0001
0100
0000
,
0100
0010
0000
0000
1000
0000
0000
1000
,
1000
0000
0100
0000
0001
0010
0010
0000
,
0000
0000
0000
0000
1000
0000
0000
0100
,
0100
0000
0010
0000
0001
0000
1000
0100
,
0100
0010
1100
0000
,
1000
0010
0100
0000
,
0010
0001
0001
0000
,
0100
1000
0010
0010
,
0000
0100
1000
0000
,
0010
0100
1000
0010
,
0001
0100
1000
0020
,
0000
0000
0000
0000
,
0030
1001
0000
0000
;

//---------------dance-single - ----------------
#NOTES:
     dance-single:
     :
     Beginner:
     3:
     0.273924,0.454673,0.067789,0.058105,0.000000,198.000000,191.000000,7.000000,6.000000,0.000000,0.000000,0.273924,0.454673,0.067789,0.058105,0.000000,198.000000,191.000000,7.000000,6.000000,0.000000,0.000000:
0000
0000
0000
0000
,
0000
0000
0000
0000
,
0000
0000
0000
0000
,
0000
0000
0000
0000
,
0000
0000
0000
0000
,
0000
0000
0000
0000
,
0000
0000
0000
0000
,
0000
0000
0001
0010
,
0100
0001
2000
0000
,
3010
0000
0010
0100
,
0010
0001
0001
1000
,
0100
1000
0010
0010
,
0100
0001
1000
0100
,
0100
0010
0001
1000
,
0001
0100
0100
0010
,
0001
0100
1000
1001
,
0010
0110
1000
1001
,
0010
0200
2300
0000
,
0000
0000
3010
0000
,
1000
0000
1000
0001
,
0000
0001
0000
0100
,
0000
1000
0010
0000
,
0010
0000
0100
0000
,
1000
0100
0000
0010
,
0000
0100
0001
0001
,
0000
1000
0000
0100
,
0000
0010
0000
0010
,
0100
0100
0000
0001
,
0000
0001
1000
0000
,
1000
0000
0100
0000
,
0010
0000
0100
0000
,
0001
0001
0000
1000
,
0100
0000
0010
0100
,
0100
0001
0000
1000
,
0010
0000
0100
0001
,
0000
0001
1000
0000
,
0010
0100
0100
0000
,
0010
0010
0100
0000
,
1000
1000
0020
0030
,
1000
0000
0100
0000
,
0010
1000
1000
0001
,
0010
0000
0100
0000
,
0000
1001
0100
0010
,
0100
0000
0001
0001
,
0000
1000
0100
0000
,
1000
0010
0010
0100
,
0001
0000
1000
0100
,
0000
0010
0000
0100
,
0001
0000
0100
0010
,
0000
1000
0100
1000
,
0000
0000
0010
0010
,
0100
1000
1000
0100
,
0010
0000
1000
0000
,
0001
0001
0000
0100
,
1000
0000
0100
0000
,
0010
1000
0001
0001
,
0000
0010
0100
0000
,
0100
1000
0020
0000
,
0000
0030
0100
0001
,
0000
0000
1000
1000
,
0000
0000
0010
0100
,
0000
0100
0110
0001
,
1001
0000
0100
0000
,
0000
0010
0000
0100
,
0000
1000
0000
1000
,
0000
0010
0000
0100
,
0000
0001
0000
0001
,
0000
1000
0100
0001
,
0000
0100
0000
0010
,
0000
1000
0010
0100
,
0100
0000
0110
0000
,
0000
1000
0000
0010
,
0000
0100
0000
0001
,
0000
1000
0100
0010
,
0100
0001
0001
1000
,
0100
0010
0100
0000
,
0010
0000
1000
0002
,
0000
0000
0000
0000
,
0000
1003
0000
0000
;
