#TITLE:Chris Griffin sings “I’m a gummy bear!”;
#SUBTITLE:;
#ARTIST:comrade;
#TITLETRANSLIT:;
#SUBTITLETRANSLIT:;
#ARTISTTRANSLIT:;
#GENRE:;
#CREDIT:PaperBox440;
#BANNER:Chris Griffin sings “I’m a gummy bear!”.png;
#BACKGROUND:Chris Griffin sings “I’m a gummy bear!”-bg.png;
#LYRICSPATH:;
#CDTITLE:;
#MUSIC:Chris Griffin sings “I’m a gummy bear!”.ogg;
#OFFSET:0.000000;
#SAMPLESTART:7.997778;
#SAMPLELENGTH:14.662594;
#SELECTABLE:YES;
#BPMS:0.000000=180.050003
;
#STOPS:
;
#BGCHANGES:0.000=Chris Griffin sings “I’m a gummy bear!”.mp4=1.000=0=0=0=StretchNoLoop====,
99999=-nosongbg-=1.000=0=0=0 // don't automatically add -songbackground-
;
#KEYSOUNDS:;
#ATTACKS:;

//---------------dance-single - ----------------
#NOTES:
     dance-single:
     :
     Hard:
     7:
     0.394997,0.539380,0.279291,0.363078,0.139645,99.000000,89.000000,10.000000,13.000000,0.000000,0.000000,0.394997,0.539380,0.279291,0.363078,0.139645,99.000000,89.000000,10.000000,13.000000,0.000000,0.000000:
// measure 0
0000
0000
0000
0000
,  // measure 1
0000
0000
0000
0000
,  // measure 2
0000
0000
0000
0000
,  // measure 3
0000
0000
0000
0000
,  // measure 4
0000
0000
0000
0000
,  // measure 5
0000
0000
0000
0000
,  // measure 6
0001
1000
0001
0100
0000
0100
0020
0000
,  // measure 7
0030
0000
0000
0100
0010
0100
1000
0001
,  // measure 8
1000
0000
2002
0000
3003
0000
0001
1000
,  // measure 9
0000
0100
0010
0000
0110
0000
1010
0000
,  // measure 10
1000
0001
1000
0001
0010
0100
0010
0200
,  // measure 11
0000
0000
0300
0000
0000
1000
0001
1000
,  // measure 12
0000
0001
1000
0000
1001
0000
0000
0010
,  // measure 13
0100
0010
0000
1000
0010
0000
0110
0000
,  // measure 14
0000
0000
0002
2003
3000
0010
0000
0010
,  // measure 15
0000
0010
1000
0000
0001
1000
0001
0000
,  // measure 16
1000
0001
1000
0000
2002
3003
0000
0000
,  // measure 17
0020
0000
0000
0000
0030
0000
0200
0000
0000
0000
0300
0000
0010
0000
0000
0010
,  // measure 18
0000
0000
0000
0010
0000
0000
0000
0000
0010
0000
0000
0010
0000
0000
0000
0010
,  // measure 19
0000
0000
0010
0000
1001
0000
0200
0300
,  // measure 20
0020
0000
0030
0000
0000
0000
0000
0000
0100
0000
0000
0000
0000
0100
0000
0000
,  // measure 21
0100
0000
0000
0000
0000
0100
0000
0000
0100
0000
0000
0000
0000
0000
0010
0000
,  // measure 22
0100
0000
0020
0000
0000
0030
0000
0000
0000
0000
1001
0000
0000
0000
0000
0000
,  // measure 23
1000
0000
0000
1001
0000
0000
0000
0010
0100
0000
0000
0000
0000
0000
1000
0000
,  // measure 24
1000
0001
0000
0000
0100
0000
0000
0000
0001
0000
0000
0000
1001
0000
0000
0000
,  // measure 25
0010
0000
1000
0000
0000
0000
1000
0000
0000
0000
0010
0100
0010
0000
0000
0000
;

//---------------dance-single - ----------------
#NOTES:
     dance-single:
     :
     Medium:
     5:
     0.299240,0.431504,0.223432,0.000000,0.000000,75.000000,67.000000,8.000000,0.000000,0.000000,0.000000,0.299240,0.431504,0.223432,0.000000,0.000000,75.000000,67.000000,8.000000,0.000000,0.000000,0.000000:
0000
0000
0000
0000
,
0000
0000
0000
0000
,
0000
0000
0000
0000
,
0000
0000
0000
0000
,
0000
0000
0000
0000
,
0000
0000
0000
0000
,
0001
1000
0001
0000
0001
0000
1001
0000
,
0000
0000
0010
0100
0010
0000
1000
0001
,
1000
0000
1001
0000
0000
0000
1000
0001
,
1000
0001
0010
0010
,
0100
0100
1000
1000
,
0110
0000
0000
0010
,
0001
1000
1001
0000
,
0010
0100
0010
0110
,
0000
0000
0001
1000
0000
0000
1000
0000
,
1000
0001
0001
0000
,
1000
0001
1001
0000
,
0000
0100
0000
0010
0100
0000
0010
0000
,
0010
0000
0010
0010
,
0000
0010
1001
0000
,
0000
0000
0100
0100
,
0000
0100
0100
0000
,
0100
0100
1000
0000
,
0000
0000
0001
1000
0000
0000
0000
0010
,
0000
0000
0001
1000
0001
0000
1000
0000
,
1001
0010
0010
0100
;

//---------------dance-single - ----------------
#NOTES:
     dance-single:
     :
     Easy:
     2:
     0.227422,0.290462,0.223432,0.000000,0.000000,57.000000,49.000000,8.000000,0.000000,0.000000,0.000000,0.227422,0.290462,0.223432,0.000000,0.000000,57.000000,49.000000,8.000000,0.000000,0.000000,0.000000:
0000
0000
0000
0000
,
0000
0000
0000
0000
,
0000
0000
0000
0000
,
0000
0000
0000
0000
,
0000
0000
0000
0000
,
0000
0000
0000
0000
,
0010
0000
0000
0100
0000
0000
1001
0000
,
0000
0000
1000
0000
0000
0001
0000
0000
,
0110
0000
0000
0010
,
0000
1000
1000
0001
,
0001
0000
0000
1000
0000
0000
0001
0000
,
1001
0000
0000
0010
,
0100
0000
0110
0000
,
0001
1000
0000
1001
,
0000
1000
0000
0010
,
0010
0100
0100
0000
,
0001
1000
1001
0000
,
0000
0100
0000
0010
,
0010
0000
0100
0000
,
0010
0010
0110
0000
,
0000
0000
0100
0100
,
0000
0100
0000
0100
,
0100
0000
1001
0000
0000
0010
0000
0000
,
0000
0001
0001
0000
,
0000
1000
0000
0001
,
1000
0000
0000
0010
,
0100
0000
0000
0000
;
