#TITLE:Chewingood!!!;
#SUBTITLE:;
#ARTIST:TORIENA;
#TITLETRANSLIT:;
#SUBTITLETRANSLIT:;
#ARTISTTRANSLIT:;
#GENRE:;
#CREDIT:Paperbox440;
#BANNER:Chewingood!!!.png;
#BACKGROUND:Chewingood!!!-bg-.png;
#LYRICSPATH:;
#CDTITLE:;
#MUSIC:Chewingood!!!.mp3;
#OFFSET:0.000000;
#SAMPLESTART:23.052631;
#SAMPLELENGTH:13.578945;
#SELECTABLE:YES;
#BPMS:0.000000=190.000000
;
#STOPS:
;
#BGCHANGES:0.000=Chewingood!!!.avi=1.000=0=0=0=StretchNoLoop====,
99999=-nosongbg-=1.000=0=0=0 // don't automatically add -songbackground-
;
#KEYSOUNDS:;
#ATTACKS:;

//---------------dance-single - ----------------
#NOTES:
     dance-single:
     :
     Hard:
     15:
     0.777631,0.963455,0.397268,0.169050,0.557866,644.000000,597.000000,47.000000,20.000000,0.000000,0.000000,0.777631,0.963455,0.397268,0.169050,0.557866,644.000000,597.000000,47.000000,20.000000,0.000000,0.000000:
0000
0000
0000
0000
,
0000
0000
0000
0000
,
0000
0000
0000
0000
,
0000
0000
0000
0000
,
0000
0000
0000
1000
0100
0010
0100
0010
,
0100
0001
0000
0001
0010
0100
0010
0100
,
1000
0000
1100
0010
0000
0010
0100
1000
,
0001
1000
0001
0010
0010
0100
2000
0000
,
0001
0000
3001
0010
0100
0010
0100
0001
,
1000
0100
1000
0001
0001
0100
0010
0100
,
1001
0000
1000
0001
1000
0001
1000
0001
,
0010
0100
0100
1000
0001
1000
0001
0010
,
0010
0100
0100
1000
0001
1000
0001
1000
,
0010
0000
0001
0000
0100
0000
0010
0000
1000
0000
1000
0000
0000
0000
1000
0100
,
1000
0000
0010
0001
0010
0000
0100
0010
0100
0000
0001
0000
0010
0100
0000
0100
,
0001
0000
0001
1000
0000
0000
1000
0001
0100
0000
0100
0000
0010
0000
0010
0000
,
1000
0000
0000
0001
0000
0000
1000
0000
0000
0001
0000
0000
1000
0000
0000
0000
0000
0000
0000
0000
0000
0000
0000
0000
0001
0000
0000
0000
0000
0000
0000
0000
0001
0000
0000
0000
0010
0000
0000
0000
0100
0000
0000
0000
0010
0000
0000
0000
,
1000
0000
0000
0000
0000
0000
0000
0000
1000
0000
0000
0000
0100
0000
0000
0000
0000
0000
0000
0000
0100
0000
0000
0000
0010
0000
0000
0000
0000
0000
0000
0000
0100
0000
0000
0000
0010
0000
0000
0000
0000
0000
0000
0000
0000
1000
0000
0000
,
0001
0000
0000
0000
0000
0000
0000
0000
0000
0001
0000
0000
1000
0000
0000
0000
0000
0000
0001
0000
0000
0000
0000
0000
0010
0000
0000
0000
0000
0000
0000
0000
0010
0000
0000
0000
0100
0000
0000
0000
0000
0000
0000
0000
0010
0000
0000
0000
,
1000
0000
1000
0100
0000
0100
0010
0000
0010
0001
1000
0000
,
1000
0001
0000
0001
0100
0010
0000
0010
1000
0000
0100
0000
,
0100
0010
0000
0010
0001
0000
0001
0010
0100
1000
0010
0000
,
0010
0100
0000
0100
0001
0000
0001
0100
0000
1000
0000
1000
,
0010
0000
0010
0100
0000
0100
0010
0001
0000
0001
0010
0000
,
0010
1000
0000
1000
0001
0000
0001
1000
0000
0001
0100
0000
,
0010
0000
0010
0100
0000
0100
1000
0000
1000
0020
0000
0000
,
0000
0000
0000
0000
0000
0000
0030
0000
0000
1001
0000
0000
0100
0000
0000
0000
1000
0000
0000
0000
0010
0000
0100
0000
,
0000
0100
0010
0001
0000
0001
1000
0000
1000
0000
1000
0010
,
0100
0000
0100
0010
0001
0000
0001
0010
0000
0100
0010
0100
,
0000
1000
0000
0100
0000
0010
0001
0100
0000
0100
0010
0000
,
0010
1000
0000
0001
1000
0000
0010
0000
0010
0000
1000
0000
,
1010
0000
0010
0000
0100
0000
0010
0100
0001
0000
0001
1000
,
0000
1000
0010
0100
0000
0100
0010
0001
0000
1000
0001
0000
,
1000
0010
0000
0010
0100
0000
0100
0000
0000
1000
0000
0000
,
1001
0000
1000
0000
1001
0000
0000
0100
,
0110
0000
0000
0001
1001
0000
0000
1000
,
1100
0000
0000
0010
0110
0000
0000
1000
,
1001
0000
0000
0010
0110
0000
0000
1000
,
1001
0000
0000
0001
1001
0000
0000
0100
,
0110
0000
0000
0010
1010
0000
0000
1000
,
1100
0000
0000
0100
0110
0000
0000
0010
,
0011
0000
0000
1000
1010
0000
0000
0010
,
0110
0000
0000
0000
0000
0000
1000
0000
1000
0100
0000
0110
,
0000
0000
0000
0000
0010
0000
0000
0000
0000
0000
0000
0000
0010
0000
0000
0000
0000
0000
0000
0000
0000
0000
0000
0000
0000
0000
0000
0100
0000
0000
1000
0000
0000
0000
0000
0000
1001
0000
0000
0000
0000
0000
0000
0000
0000
0000
0000
0000
,
0000
0001
0100
0000
1100
0000
0000
0000
0000
0010
0100
0000
0110
0000
0000
0000
,
0000
0010
0001
0000
1001
0000
0000
0000
0000
0100
1000
0000
1010
0000
0000
0000
,
0000
0010
0100
0000
0101
0000
0000
0000
1000
0000
0000
0000
1001
0000
0000
0000
,
0001
1001
1100
0110
,
0011
0000
1001
1000
1010
0010
0110
0100
,
0101
0000
0001
0000
0001
0000
1000
0000
1000
0000
1000
0000
0010
0100
0010
0100
,
0010
0100
0000
0001
1000
0100
0010
0100
0001
1000
0000
0000
1000
0000
0000
0000
,
0110
0000
0000
0000
0010
0010
0001
1000
,
0100
0010
0100
0000
1000
0000
0100
0000
0001
0000
0010
0000
0200
0000
0000
0300
,
0001
0001
1000
1000
0010
0100
0100
0010
,
0001
0000
1000
0000
0100
0000
0100
0000
0010
0001
0010
0000
2000
0000
0000
0000
,
3001
0000
0000
0000
0000
0000
0010
0000
0010
0000
0100
0000
1000
0000
1000
0010
,
0001
0000
0000
0000
0001
0000
0010
0000
0100
1000
0100
0000
0002
0000
0000
0000
,
1003
0000
0000
0000
0000
0000
0000
0000
0100
0000
0010
0000
0100
0000
0000
1000
,
0001
0000
0000
0001
0100
0000
0100
0000
0010
0000
0010
0000
2000
0000
0000
0000
,
3001
0000
0000
0000
0010
0010
1000
0100
,
0000
0100
0010
0000
0010
0001
1000
0000
1000
0000
0000
0000
0200
0000
0000
0000
,
0310
0000
0000
0000
0001
0000
0001
0000
0000
0010
0100
0000
0100
0000
0010
0000
,
0001
0000
1000
0000
0000
0010
0000
0000
0100
0000
0100
0000
0002
0000
0000
0000
,
1003
0000
0000
0000
0010
0000
0000
0001
1000
0000
0000
1000
0100
0000
0000
0100
,
0010
0001
0000
0001
1000
0000
1000
0000
0020
0000
0000
0000
0130
0000
0000
0000
,
0000
0000
0000
0000
1000
0000
1000
0010
0000
0100
0010
0100
0000
0001
0000
0000
,
0001
1000
0000
0000
1000
0000
0000
0100
0010
0100
0010
0000
0001
0000
0000
0000
,
1001
0000
0000
0000
0010
0100
0000
0000
1000
0000
1000
0000
0000
0000
0001
0000
,
1000
1000
0100
0010
0100
0000
1000
0000
,
1001
0010
0100
0100
0010
0001
1000
1000
,
0010
0100
0010
0001
0001
1000
1000
0000
,
0220
0330
0000
2020
3030
0000
0000
0000
0001
0000
0010
0000
0100
0000
0100
0000
,
1000
0001
1000
0001
0100
1000
0001
0001
,
0100
0010
0100
0100
1000
1000
0001
0000
,
1001
0000
1000
0010
0010
0100
1000
0100
,
0001
0010
2000
3000
0010
0010
0010
0010
,
1000
0001
0100
0100
0010
0001
1000
1000
,
0100
1000
0010
0001
0001
0100
0100
0000
,
1000
0000
1001
0000
0010
0010
0100
1000
,
0100
0001
0001
1000
0100
1000
0100
0010
,
1001
0000
0010
0100
0100
0010
0001
0000
,
1001
0100
0010
0001
1000
1000
0100
0010
,
0010
0001
0100
0100
1000
0010
1000
0000
,
1001
0000
0100
0000
0010
0020
0000
0030
,
0100
0200
0000
0300
0001
1000
0001
2000
,
0000
0000
3000
0000
0010
0000
0010
0000
0100
0000
0000
1000
0100
0000
0010
0000
,
0002
0000
0003
1000
0001
1000
0002
0000
,
0003
0000
0010
0010
0100
1000
0100
0010
,
0001
0000
0000
0000
0001
0010
0000
0000
0100
0000
0010
0000
0100
0000
0020
0000
,
0000
0000
0030
0000
1000
0000
1000
0000
0100
0000
0010
0000
0001
1000
0001
0000
,
0100
0000
0100
0000
0100
0000
0100
0000
0000
0000
0001
1000
0001
1000
0001
1000
,
0001
1000
0001
1000
0000
0000
0000
0000
0000
0000
0000
0000
0000
0000
0000
0000
;

//---------------dance-single - ----------------
#NOTES:
     dance-single:
     :
     Medium:
     13:
     0.660504,0.733229,0.498698,0.473341,0.033810,547.000000,488.000000,59.000000,56.000000,0.000000,0.000000,0.660504,0.733229,0.498698,0.473341,0.033810,547.000000,488.000000,59.000000,56.000000,0.000000,0.000000:
0000
0000
0000
0000
,
0000
0000
0000
0000
,
0000
0000
0000
0000
,
0000
0000
0000
0000
,
0000
0000
0010
0100
0010
0000
1000
0000
,
0100
0000
0010
0100
0001
1000
0001
0000
,
0010
0010
1000
0000
0100
0010
0100
0010
,
1000
0000
1000
0001
0100
0000
0020
0000
,
1000
0000
0130
0000
0100
0000
1000
0001
,
1000
0001
0010
0000
0010
0000
0100
0000
,
0010
0000
1000
0001
1000
0100
0010
0000
,
0010
0000
1000
0001
1000
0000
0010
0000
,
0010
0000
1000
0001
1000
0001
0010
0000
,
0010
0100
0000
0100
1000
0000
1000
0100
,
0001
0010
0001
0000
0010
1000
0010
0000
,
0100
0100
1000
1000
0001
0001
0010
0010
,
0010
0010
0010
0000
0010
0000
0100
0000
,
0010
0010
1000
1000
0001
1000
0001
1000
,
1000
0010
0000
0010
0100
0000
0100
1000
,
0000
1000
0100
0000
0100
0010
0000
0010
,
0001
0000
0001
0010
0000
0010
0100
0000
,
0100
1000
0000
1000
0100
0000
0100
0010
,
0000
0010
0001
1000
0001
0100
0000
0100
,
0010
0000
0010
1000
0000
1000
0100
0000
,
0100
0001
0001
1000
1000
0010
0000
0010
,
0000
0010
0100
0000
0100
1000
0001
1000
,
0020
0000
0130
0000
1000
0000
1000
0001
,
0000
0001
0010
0000
0010
0100
0000
0100
,
1000
0000
1000
0010
0000
0010
1000
0001
,
1000
0100
0000
0100
0010
0000
0010
0010
,
0010
0000
0110
0000
1000
0000
1000
0100
,
0000
0100
0010
0000
0010
0001
0000
0001
,
0010
0000
0010
0100
0000
0100
0001
0000
,
0001
1000
0000
1000
0001
0000
1001
0000
,
1100
0000
0000
0000
2002
3003
0000
0000
0110
0000
0000
0000
0010
0000
0000
0000
,
1010
0100
0110
1000
,
0101
0010
1100
1000
,
1001
0100
0110
1000
,
1010
0001
0101
1000
,
1001
0100
1100
1000
,
1001
0000
0010
0010
0110
0000
0100
0000
,
0011
1000
1001
0001
,
1001
0000
0010
0010
1100
0000
1010
0000
,
0110
0101
0011
1001
,
1100
1010
0110
0101
,
0011
1001
1010
1100
,
0110
0000
0000
0000
0000
0000
0000
0000
0011
0000
0000
0000
0000
0000
0000
0000
2020
3030
0000
0000
0000
0000
0000
0000
0220
0330
0000
0000
0000
0000
0000
0000
,
0202
0303
0000
0000
0000
0000
0000
0000
0022
0033
0000
0000
0000
0000
0000
0000
2002
3003
0000
0000
0000
0000
0000
0000
2200
3300
0000
0000
0000
0000
0000
0000
,
2020
3030
0000
0000
0000
0000
0000
0000
0220
0330
0000
0000
0000
0000
0000
0000
0001
0000
0000
0000
0001
0000
0000
0000
0001
0000
0000
0000
0010
0000
0000
0000
,
0010
0000
0010
0000
0100
0000
0100
0000
0100
0000
0000
0000
0001
1000
0001
1000
,
0001
1000
0001
1000
0000
0000
0010
0000
0100
0000
0010
0000
0100
0000
0000
0000
,
0220
0330
0000
1000
1000
0001
0010
0100
,
0010
0100
0100
0000
2000
3002
2003
0000
,
3000
0000
0000
0010
0010
0100
0001
1000
,
0100
1000
0010
0000
0200
0320
0230
0000
,
0300
0000
0010
0010
1000
0100
0001
0010
,
0001
1000
0000
0100
0002
2003
3002
0000
,
0003
0000
0010
0010
0100
1000
0010
0100
,
0010
0001
1000
0000
0200
0320
0130
0000
,
0110
0000
1001
0000
1000
0100
0001
0010
,
0100
0100
1000
0000
0002
2003
3002
0000
,
0003
0000
0000
0010
0010
0000
0100
0100
,
0010
0001
0100
0000
0100
2000
3002
2003
,
0000
3000
0000
0010
0010
0000
0100
0100
,
0010
0100
1000
0001
2000
3002
2003
3000
,
0000
0000
0010
0010
0100
0000
1000
1000
,
0010
0100
0010
0002
2003
3002
0003
0010
,
0100
0000
0110
0000
1000
1000
0001
0001
,
0100
0000
0010
0010
1000
1000
0001
0010
,
0001
0100
0000
0100
0010
1000
0000
1000
,
0001
0001
0010
0010
0100
0100
0000
1001
,
0000
1001
0000
0000
0010
0000
0010
0100
,
0000
0100
0001
1000
0001
0001
0010
0100
,
0000
0000
0000
0000
0220
0330
0000
0000
0000
0000
0000
0000
2200
3300
0000
0000
0000
0000
0000
0000
1001
0000
0000
0000
0000
0000
0000
0000
0011
0000
0000
0000
,
0000
0100
1000
0000
1000
0001
0000
0001
,
0100
0010
0100
0000
1000
1000
0001
0001
,
0000
0010
1000
0000
1000
0100
0010
0000
,
0100
0001
0001
0000
1000
1001
0000
0100
,
0000
0010
1010
0000
0001
0100
0011
0000
,
1010
0000
0100
0000
2000
3000
0010
0010
,
0000
0100
0001
0001
1000
0000
1000
0000
,
0010
0100
0000
1000
0000
1000
0010
0100
,
0010
0001
0000
0001
0100
1000
0000
1000
,
0001
0000
1001
0000
0010
0000
1000
1000
,
0000
0010
0010
0000
2000
3002
2003
0000
,
3000
0000
0010
0010
0000
0100
0100
0001
,
0010
1000
0001
0000
2000
3002
2003
0000
,
3000
0000
0010
0010
0000
0100
0100
0000
,
0001
0000
0010
0100
0010
0100
1000
0000
,
1000
0100
0001
0010
0001
0001
0100
0100
,
1000
0000
1000
0000
0010
0000
0010
0000
0100
0000
0100
0000
0000
0000
1000
0001
,
1000
0001
1000
0001
1000
0001
0000
0000
0000
0000
0000
0000
0000
0000
0000
0000
;

//---------------dance-single - ----------------
#NOTES:
     dance-single:
     :
     Easy:
     8:
     0.480586,0.617879,0.684654,0.067620,0.008453,398.000000,317.000000,81.000000,8.000000,0.000000,0.000000,0.480586,0.617879,0.684654,0.067620,0.008453,398.000000,317.000000,81.000000,8.000000,0.000000,0.000000:
0000
0000
0000
0000
,
0000
0000
0000
0000
,
0000
0000
0000
0000
,
0000
0000
0000
0000
,
0000
0010
0100
0010
,
1000
1000
0001
0001
,
0010
0010
0100
0010
,
0100
1000
1000
0001
,
0010
0001
0001
1000
,
1000
0100
0100
0001
,
0001
0100
0010
0100
,
1000
1000
0010
0010
,
1000
1000
0010
0110
,
1100
1001
0011
1001
,
1100
0000
0000
0000
0000
0000
0001
0000
0000
1000
0000
0000
1000
0000
0000
0000
0100
0000
0000
0000
0000
0010
0000
0000
,
0010
0000
0000
0000
0100
0000
0000
0000
0000
1000
0000
0000
1000
0000
0000
0000
0000
0000
0010
0000
0000
0010
0000
0000
,
0010
0010
0010
0000
0100
0000
1000
0000
,
1001
1001
0010
0100
,
0010
0100
1000
1000
,
0100
0100
0010
0010
,
0100
0100
1000
1000
,
0100
0100
0010
0010
,
0001
0001
0010
0010
,
0100
0100
0010
0010
,
1000
1100
0110
0011
,
1000
1000
0010
0010
,
0000
1001
0000
0010
,
1010
0100
0110
0001
,
1001
0100
0101
0001
,
1001
1000
1100
0100
,
0110
0010
0011
1000
,
1001
0100
0110
1000
,
1001
0010
0001
0001
,
1000
1000
0100
0010
,
0100
1001
0110
0000
,
1001
0000
1010
0000
,
0110
0001
0101
0000
,
0011
0000
1001
0000
,
1100
0010
0110
0000
,
1001
0000
1100
0000
,
1001
0010
0110
0000
,
1100
0000
1010
0000
,
0110
0001
0101
1000
,
1100
0001
1001
0101
,
0100
0110
0010
1010
,
1000
1001
0001
1001
,
1000
0000
0000
0000
0000
0000
0000
0000
1010
0000
0000
0000
0000
0000
0000
0000
2000
3000
0000
0000
0000
0000
0000
0000
0020
0030
0000
0000
0000
0000
0000
0000
,
0200
0300
0000
0000
0000
0000
0000
0000
0002
0003
0000
0000
0000
0000
0000
0000
2000
3000
0000
0000
0000
0000
0000
0000
0200
0300
0000
0000
0000
0000
0000
0000
,
0020
0030
0000
0000
0000
0000
0000
0000
0200
0300
0000
0000
0000
0000
0000
0000
0010
0000
0000
0000
0000
0000
0000
0000
0010
0000
0000
0000
0000
0000
0000
0000
,
0100
0100
0001
0001
1000
1000
0000
0010
,
0010
0010
0010
0000
0100
0000
0010
0000
,
1001
0000
1000
0001
,
0010
0100
0001
1001
,
0000
0100
0010
0100
,
0010
1000
0001
1001
,
0000
0010
0100
0010
,
0001
0001
1000
1001
,
0000
0000
0100
0010
,
0100
0001
0001
1000
,
1001
0000
0110
0010
,
1000
1000
0010
0110
,
0000
0000
1000
1000
,
0001
0001
0010
0110
,
0000
0000
1000
1000
,
0010
0010
0001
1001
,
0000
0100
0100
0010
,
0010
1000
1001
0010
,
0110
0000
1001
0000
,
1000
0100
0010
0100
,
0010
0001
0001
1000
,
0001
0010
0010
0100
,
0010
1000
1000
0001
,
0010
0001
0100
0100
,
0010
1000
1000
0001
,
1001
0010
0001
0100
,
0100
0010
1100
0000
,
0110
0000
1001
0000
,
1100
0000
1010
0000
,
0110
0000
0101
0000
,
0011
0000
1100
0000
,
1010
0000
0110
0000
,
0101
0000
1001
0000
,
1010
0000
1100
0000
,
1001
0000
0001
1000
,
1000
0010
0100
0110
,
0000
0001
0001
1000
,
1000
0010
0100
0001
,
1001
0000
0010
0010
,
0100
0100
0001
1000
,
1001
0100
0010
0010
,
0000
1000
1000
0001
0001
1000
1000
0000
,
0010
0010
0010
0010
0000
0000
0000
0000
;

//---------------dance-single - ----------------
#NOTES:
     dance-single:
     :
     Beginner:
     4:
     0.357421,0.539904,0.549413,0.042263,0.000000,296.000000,231.000000,65.000000,5.000000,0.000000,0.000000,0.357421,0.539904,0.549413,0.042263,0.000000,296.000000,231.000000,65.000000,5.000000,0.000000,0.000000:
// measure 0
0000
0000
0000
0000
,  // measure 1
0000
0000
0000
0000
,  // measure 2
0000
0000
0000
0000
,  // measure 3
0000
0000
0000
0000
,  // measure 4
0000
0000
1000
0000
,  // measure 5
0100
0000
0010
0000
,  // measure 6
0001
0000
0010
0000
,  // measure 7
0100
0000
1000
0000
,  // measure 8
1000
0100
0000
0110
,  // measure 9
0000
1001
0000
0110
,  // measure 10
0000
1001
0000
0110
,  // measure 11
0000
1001
0000
0110
,  // measure 12
0000
1000
1001
1001
,  // measure 13
1001
1001
1001
0010
,  // measure 14
0100
0100
0010
0010
,  // measure 15
0001
1000
1000
0100
,  // measure 16
0020
0030
0000
0000
,  // measure 17
0100
0100
0100
0010
,  // measure 18
1000
1001
0010
0010
,  // measure 19
0100
0100
0000
1000
,  // measure 20
1000
0001
0001
0000
,  // measure 21
0010
0010
0100
0100
,  // measure 22
0000
1000
1000
0001
,  // measure 23
0001
0000
0010
0010
,  // measure 24
0100
0100
0000
1000
,  // measure 25
1000
0010
0010
0200
,  // measure 26
0000
0310
1000
1000
,  // measure 27
0001
0001
0010
0010
,  // measure 28
0000
0100
0100
1000
,  // measure 29
1000
0001
0001
0000
,  // measure 30
1001
1001
0110
0000
,  // measure 31
1001
0000
0110
0000
,  // measure 32
1001
0000
0110
0000
,  // measure 33
1001
0000
0110
1000
,  // measure 34
1000
2000
3001
0000
,  // measure 35
0010
0000
0100
0000
,  // measure 36
1000
0000
0100
0000
,  // measure 37
0010
0000
0001
0000
,  // measure 38
0001
0000
0010
0000
,  // measure 39
0010
0000
0100
0000
,  // measure 40
0100
0000
1000
0000
,  // measure 41
1000
0000
0100
0000
,  // measure 42
0100
0110
0000
1001
,  // measure 43
0000
0110
0000
1001
,  // measure 44
0000
0110
0000
1010
,  // measure 45
0000
0101
0000
0011
,  // measure 46
0000
1100
0001
0001
,  // measure 47
0001
0100
0100
0100
,  // measure 48
0010
0010
0001
1001
,  // measure 49
1001
1001
1001
0020
,  // measure 50
0000
0030
0000
0000
,  // measure 51
0000
0000
0100
0000
,  // measure 52
1000
0000
0010
0100
,  // measure 53
0110
0000
0001
0000
,  // measure 54
1000
0000
0010
0100
,  // measure 55
0110
0000
0100
0000
,  // measure 56
0010
0000
1000
0001
,  // measure 57
1001
0000
0010
0000
,  // measure 58
0100
0000
0001
1000
,  // measure 59
1001
0000
0110
0000
,  // measure 60
1010
0000
0010
0100
,  // measure 61
0110
0000
0001
0000
,  // measure 62
1000
0000
0001
1000
,  // measure 63
1001
0000
1000
0000
,  // measure 64
0001
0000
0010
0100
,  // measure 65
0110
0000
1000
0000
,  // measure 66
0001
0000
0010
0100
,  // measure 67
0110
1010
0000
0000
,  // measure 68
0001
0001
0010
1000
,  // measure 69
1000
0000
0100
0100
,  // measure 70
0010
0001
0001
1000
,  // measure 71
1000
0100
0010
0010
,  // measure 72
0000
0001
0100
0100
,  // measure 73
0010
0010
1000
0100
,  // measure 74
0100
0001
0001
0010
,  // measure 75
0000
0110
0000
0000
,  // measure 76
1001
0000
1100
0000
,  // measure 77
1010
0000
0110
0000
,  // measure 78
0101
0000
0011
0000
,  // measure 79
1001
0000
1100
0000
,  // measure 80
1010
0000
0110
0000
,  // measure 81
0101
0000
0011
0000
,  // measure 82
1001
0000
1100
0000
,  // measure 83
1010
0000
0010
0000
,  // measure 84
0100
0000
0001
1000
,  // measure 85
1001
0000
0010
0000
,  // measure 86
0100
0000
0010
0100
,  // measure 87
0110
0000
1000
0000
,  // measure 88
0001
0000
1000
0001
,  // measure 89
1001
0000
0001
0001
,  // measure 90
0010
0010
0100
0200
,  // measure 91
0000
0300
0000
0000
;

//---------------dance-single - ----------------
#NOTES:
     dance-single:
     :
     Challenge:
     12:
     0.585638,0.696065,0.642391,0.152145,0.308517,485.000000,409.000000,76.000000,18.000000,344.000000,0.000000,0.585638,0.696065,0.642391,0.152145,0.308517,485.000000,409.000000,76.000000,18.000000,344.000000,0.000000:
0000
0000
0000
0000
,
0000
0000
0000
0000
,
0000
0000
0000
0000
,
0000
0000
0000
0000
,
0000
0000
1000
0001
1000
0000
0010
0000
,
0010
0000
0100
0000
0100
0001
1000
0001
,
1000
0000
0010
0000
0010
0000
0100
0010
,
0100
0000
1000
0000
1000
0001
0010
0001
,
0010
MMMM
0000
0110
,
MMMM
1010
MMMM
1001
,
MMMM
1010
MMMM
0110
,
MMMM
0101
MMMM
0011
,
MMMM
MMMM
0011
0110
,
1100
1010
0110
0101
,
0011
0110
1100
MMMM
,
1000
1000
0001
0001
0010
0010
0100
0100
,
1000
0001
1000
0001
1000
0001
1000
0000
MMMM
0000
0000
0000
MMMM
0000
0000
0000
,
0010
0100
0010
0000
0001
0000
0100
0010
,
0100
0000
0000
MMMM
0000
0000
0010
0000
0010
0100
0000
0100
,
0001
0000
0001
1000
0000
1000
0010
0000
0010
0000
MMMM
0000
,
0100
0000
0100
0010
0000
0010
0001
0000
0001
1000
0000
1000
,
0010
0000
0010
0100
0000
0100
0000
MMMM
0000
0010
0000
0010
,
1000
0000
1000
0001
0000
0001
0010
0000
0010
0100
0000
0100
,
0000
0000
MMMM
0000
0000
0000
0010
0000
0000
0000
0010
0000
0100
0000
0000
0000
0100
0000
0000
0000
0000
MMMM
0000
0000
,
0000
0000
0000
1010
0000
0000
0000
0000
0000
0000
0000
0000
0000
0000
0000
0110
0000
0000
0000
0000
0000
0000
0000
0000
MMMM
0000
0000
0000
0000
0000
0000
0000
0000
0000
0000
0000
1010
0000
0000
0000
0000
0000
0000
0000
0010
0000
0000
0000
,
0000
1000
0000
1000
0010
0000
0010
0000
0000
MMMM
0000
0000
,
MMMM
1001
MMMM
MMMM
,
1010
MMMM
0110
MMMM
,
0010
0000
0010
0100
0000
0100
1000
0000
1000
0001
0000
0001
,
0010
0000
0000
0000
0000
0000
0000
0000
0010
0000
0000
0000
0100
0000
0000
0000
0000
0000
0000
0000
0100
0000
0000
0000
0000
0000
0000
MMMM
0000
0000
0000
0000
0000
0000
0000
0000
1100
0000
0000
0000
0000
0000
0000
0000
0000
0000
0000
0000
,
1010
0110
0101
MMMM
,
1000
0000
1000
0001
0000
0001
0100
0000
0100
0010
0000
0010
,
1000
0000
1000
0100
0000
0000
MMMM
0000
0000
0010
0000
0010
,
0100
0000
0100
0001
0000
0001
0100
0000
0010
0100
1000
0000
,
1000
0000
0000
1001
0000
MMMM
0000
0000
0000
MMMM
0000
0000
,
1010
MMMM
0110
MMMM
,
0101
0001
1001
MMMM
,
1010
MMMM
0110
MMMM
,
0101
1000
1001
0001
,
1001
MMMM
1010
MMMM
,
0110
0001
0101
MMMM
,
1100
MMMM
1010
MMMM
,
0110
0000
0000
MMMM
0000
0000
0001
0000
0001
0010
0000
0010
,
0100
0000
0100
0000
MMMM
0000
1000
0000
1000
0010
0000
0010
,
0100
0000
0100
0000
MMMM
0000
0001
0000
0001
0010
0000
0010
,
0100
0000
0100
0000
MMMM
0000
0010
0000
0010
0100
0000
0100
,
0001
0000
0000
0000
0000
0000
0000
0000
0000
0000
0000
0000
0000
0000
0000
0000
0000
0000
0000
0000
0000
0000
0000
0000
0000
0000
0000
0000
0000
0000
0000
0000
0001
0000
0000
0000
0000
0000
0000
0000
0000
0000
0000
0000
0000
0000
0000
0000
0000
0000
0000
0000
0000
0000
0000
0000
0000
0000
0000
0000
0000
0000
0000
0000
MMMM
0000
0000
0000
0000
0000
0000
0000
0000
0000
0000
0000
0000
0000
0000
0000
0000
0000
0000
0000
0000
0000
0000
0000
0000
0000
0000
0000
0000
0000
0000
0000
2020
0000
0000
0000
0000
0000
3030
0000
0000
0000
0000
0000
0000
0000
0000
0000
0000
0000
0000
0000
0000
0000
0000
0000
0000
0000
0000
0000
0000
0000
0000
0000
0000
0000
0000
0000
0000
0000
0000
0000
0000
0000
0000
0000
0000
0000
0000
0000
0220
0000
0000
0000
0000
0000
0330
0000
0000
0000
0000
0000
0000
0000
0000
0000
0000
0000
0000
0000
0000
0000
0000
0000
0000
0000
0000
0000
0000
0000
0000
0000
0000
0000
0000
0000
0000
0000
0000
0000
0000
0000
0000
0000
0000
0000
0000
0000
,
0202
0303
0000
0000
0000
0000
0000
0000
2002
3003
0000
0000
0000
0000
0000
0000
2200
3300
0000
0000
0000
0000
0000
0000
2020
3030
0000
0000
0000
0000
0000
0000
,
0220
0330
0000
0000
0000
0000
0000
0000
0202
0303
0000
0000
0000
0000
0000
0000
1000
0000
0000
0000
1000
0000
0000
0000
MMMM
0000
0000
0000
0010
0000
0000
0000
,
0010
MMMM
0100
0100
0010
0010
0010
0010
,
1000
0001
1000
0001
1000
0001
1000
0000
MMMM
0000
0000
0000
MMMM
0000
0000
0000
,
MMMM
0000
0220
0330
0000
0000
MMMM
0000
0000
0000
0000
0000
0100
0000
0000
0000
,
0100
0010
0010
0001
0001
0000
1000
0001
,
1000
MMMM
0000
1000
1000
0000
0001
0001
,
0000
0010
0001
1000
1000
0000
0100
0010
,
0100
MMMM
0000
0010
0010
0000
1000
1000
,
0001
0000
0010
0100
0010
0001
1000
0001
,
1000
MMMM
0000
0010
0010
0000
1000
1000
,
0000
0001
0010
0100
0001
0000
1010
0000
,
0110
0000
MMMM
0000
1000
1000
0000
0001
,
0001
0010
0100
0010
1000
1000
0001
0010
,
MMMM
0000
0100
0010
0100
0000
1000
0001
,
1000
0000
0010
0010
0100
0001
1000
0100
,
1000
MMMM
0000
0010
0010
0000
1000
1000
,
0000
0000
0001
0010
0100
0010
1000
1000
,
MMMM
0000
0010
0010
0000
1000
1000
0000
,
0010
0100
0001
0010
0001
0000
1010
0000
,
0011
0000
MMMM
0000
0100
0100
0000
0010
,
0010
0100
0000
0100
0001
0000
0001
0000
,
1100
0000
1010
0000
MMMM
0000
0100
0001
,
0000
0001
1000
1000
0010
0000
MMMM
1010
,
0000
1010
MMMM
0000
0100
0100
0001
0010
,
0001
1000
MMMM
0000
0100
0010
0010
0001
,
1000
0000
0000
1000
0000
0000
0000
0000
0000
MMMM
0000
0000
0000
0000
0110
0000
0000
0000
MMMM
0000
0000
0000
1010
0000
,
0000
0000
MMMM
0000
0000
0000
0100
0000
0000
0100
0000
0000
0010
0000
0000
1000
0000
0000
0001
0000
0000
0010
0000
0000
,
0001
0000
MMMM
0000
0100
0010
0100
1000
,
1010
MMMM
0110
MMMM
,
0101
MMMM
0011
MMMM
,
0101
MMMM
0110
MMMM
,
1010
MMMM
0110
MMMM
,
0101
MMMM
1001
MMMM
,
1010
MMMM
0110
MMMM
,
0101
MMMM
0011
MMMM
,
1001
0000
MMMM
0000
1000
1000
0000
0010
,
0010
0000
0100
0010
1000
0001
1000
0000
,
MMMM
0000
0010
0010
0000
1000
1000
0000
,
0010
0000
0001
1000
0001
1000
0010
0010
,
0000
MMMM
0100
0100
0000
0010
0010
0000
,
0100
0100
0001
0010
1000
0001
1000
0000
,
MMMM
0000
MMMM
0000
0001
0001
1000
1000
,
0001
0000
0001
0000
0100
0000
0100
0000
0100
0000
0100
0000
0000
0000
1000
0001
,
1000
0001
1000
0001
1000
0001
0000
0000
MMMM
0000
0000
0000
0000
0000
0000
0000
;
