#VERSION:0.83;
#TITLE:Blue Forest;
#SUBTITLE:(Prog Keys Remix);
#ARTIST:Toro maru;
#TITLETRANSLIT:;
#SUBTITLETRANSLIT:;
#ARTISTTRANSLIT:;
#GENRE:;
#ORIGIN:;
#CREDIT:PaperBox440;
#BANNER:Blue Forest (Prog Keys Remix).png;
#BACKGROUND:Blue Forest (Prog Keys Remix)-bg.png;
#PREVIEWVID:;
#JACKET:Blue Forest (Prog Keys Remix)-jacket.png;
#CDIMAGE:;
#DISCIMAGE:;
#LYRICSPATH:;
#CDTITLE:;
#MUSIC:Blue Forest (Prog Keys Remix).mp3;
#OFFSET:0.000000;
#SAMPLESTART:30.000000;
#SAMPLELENGTH:8.400002;
#SELECTABLE:YES;
#BPMS:0.000=150.000;
#STOPS:;
#DELAYS:;
#WARPS:;
#TIMESIGNATURES:0.000=4=4;
#TICKCOUNTS:0.000=4;
#COMBOS:0.000=1;
#SPEEDS:0.000=1.000=0.000=0;
#SCROLLS:0.000=1.000;
#FAKES:;
#LABELS:0.000=Song Start;
#BGCHANGES:;
#KEYSOUNDS:;
#ATTACKS:
;

//---------------dance-single - ----------------
#NOTEDATA:;
#CHARTNAME:;
#STEPSTYPE:dance-single;
#DESCRIPTION:;
#CHARTSTYLE:;
#DIFFICULTY:Hard;
#METER:14;
#RADARVALUES:0.842305,0.897581,0.435675,0.058090,0.890713,609.000000,564.000000,45.000000,6.000000,0.000000,0.000000,0.000000,0.000000,0.000000,0.842305,0.897581,0.435675,0.058090,0.890713,609.000000,564.000000,45.000000,6.000000,0.000000,0.000000,0.000000,0.000000,0.000000;
#CREDIT:;
#NOTES:
// measure 0
0000
0000
0000
0000
,  // measure 1
0010
0000
0010
1000
0100
0000
0001
0000
0001
0000
1000
0000
0100
0000
1000
0000
,  // measure 2
0010
0100
0010
0000
0000
0000
1000
0000
1000
0000
0100
0000
0010
0000
0010
0000
,  // measure 3
0100
0001
0000
0000
0001
0000
1000
0000
0100
0000
1000
0000
0010
0100
0000
0000
,  // measure 4
0100
0000
0001
0000
0010
0000
0001
0000
0100
0000
0000
0100
1000
0000
0000
1000
,  // measure 5
0001
0000
0000
0001
0000
0000
1000
0000
0010
0100
1000
0000
1001
0000
0000
0010
,  // measure 6
0000
0000
0010
0100
0000
0000
0100
0000
0001
0010
0001
0000
0000
0000
1000
0000
,  // measure 7
1000
0000
0010
0000
0010
0100
0000
0000
0100
0000
0001
0010
0001
0000
0000
0000
,  // measure 8
1001
0000
0000
0000
1000
0001
1000
0000
0010
0000
0010
0000
0000
0000
1000
0001
,  // measure 9
1000
0000
0010
0100
0010
0000
0001
0000
1000
0000
0000
0000
0010
0100
0010
0100
,  // measure 10
0010
1000
1001
0000
1000
1100
0000
0010
,  // measure 11
0110
0000
1001
0000
0000
0000
1100
1010
,  // measure 12
0001
0000
1001
0000
0000
1000
1100
0000
,  // measure 13
1001
0000
0000
0000
0000
0000
0000
0000
0110
0000
1010
0000
0001
1000
0001
1000
,  // measure 14
0000
0110
0000
1100
0000
0000
1001
0000
,  // measure 15
0000
0000
1100
0000
0000
0000
0110
0000
0000
0001
0010
0100
0010
0100
0000
0000
,  // measure 16
1001
0000
0000
1100
0000
0100
0110
0000
,  // measure 17
0000
0000
1001
0000
0000
0000
0010
0100
0010
0100
0010
0000
0000
0000
0000
0000
,  // measure 18
1000
0001
1000
0001
1000
0000
0000
0001
0010
0100
0000
0010
0100
0000
1000
0000
,  // measure 19
1000
0000
0001
0010
0001
0000
0100
0000
0100
0010
0000
0010
0100
0000
0100
0000
,  // measure 20
1001
0000
0010
0100
1000
0000
0001
0000
0001
0000
1100
0000
0000
0010
0100
0010
,  // measure 21
0000
0000
0001
0000
1000
0000
1000
0000
0110
0000
0000
1000
0001
0000
0100
0000
,  // measure 22
0100
0001
0010
0001
0000
0000
1001
0000
0000
0000
0110
0000
0000
0000
1000
0100
,  // measure 23
0010
0001
0000
0010
0100
0010
0100
0000
1000
0000
1000
0000
1001
0000
0000
0000
,  // measure 24
0010
0000
0100
0000
0010
0000
0001
1000
0001
0000
0010
0000
0000
0100
0000
0000
,  // measure 25
1000
0100
0010
0000
0001
0000
0001
0000
0100
0010
0100
0010
1000
0001
1000
0000
,  // measure 26
0010
1000
0100
1000
0000
0000
1000
0010
1000
0001
1000
0000
0000
1000
0100
0000
,  // measure 27
0001
0010
0000
0100
0010
0000
1000
0000
1000
0000
0001
0000
0001
0000
0100
0010
,  // measure 28
0100
0010
0000
0000
2002
0000
0000
0000
3003
0000
0010
0100
0010
0000
1000
0000
,  // measure 29
0100
0010
0100
0000
0002
0000
0000
0000
0000
1000
0100
0013
0000
0000
0000
0000
,  // measure 30
1000
0001
1000
0001
1000
0000
0000
1000
0001
1000
0010
1000
0000
0000
1000
0001
,  // measure 31
1000
0001
1000
0000
0000
1000
0100
0000
0001
0010
0000
0100
0010
0000
1000
0000
,  // measure 32
1000
0000
0001
0010
0001
0000
0100
0000
0100
0000
1000
0000
1000
0100
1000
0000
,  // measure 33
0000
0010
0100
0000
0000
0010
0001
0000
0100
0010
0100
0000
0001
0000
1001
0000
,  // measure 34
1100
0000
0010
0000
0010
0000
0100
0010
0100
0000
0001
0000
1001
0000
0100
0000
,  // measure 35
0100
0010
0000
0001
0000
0001
1000
0000
0010
0100
0010
0000
1000
0000
1000
0001
,  // measure 36
0000
0010
0000
0010
0100
0000
0001
1000
0001
0000
0100
0000
0000
0100
0010
0000
,  // measure 37
1001
0000
0000
0000
1001
0000
0000
0000
1100
0000
0001
0000
0001
0000
1000
0100
,  // measure 38
1000
0000
0010
0000
0010
0000
0100
0001
0100
0000
1000
0000
1000
0000
0010
0100
,  // measure 39
0010
0000
0001
0000
1001
0000
0000
0000
0001
0010
0001
1000
0000
1000
0010
0100
,  // measure 40
0000
0100
0000
0000
0001
0010
0000
1000
0100
0000
0000
0001
0100
0000
0010
0000
,  // measure 41
0010
0000
1000
0001
1000
0001
1000
0000
0000
0000
1000
0100
0010
0001
0010
0001
,  // measure 42
1000
0000
1000
0010
0100
0010
0000
0000
0001
0100
0000
0100
0001
0010
0001
0000
,  // measure 43
0000
1001
0000
0000
0100
0000
0001
0000
1001
0000
0000
0000
0100
0000
0010
0000
,  // measure 44
0000
0010
0100
0000
0000
0100
0000
0001
0010
0001
1000
0000
1000
0000
0000
0000
,  // measure 45
0010
0100
0010
0000
0001
0000
0001
0000
0001
0000
0001
0010
0001
0100
0001
0000
,  // measure 46
0001
1000
0001
0100
0000
0000
0001
0000
0001
1000
0100
1000
0010
0100
0010
0001
,  // measure 47
0000
0001
1000
1000
0100
0010
0001
0000
1000
0100
0001
0010
1000
0100
0001
0010
,  // measure 48
1000
0100
0001
0000
0001
0000
1000
0001
1000
0000
0110
0000
0110
0000
0001
0000
,  // measure 49
1000
0000
0100
0001
0010
0000
0001
0000
1000
0000
1000
0100
0010
0000
1000
0001
,  // measure 50
1000
0001
1000
0000
1001
0000
0000
0000
0010
0100
0000
0100
0010
1000
0000
0000
,  // measure 51
1000
0000
0001
0010
0001
0000
0100
0000
0100
0000
0001
0000
0010
0000
0010
0000
,  // measure 52
1000
0000
1000
0010
1000
0001
1000
0010
1000
0001
1000
0000
0000
0100
0010
0001
,  // measure 53
1000
0010
0100
0000
0000
0000
0001
0010
0001
0000
0100
0000
0010
0010
1000
0000
,  // measure 54
1000
0001
0000
0100
0010
0100
0001
0000
0000
0001
0000
1000
0100
2000
0000
0000
,  // measure 55
3000
0000
0100
0000
0001
0010
0001
0000
0100
0000
0100
0000
0200
0000
0000
0000
,  // measure 56
0300
0000
0001
0010
0001
0000
0100
0000
0000
0000
1000
0000
1000
0001
1000
0010
,  // measure 57
1000
0001
1000
0000
0000
0000
0001
1000
0001
1000
0001
1000
0001
0000
0010
0000
,  // measure 58
0000
0010
0100
0000
0000
0100
0001
0001
0000
0100
0010
0100
0001
0000
0001
1000
,  // measure 59
0100
0010
1001
0100
0010
0001
0000
0000
0000
0000
1000
0001
1000
0000
0100
0000
,  // measure 60
0100
0010
0001
0000
1000
1000
0010
0000
0100
0010
0100
0000
0000
1000
0100
0000
,  // measure 61
0100
0010
0001
0000
0100
1000
0001
0000
0010
0000
1100
0000
0010
0000
0000
0000
,  // measure 62
1001
0000
0100
0000
0110
0000
0000
0000
0001
0010
0100
0010
0100
0010
2000
0000
,  // measure 63
0000
0000
3000
0000
0010
0000
0001
0001
0010
0100
0010
0000
1000
0000
1000
0001
;
