#TITLE:Blind Justice;
#SUBTITLE:~Torn souls Hurt Faiths~-Full Version-;
#ARTIST:Zektbach;
#TITLETRANSLIT:;
#SUBTITLETRANSLIT:;
#ARTISTTRANSLIT:;
#GENRE:;
#CREDIT:;
#BANNER:Blind Justice ~Torn souls Hurt Faiths~-Full Version-.png;
#BACKGROUND:Blind Justice ~Torn souls Hurt Faiths~-Full Version--bg.png;
#LYRICSPATH:;
#CDTITLE:cdtitle.png;
#MUSIC:Blind Justice ~Torn souls Hurt Faiths~-Full Version-.mp3;
#OFFSET:0.000000;
#SAMPLESTART:78.930771;
#SAMPLELENGTH:26.182144;
#SELECTABLE:YES;
#BPMS:0.000000=137.082993
,94.000000=165.138000
,194.000000=164.998001
,614.000000=156.522003
,622.000000=137.082993
,634.000000=165.037994
;
#STOPS:
;
#BGCHANGES:;
#KEYSOUNDS:;
#ATTACKS:;

//---------------dance-single - ----------------
#NOTES:
     dance-single:
     :
     Hard:
     13:
     0.573347,0.943025,0.655419,0.372213,0.155763,992.000000,830.000000,162.000000,92.000000,0.000000,0.000000,0.573347,0.943025,0.655419,0.372213,0.155763,992.000000,830.000000,162.000000,92.000000,0.000000,0.000000:
// measure 0
0000
0000
0000
0000
,  // measure 1
0000
0000
0000
0000
,  // measure 2
0000
0000
0000
0000
,  // measure 3
0000
0000
1001
0000
,  // measure 4
0010
0100
0010
0100
0000
1000
0100
0010
,  // measure 5
0000
0000
1001
0110
0000
0000
0000
0100
,  // measure 6
0020
0000
1000
0000
0000
0030
0000
1001
,  // measure 7
0000
0010
0000
0100
1000
0000
1000
0000
,  // measure 8
0000
0001
0000
0001
0000
0010
0000
0010
0000
0000
0110
0000
1001
0000
0000
0000
,  // measure 9
0010
0100
0002
0000
,  // measure 10
0003
0000
1001
0000
0000
0000
0001
0000
0000
0010
0000
0000
,  // measure 11
0010
0100
0100
0000
1000
0000
1000
0010
,  // measure 12
0000
0110
0000
0100
0100
0000
2000
0000
,  // measure 13
0000
0000
0000
0010
0000
0000
3010
0000
0000
0000
0000
0000
1001
0000
0000
0000
0000
0000
0000
0000
0010
0000
0000
0000
,  // measure 14
0000
0000
0010
0000
0100
0000
0010
0100
,  // measure 15
0010
1001
1001
0100
,  // measure 16
0020
0000
0000
0000
0100
0130
0000
0110
,  // measure 17
0000
0000
0001
0010
0100
0000
1000
0100
,  // measure 18
0000
0010
0000
0000
0110
0000
1010
0000
,  // measure 19
0001
0100
0000
0100
0002
0000
0000
0000
,  // measure 20
0003
0000
1001
0000
0010
0000
0100
0010
,  // measure 21
0000
0010
1000
0000
1000
0000
0010
0000
,  // measure 22
0110
0000
0001
0100
0010
0000
2000
0000
,  // measure 23
0000
0000
3000
0000
1001
0000
0000
1010
,  // measure 24
0000
0110
0001
1001
,  // measure 25
0010
0100
0010
0100
0000
1001
0000
1010
,  // measure 26
0000
0110
0000
0001
1001
0010
0100
0000
,  // measure 27
0110
0000
0001
1000
1000
0010
0000
0110
,  // measure 28
0000
0010
0001
0000
1010
0100
0000
0110
,  // measure 29
0001
0001
1000
0100
0110
0000
0001
0000
,  // measure 30
1010
0000
0100
0110
0000
0001
0110
0000
,  // measure 31
0001
0000
1010
0000
1000
1000
0100
0010
,  // measure 32
0100
0001
0000
1001
0000
0110
0000
0000
,  // measure 33
1010
0000
0001
0000
0110
0000
1000
0101
,  // measure 34
0000
1000
0010
0000
1010
0100
0001
0001
,  // measure 35
0110
1000
0000
0110
0000
0010
1000
0000
,  // measure 36
0110
0001
0001
0000
1001
0000
0010
1010
,  // measure 37
0000
0001
0110
0000
0010
0110
0000
1000
,  // measure 38
0001
1001
0000
0010
1010
0001
0100
0100
,  // measure 39
0000
0110
0000
0010
1010
0001
0000
0110
,  // measure 40
0000
0101
0000
0010
1010
0000
1000
0000
,  // measure 41
1010
0000
0001
0110
0000
0011
0100
0000
,  // measure 42
1001
0000
0010
0010
0220
0330
0000
1010
,  // measure 43
0000
0100
0110
0000
0010
0001
0101
0000
,  // measure 44
2020
3030
0000
0000
0100
0000
0220
0330
0000
0000
2002
0000
3003
0000
0000
0000
,  // measure 45
2002
3003
0010
0010
0220
0330
0000
1000
,  // measure 46
0010
0010
0000
1001
0000
0100
0000
1010
,  // measure 47
0000
0110
0002
0000
,  // measure 48
0000
0000
0000
0000
0000
0000
0000
0000
1003
0000
0000
1000
0100
0010
0001
0000
,  // measure 49
0010
0100
1000
0100
0010
0001
0000
0000
0100
0000
0000
0000
0010
0000
1000
0000
,  // measure 50
1010
0000
1000
0001
1001
0000
0001
0001
,  // measure 51
0010
0100
0010
1000
1000
0100
0010
0001
,  // measure 52
0001
0100
1000
0001
0001
0000
0010
0000
,  // measure 53
0110
1100
2000
0000
,  // measure 54
0000
3000
0010
0010
0001
0000
0001
1000
,  // measure 55
0000
1000
0010
0100
0010
0000
0001
0010
,  // measure 56
0100
1000
1000
0020
0000
0000
0100
0000
,  // measure 57
0100
0000
0130
0000
1000
0010
0010
0100
,  // measure 58
1000
0001
0001
0000
1100
0000
0110
0000
,  // measure 59
0011
0000
0110
0000
2000
0010
3010
0100
,  // measure 60
0001
0010
1000
1000
0100
0010
0100
0010
,  // measure 61
0000
0001
0010
0100
2000
0000
0000
0000
,  // measure 62
0000
3000
0000
0010
0010
0000
0001
1010
,  // measure 63
0000
1000
1000
0001
0100
0010
0001
0100
,  // measure 64
1100
1000
0020
0000
,  // measure 65
0000
0030
0000
0000
0110
0000
1000
0001
,  // measure 66
1000
0001
0010
1000
0010
0100
0002
0000
,  // measure 67
2003
0000
3001
0000
1001
0000
0010
0100
,  // measure 68
0010
1000
1000
0001
1000
0000
0020
0000
,  // measure 69
0230
0000
0310
0000
1001
0000
0010
0100
,  // measure 70
0010
1000
0001
1000
0001
0001
0200
0000
,  // measure 71
0320
0000
0130
0000
1001
0000
0010
0100
,  // measure 72
0010
1000
0000
1000
0001
0100
0100
0000
,  // measure 73
2000
0000
3002
0000
1003
0000
0000
1001
,  // measure 74
0000
0000
0000
0010
0000
0000
1010
0000
0000
0100
0000
0100
,  // measure 75
0010
0000
0010
0000
1000
0000
0200
0000
0300
0000
0010
0000
,  // measure 76
0010
0000
0000
0000
0100
0000
0010
0000
0000
0000
0100
0000
0000
0000
0000
1010
0000
0000
0000
0000
0000
0110
0000
0000
,  // measure 77
0000
2002
0000
3003
1001
0000
0100
0000
,  // measure 78
1010
0110
0101
2000
,  // measure 79
3001
0001
0000
0010
0100
0010
1000
0000
,  // measure 80
1001
0011
0110
1100
,  // measure 81
2020
3030
0000
0000
1001
0000
0010
1000
,  // measure 82
0001
0001
0010
0100
1000
1000
0010
0001
,  // measure 83
0100
0100
0010
0100
0010
0010
0001
1000
,  // measure 84
0001
0001
0100
0010
1000
1000
0001
0100
,  // measure 85
0010
0010
1000
0000
0110
0001
0001
0100
,  // measure 86
1000
1000
0001
0010
0100
0100
0001
0100
,  // measure 87
0010
0010
0001
1000
0001
0001
0010
0100
,  // measure 88
1000
1000
0001
0010
0100
0100
1000
0001
,  // measure 89
0010
0010
0100
0000
1001
0000
0100
0010
,  // measure 90
0100
0100
0001
1000
0010
0010
0001
0100
,  // measure 91
1000
1000
0001
0100
0010
0010
1000
0001
,  // measure 92
0100
0100
0010
1000
0001
0001
0010
0100
,  // measure 93
1000
1000
0100
0010
1001
0000
0010
0100
,  // measure 94
1000
0000
1000
0000
0010
0000
0000
0000
0001
1000
0001
1000
0001
1000
0001
0000
,  // measure 95
0010
0100
0010
0100
0010
1000
0000
1000
0000
1000
0000
1000
0010
0100
0010
0100
,  // measure 96
0010
0100
0010
0001
1000
0001
1000
0001
1000
0001
1000
0001
0000
0100
0000
0100
,  // measure 97
0000
0100
0010
0100
0010
0100
0000
0000
1001
0000
0000
0000
1100
0000
0000
0000
,  // measure 98
0010
0100
1010
0000
0001
0001
0110
0000
,  // measure 99
0010
0001
1100
0000
0100
0000
0110
0000
,  // measure 100
1000
0001
0100
0010
1001
0100
0010
1000
,  // measure 101
0100
0010
0001
0000
1001
0100
1000
1000
,  // measure 102
0010
0100
0010
0001
0001
1000
1000
0001
,  // measure 103
0100
0010
0000
0010
1000
0000
1000
0000
,  // measure 104
0110
0000
0000
0000
0011
0000
0000
0000
1000
0001
1000
0001
1000
0001
1000
0000
,  // measure 105
0100
0000
0000
0010
0000
0000
0100
0000
0000
0010
0000
0000
0100
0000
0000
0010
0000
0000
0000
0000
0000
0000
0000
0000
1001
0000
0000
0000
0000
0000
0000
0000
0010
0000
0000
0000
0000
0000
0000
0000
0010
0000
0000
0000
0000
0000
0000
0000
,  // measure 106
1100
0110
0011
1000
,  // measure 107
0001
0100
0100
1000
0000
1000
0001
0000
,  // measure 108
0100
0010
0100
0000
1002
0000
1000
0000
,  // measure 109
2000
0000
0000
3003
0000
0100
0010
0010
,  // measure 110
0100
0000
0000
0010
0000
0000
1000
0000
0000
0000
0001
0000
0000
0000
0000
2002
0000
0000
0000
0000
0000
3003
0000
0000
,  // measure 111
0000
1000
0010
1000
0001
0100
0010
0010
,  // measure 112
0100
0000
1000
0000
1000
0000
0000
0000
0001
1000
0001
1000
0001
1000
0001
1000
,  // measure 113
0000
0010
0100
0010
0100
0010
0100
0000
1002
0000
0000
0000
0000
0000
0010
0000
,  // measure 114
0010
0100
0010
1000
,  // measure 115
2000
0000
3003
1010
,  // measure 116
0110
0000
1000
0000
0201
0010
0000
0000
,  // measure 117
0002
0000
0300
1000
2000
0000
0000
0003
,  // measure 118
0000
0000
0020
0000
0000
0000
3000
0100
,  // measure 119
0230
0000
0000
0000
0300
0000
0010
0010
,  // measure 120
0200
0020
0330
1010
,  // measure 121
0110
0000
0000
0001
0000
0000
2002
0000
0000
0000
0003
0000
,  // measure 122
3000
0000
0010
0000
0100
0000
0000
0000
0000
0000
0110
0000
0000
0000
0000
0202
0000
0000
0000
0000
0000
0000
0000
0000
,  // measure 123
0000
0303
2000
0000
0020
0000
3030
0000
,  // measure 124
0200
0000
0020
0030
0300
0002
0000
0003
,  // measure 125
2000
0000
0000
0000
3000
0001
0000
0000
,  // measure 126
1001
1100
0220
0000
,  // measure 127
0330
0000
0002
0003
1000
2000
0000
0000
,  // measure 128
3020
0100
0030
0200
0000
0302
0000
0000
,  // measure 129
2000
3003
1001
0000
,  // measure 130
0010
1010
0220
0000
,  // measure 131
0330
0000
0000
0001
0001
0100
0000
0010
,  // measure 132
0100
1000
1000
0000
0012
0000
0010
0000
,  // measure 133
1003
0100
0020
0000
0000
0030
0100
0000
,  // measure 134
0110
0000
0001
0001
0100
0000
0100
1000
,  // measure 135
0001
0000
0000
0000
0001
0000
0100
0000
0100
0000
0000
0000
1000
0001
1000
0001
,  // measure 136
1000
0001
1000
0001
0000
0000
0010
0100
0010
0000
1000
0001
1000
0000
0010
1000
,  // measure 137
0010
0000
0100
0001
0100
0000
0010
0000
0110
0000
0000
0000
0000
0000
0000
0000
,  // measure 138
1010
1010
0000
0002
1000
0000
1000
0003
,  // measure 139
0010
0100
0000
1010
1000
0100
1000
0000
,  // measure 140
0011
0001
0000
0100
1000
0000
1001
0000
,  // measure 141
0100
0000
0110
0000
0001
0100
0010
0000
,  // measure 142
1001
1001
0100
0000
0020
0100
0200
0330
,  // measure 143
0000
1000
1000
0001
0100
0000
1001
0010
,  // measure 144
0100
0000
1100
0000
0020
0000
0030
0100
,  // measure 145
0100
0010
1001
0000
0220
0330
0000
0000
,  // measure 146
1001
1001
0000
0020
0000
0000
0100
0200
,  // measure 147
0000
0330
0000
0010
0100
0001
1001
0000
,  // measure 148
1000
0010
1010
0000
0001
0100
0110
0000
,  // measure 149
0100
0010
0001
1000
2002
3003
0000
0000
,  // measure 150
0110
1010
0000
0200
0300
0000
1001
0002
,  // measure 151
0000
0000
1003
1000
0100
0010
0100
0010
,  // measure 152
0000
0000
1000
0000
1000
0000
0000
0000
0001
1000
0001
1000
0001
1000
0001
1000
,  // measure 153
0000
0010
0100
0010
0100
0010
0100
0000
1001
0000
0000
0000
1000
0000
1000
0000
,  // measure 154
0100
0010
0001
0000
0000
0000
0010
0100
0000
0010
0100
0000
0010
0000
1000
0000
,  // measure 155
1000
0000
0100
0000
0000
0100
0000
0000
0220
0000
0000
0000
0330
0000
1010
0000
,  // measure 156
0000
0110
0000
0202
0000
0000
0000
0000
,  // measure 157
0000
0303
0000
2002
0000
0000
0000
0000
,  // measure 158
0000
0000
3003
0020
0000
0000
0000
0000
,  // measure 159
0000
0000
0000
0000
,  // measure 160
0000
0000
0000
0030
;
