#VERSION:0.83;
#TITLE:Bill Clinton barbie girl;
#SUBTITLE:(AI cover);
#ARTIST:Unknown artist;
#TITLETRANSLIT:;
#SUBTITLETRANSLIT:;
#ARTISTTRANSLIT:;
#GENRE:;
#ORIGIN:;
#CREDIT:PaperBox440;
#BANNER:Bill Clinton barbie girl (AI cover).png;
#BACKGROUND:Bill Clinton barbie girl (AI cover)-bg.png;
#PREVIEWVID:;
#JACKET:Bill Clinton barbie girl (AI cover)-jacket.png;
#CDIMAGE:;
#DISCIMAGE:;
#LYRICSPATH:;
#CDTITLE:;
#MUSIC:Bill Clinton barbie girl (AI cover).ogg;
#OFFSET:0.000000;
#SAMPLESTART:26.076921;
#SAMPLELENGTH:19.153845;
#SELECTABLE:YES;
#BPMS:0.000=130.000;
#STOPS:;
#DELAYS:;
#WARPS:;
#TIMESIGNATURES:0.000=4=4;
#TICKCOUNTS:0.000=4;
#COMBOS:0.000=1;
#SPEEDS:0.000=1.000=0.000=0;
#SCROLLS:0.000=1.000;
#FAKES:;
#LABELS:0.000=Song Start;
#BGCHANGES:0.000=Bill Clinton barbie girl (AI cover).mp4=1.000=0=0=0=StretchNoLoop====,
99999=-nosongbg-=1.000=0=0=0 // don't automatically add -songbackground-
;
#KEYSOUNDS:;
#ATTACKS:
;

//---------------dance-single - ----------------
#NOTEDATA:;
#CHARTNAME:;
#STEPSTYPE:dance-single;
#DESCRIPTION:;
#CHARTSTYLE:;
#DIFFICULTY:Hard;
#METER:9;
#RADARVALUES:0.419572,0.589078,0.289055,0.325186,0.025808,569.000000,513.000000,56.000000,63.000000,0.000000,0.000000,0.000000,0.000000,0.000000,0.419572,0.589078,0.289055,0.325186,0.025808,569.000000,513.000000,56.000000,63.000000,0.000000,0.000000,0.000000,0.000000,0.000000;
#CREDIT:;
#NOTES:
// measure 0
0000
0000
0000
0000
,  // measure 1
0000
0000
0000
0000
,  // measure 2
0000
0000
0000
0000
,  // measure 3
0000
0000
0000
0000
,  // measure 4
0000
0000
0000
0000
,  // measure 5
0000
0010
0100
0010
0100
0000
0000
0000
,  // measure 6
0000
1000
1000
0100
0010
0002
0000
1000
,  // measure 7
1003
0000
0000
0100
0010
0100
0000
0110
,  // measure 8
0000
0000
0000
0001
1000
0001
0000
1001
,  // measure 9
0000
0000
0010
0000
0100
0000
1000
0000
0000
0000
1001
0000
0000
0000
0000
1000
,  // measure 10
0001
0100
0010
0100
0000
2000
0000
3001
,  // measure 11
0000
0000
0010
0100
0000
1001
0000
1100
,  // measure 12
0000
0001
0001
1000
0200
0000
0000
0310
,  // measure 13
0000
0001
0001
1000
1000
1001
0000
1100
,  // measure 14
0000
0010
0100
0010
0000
1001
0000
0000
,  // measure 15
1000
0001
1000
0001
0100
2000
0000
0001
,  // measure 16
3000
0000
0000
0010
0100
0010
1001
0000
,  // measure 17
0000
0000
0001
1000
0001
1000
0000
1100
,  // measure 18
0000
0010
0010
1000
0000
1001
0000
0000
,  // measure 19
0100
0100
0010
0100
2000
0000
0001
3001
,  // measure 20
0000
0000
0001
1000
0000
1000
0000
1001
,  // measure 21
0000
0100
0100
0010
0100
0000
1001
0000
,  // measure 22
0010
0000
0000
0010
0100
0000
0000
0100
0000
0000
0000
0000
1000
0000
0001
0000
,  // measure 23
1000
0000
0010
0010
0100
0000
0001
0001
,  // measure 24
2000
0000
3010
0100
0010
0000
0001
0001
,  // measure 25
1000
0000
0100
0010
0100
0000
0001
0001
,  // measure 26
2000
0000
3010
0000
0000
0000
0010
0100
,  // measure 27
0100
0000
0001
0001
1000
0000
0010
0100
,  // measure 28
0020
0000
1030
1000
0001
0000
0100
0100
,  // measure 29
0010
0000
0000
0000
0001
0000
0001
0000
1000
0000
0000
0000
2000
3000
0002
0003
,  // measure 30
0200
0300
0000
0000
0110
0000
0000
0000
0000
0000
0000
0000
0001
0000
1000
0000
,  // measure 31
0001
0000
0000
0000
0000
0000
0100
0100
,  // measure 32
0002
0000
1003
0000
0000
0000
1000
2000
,  // measure 33
0000
3000
0000
0000
0001
0200
0000
0310
,  // measure 34
0020
0000
0030
0000
0000
0000
2000
3002
,  // measure 35
1003
0000
1000
0010
0100
0010
0000
0000
,  // measure 36
0001
1000
0001
1000
2000
0000
0001
3001
,  // measure 37
0000
0000
0010
0100
0100
1000
1001
0000
,  // measure 38
0000
0000
0001
1000
1000
0001
0000
1001
,  // measure 39
0000
0010
0100
0100
0001
2000
3000
0000
,  // measure 40
0001
0001
2000
3000
1000
0002
0000
1003
,  // measure 41
0000
0000
0100
0010
0100
0011
0000
1100
,  // measure 42
0000
0000
0000
0000
1000
0000
1000
0001
0100
0000
0010
0000
0000
0000
1001
0000
,  // measure 43
0000
0000
0100
0000
0100
0000
0100
0010
0100
0000
0001
0000
1000
0000
1001
0000
,  // measure 44
0000
1100
0000
0110
0000
0011
0000
1000
,  // measure 45
0000
1000
1000
1000
0010
0100
0010
0100
,  // measure 46
0000
0000
0000
0000
0002
0000
2000
0000
3003
0000
0000
0000
0200
0000
0020
0330
,  // measure 47
0000
0001
0001
0001
0001
1000
0001
1000
,  // measure 48
0000
0110
0000
1001
0000
0110
0000
1000
,  // measure 49
0000
0001
0001
0001
1000
0100
0100
0100
,  // measure 50
0001
0000
0000
0000
0020
0000
0200
0000
0330
0000
0000
0000
2000
0000
0002
3003
,  // measure 51
0000
0000
0100
0000
0000
0100
0010
0000
0000
0010
0000
0000
1000
0000
1000
0000
,  // measure 52
0001
0000
0100
0100
0010
0000
1000
0001
,  // measure 53
2000
0000
3001
0002
0003
0000
0100
0100
,  // measure 54
0010
0000
0000
0000
0001
0000
0001
0000
1000
0000
0000
0010
0100
0000
0020
0000
,  // measure 55
0000
0000
1030
1000
0100
0000
0001
0001
,  // measure 56
2000
3000
0010
0100
0110
0000
0001
0001
,  // measure 57
2000
3000
0010
0110
0000
0000
0001
0001
,  // measure 58
1000
0000
0100
0010
0200
0300
0001
0001
,  // measure 59
2000
0000
3010
0000
0000
0000
0100
0010
,  // measure 60
0100
0000
0000
0000
0000
0000
0001
0001
,  // measure 61
2000
0000
3010
0000
0000
0000
0110
0110
,  // measure 62
2000
3000
0000
0001
0002
0000
1003
0200
,  // measure 63
0000
0000
0310
0000
0000
0000
0001
0001
,  // measure 64
1000
0000
0000
0000
0000
0000
0100
0010
,  // measure 65
0200
0300
0010
0000
0000
1000
1000
0001
,  // measure 66
1001
0000
0000
0000
0200
0020
0330
2000
,  // measure 67
0000
0000
3001
0000
0000
1100
1100
0110
,  // measure 68
0110
0000
0001
0000
0001
0000
1000
0000
1000
0100
0010
0001
0010
0000
0100
0000
,  // measure 69
0100
0001
0000
1001
0000
1000
0000
1001
,  // measure 70
0000
0100
0100
0100
0010
1000
1001
1000
,  // measure 71
0000
0000
0200
0310
0000
0002
0000
1003
,  // measure 72
0000
0010
0010
0010
0010
0100
0010
0000
,  // measure 73
0000
1100
0000
0110
0000
0011
0000
0001
,  // measure 74
0000
0100
0100
0010
0010
1010
1000
0001
,  // measure 75
0000
0000
2000
3001
0000
0020
0000
0130
,  // measure 76
0100
0001
1000
1000
0001
1000
0000
0000
,  // measure 77
0000
0100
0010
0100
0002
0000
0000
1003
,  // measure 78
0000
0000
1000
1000
0100
0000
0110
0000
,  // measure 79
0000
0000
0001
0001
1000
0000
1001
1000
,  // measure 80
0000
0100
0100
0010
0200
0300
0000
0001
,  // measure 81
0001
1000
1000
0100
0002
0000
0000
1003
,  // measure 82
0000
0000
0100
0010
0100
1001
0000
1000
,  // measure 83
0000
0010
0010
1000
0100
0001
0000
1001
,  // measure 84
0000
0001
1000
1000
0010
0110
0000
0000
,  // measure 85
0001
0001
1000
0001
2000
0000
0002
0000
,  // measure 86
3003
0000
0100
0010
0100
1000
0000
1001
,  // measure 87
0000
0000
0001
0001
0000
1000
0000
1001
,  // measure 88
0000
0100
0100
0010
0010
1001
0000
0000
,  // measure 89
1000
0001
0001
1000
0020
0000
0000
0200
,  // measure 90
0330
0000
1000
0001
1000
0000
1001
0000
,  // measure 91
0000
0100
0100
0010
1000
0001
0000
1001
,  // measure 92
0000
0100
0100
0100
0100
0010
0001
0001
,  // measure 93
0001
1000
0000
1001
0000
0001
0000
1000
,  // measure 94
0000
0100
0100
0100
0100
0010
0010
1001
,  // measure 95
0000
0000
0002
0000
1003
0000
0200
0320
,  // measure 96
0030
1000
1000
1000
1000
0001
0100
0100
,  // measure 97
0100
0010
0000
0110
0000
0100
0000
1001
,  // measure 98
0000
0100
0100
0100
0010
0001
0001
0001
,  // measure 99
1000
0000
2000
3001
0000
0000
0020
0030
,  // measure 100
0200
0000
0000
0300
0001
0001
1000
1000
,  // measure 101
0000
0010
0100
0001
0002
0003
0000
1000
,  // measure 102
1000
0000
0100
0100
0000
0010
0100
0000
,  // measure 103
0000
0000
0002
0000
0003
1000
1000
0000
;
