#TITLE:Beethoven virus DDR LEVEL ASIAN;
#SUBTITLE:;
#ARTIST:Unknown artist;
#TITLETRANSLIT:;
#SUBTITLETRANSLIT:;
#ARTISTTRANSLIT:;
#GENRE:;
#CREDIT:PaperBox440;
#BANNER:Beethoven virus DDR LEVEL ASIAN.png;
#BACKGROUND:Beethoven virus DDR LEVEL ASIAN-bg.png;
#LYRICSPATH:;
#CDTITLE:;
#MUSIC:Beethoven virus DDR LEVEL ASIAN.ogg;
#OFFSET:0.000000;
#SAMPLESTART:0.000000;
#SAMPLELENGTH:27.777777;
#SELECTABLE:YES;
#BPMS:0.000000=162.000000
;
#STOPS:380.000000=0.200000,
381.000000=0.200000,
381.500000=0.200000,
382.000000=0.200000,
382.500000=0.100000
;
#BGCHANGES:0.000=Beethoven virus DDR LEVEL ASIAN.mp4=1.000=0=0=0=StretchNoLoop====,
99999=-nosongbg-=1.000=0=0=0 // don't automatically add -songbackground-
;
#KEYSOUNDS:;
#ATTACKS:;

//---------------dance-single - ----------------
#NOTES:
     dance-single:
     :
     Hard:
     18:
     0.687861,0.770970,0.494613,0.530368,0.774695,808.000000,725.000000,83.000000,89.000000,0.000000,0.000000,0.687861,0.770970,0.494613,0.530368,0.774695,808.000000,725.000000,83.000000,89.000000,0.000000,0.000000:
// measure 0
0010
0100
0010
2000
0000
3001
0002
0000
,  // measure 1
0003
0000
0100
0000
0200
0000
0000
0000
0300
0000
0000
0000
0000
0000
0010
0100
,  // measure 2
1000
0000
0000
0000
1100
0000
0000
0110
0000
0000
0011
0000
0000
1001
0000
0000
,  // measure 3
2002
0000
0000
3003
0000
1000
1000
0002
,  // measure 4
0000
0003
1000
1000
0001
0010
0200
0000
,  // measure 5
0000
0300
1000
0001
0001
2000
0000
3000
,  // measure 6
0010
0002
0000
1003
0200
0000
0300
0000
,  // measure 7
0020
0100
0130
0000
0000
1002
1003
0000
,  // measure 8
0110
0000
0220
0000
0000
0000
0330
0000
0000
0000
0000
0000
1000
0010
0001
0000
,  // measure 9
1100
0110
0011
1001
,  // measure 10
2002
0000
3003
0000
0010
0100
0020
0000
,  // measure 11
0030
2000
3001
0001
0100
0020
0000
0030
,  // measure 12
1000
0001
1000
2000
0000
3000
0001
0002
,  // measure 13
0000
0003
0100
0200
0000
0300
0000
1000
,  // measure 14
1000
0000
0001
0000
0010
0100
0010
0000
1000
0000
0100
1000
0001
0000
0000
0001
,  // measure 15
0100
0000
0000
0100
0010
0000
0100
0000
0010
0000
1000
0000
0000
1000
0000
0000
,  // measure 16
1000
0001
0000
0000
0001
0000
0100
0000
0010
0100
0000
0010
1000
0000
1000
0000
,  // measure 17
0001
0000
0001
0000
0100
0010
0100
0010
0000
1000
0000
0000
1000
0000
0000
1000
,  // measure 18
0100
0000
0000
0100
0010
0000
0000
0010
0000
1000
0000
0000
1000
0000
0001
0010
,  // measure 19
0001
0000
1000
0100
1000
0000
0010
0000
0000
0010
0100
0000
0000
0100
0001
0000
,  // measure 20
0001
1000
0000
1000
0000
0001
0010
0001
0000
0100
0000
0100
0010
0000
0010
0000
,  // measure 21
1000
0000
2000
0000
0000
3000
0000
0001
0000
0001
0010
0000
0100
0010
0100
0000
,  // measure 22
0001
0000
1000
0000
1000
0000
0001
0010
0001
1000
0000
1000
0010
0000
0200
0000
,  // measure 23
0000
0000
0000
0300
0000
1000
0000
1000
0001
0010
0001
1000
0000
0000
1000
0001
,  // measure 24
0000
0000
0001
0000
0100
0010
0100
0000
0020
0000
0000
0000
0030
0000
0000
0010
,  // measure 25
0100
0010
0100
0000
1000
0000
1001
0000
0100
0000
0110
0000
0000
0010
0000
0011
,  // measure 26
0000
1000
0000
1100
0000
0000
0002
0000
0000
0003
0000
0010
1000
0000
0100
0010
,  // measure 27
0100
1000
0001
0000
1000
0001
0100
0000
0010
1000
0100
1000
0001
0010
0001
0000
,  // measure 28
1000
0000
0010
0000
0010
0000
0010
0000
0000
0010
0000
0010
0000
0010
0000
0000
,  // measure 29
0010
0010
0010
0000
0010
0000
0010
0000
0010
0000
0010
0000
0100
0000
0100
0000
,  // measure 30
0100
0000
0000
0100
0000
0100
0000
0100
0000
0000
0100
0000
0100
0000
0100
0100
,  // measure 31
0000
0000
1000
0001
0000
1000
0000
0000
2002
0000
3003
0000
0000
0020
0200
0030
,  // measure 32
0000
0300
0000
0000
2000
0002
0000
0000
3003
0000
0000
0000
0000
0000
0000
0001
,  // measure 33
0000
0001
0000
0000
1100
0000
0000
0110
0000
0000
0011
0000
0000
1001
0000
0000
,  // measure 34
0000
2200
0000
0000
0000
0000
0000
0000
3300
0000
0000
0000
0010
0200
0000
0000
,  // measure 35
0000
0000
0300
0000
0000
0001
0000
0000
1000
0001
2000
0000
0000
0000
0000
0000
,  // measure 36
3000
0000
0000
0000
0010
0000
0000
0000
0100
0020
0000
0000
0030
0000
0000
0000
,  // measure 37
0001
2000
0000
0000
3000
0000
0100
0020
0000
0000
0000
0000
0000
0000
0000
0000
,  // measure 38
0030
0001
0001
0000
1001
0000
0110
0000
,  // measure 39
1001
0000
0000
0100
0000
0000
0100
0010
0000
0000
0010
0001
0000
0000
0001
0000
,  // measure 40
0000
0000
0110
0000
0000
0000
1100
0000
0000
0000
1001
0000
0000
0100
0000
0100
,  // measure 41
0010
0000
0000
0010
0001
0000
0000
0001
1000
0000
0000
1000
0000
0000
0110
0000
,  // measure 42
0000
1001
0000
0000
0000
1001
0000
0110
,  // measure 43
0000
0001
0000
1000
0001
1000
0000
0000
1001
0000
0000
0000
0110
0000
0000
1000
,  // measure 44
0100
1000
0000
0000
1001
0000
0000
0100
0010
0100
0000
0000
0000
0000
0001
0000
,  // measure 45
0010
0100
0000
0010
0000
2000
0000
0000
3000
0000
0100
0020
0000
0030
0000
0001
,  // measure 46
2000
0000
3000
0000
0000
0110
0000
0000
0000
0100
0010
0100
0000
0000
0000
0010
,  // measure 47
0100
0000
1000
0000
0001
0010
0000
2000
0000
0000
0000
0000
0001
0000
3001
0000
,  // measure 48
0000
0000
0000
0000
0000
0000
0000
0000
0001
2000
0000
0000
3000
0000
0000
0010
,  // measure 49
0100
0010
1000
0000
0000
1000
0000
0000
0220
0330
0000
0000
1001
0000
0000
0000
,  // measure 50
0000
0000
0000
0000
0100
0010
0100
0000
0000
1000
0000
0000
0010
0000
0110
0000
,  // measure 51
0000
0000
1000
0000
1001
0000
0000
0000
0001
0010
0100
0010
0100
1000
0000
0000
,  // measure 52
0000
0000
0000
0000
1000
0100
0000
1000
0100
0000
1000
0100
0000
1000
0100
0010
,  // measure 53
0000
0100
0010
0000
0100
0010
0000
0100
0010
0000
0100
0010
0001
0000
0010
0001
,  // measure 54
0000
0010
0001
0000
0010
0001
0000
0010
0000
0001
1000
0000
0001
1000
0000
0001
,  // measure 55
1000
0000
0001
1000
0000
0001
1000
0100
0010
0000
0100
0010
0000
0100
0010
0000
,  // measure 56
0100
0010
0000
0100
0010
0000
0001
0000
0010
0100
0000
0010
0100
0000
1000
0000
,  // measure 57
0010
1000
0000
0010
1000
0000
0100
0000
1000
0000
0100
0010
0000
0001
0000
0010
,  // measure 58
0000
0001
1000
0100
0000
1000
0000
0000
0110
0000
0010
0000
1000
0000
0001
0000
,  // measure 59
0000
0000
1000
0100
0000
0001
0000
0000
1001
0000
0000
0000
1000
0000
0010
0000
,  // measure 60
0010
0100
0000
0000
0110
0000
1000
0000
0000
0001
0000
1000
0000
0000
1000
0000
,  // measure 61
0010
0001
0000
0000
1001
0000
0100
0000
0010
1000
0000
0000
0100
0000
0010
0001
,  // measure 62
0000
0000
0110
0000
0000
0001
1000
0000
0000
1000
0010
0000
0000
0010
0000
0000
,  // measure 63
0110
0000
0000
0100
0000
1000
0001
0000
0000
0001
0000
0000
1001
0000
0000
1000
,  // measure 64
0000
0010
1000
0000
0100
0000
0000
0010
0000
0000
0110
0000
0001
0000
1000
0001
,  // measure 65
0000
1000
0000
0000
0010
0000
0100
1000
0000
0000
1010
0000
0000
0000
0000
0000
,  // measure 66
1100
0010
0100
0010
0010
1000
0001
0100
,  // measure 67
1001
1000
1000
0100
0100
0010
0010
0001
,  // measure 68
0110
1000
1000
0001
0001
1000
1000
0000
,  // measure 69
0110
1000
1000
0000
0110
0100
0100
0000
,  // measure 70
0001
0001
1000
1000
1001
0010
0100
0001
,  // measure 71
0010
0100
1100
1000
0001
0100
0010
0010
,  // measure 72
0100
0000
0001
0000
1000
0000
1000
0000
2002
0000
0000
3003
0000
0000
0001
0000
,  // measure 73
0001
0000
1001
0000
1000
0000
0000
0000
1000
0000
2002
0000
0000
3003
0000
0000
,  // measure 74
0200
0000
0300
0020
0000
0030
0002
0000
0000
0000
1003
0000
0000
1000
0000
0000
,  // measure 75
1000
0000
0000
0100
0000
0010
0000
0100
0000
0000
0010
0000
0000
0010
0000
0000
,  // measure 76
0010
0000
0000
1000
0001
0000
1000
0001
0000
0000
0010
0000
0100
0000
1000
0000
,  // measure 77
0100
0000
1000
0000
0010
0000
0001
0000
0010
0000
0001
0000
0000
1000
0000
0000
,  // measure 78
1001
0000
0000
0100
0000
0000
0010
0100
0010
0000
1000
0000
0000
1000
0001
0000
,  // measure 79
0000
0001
0000
0100
0000
0010
0000
0100
0000
0000
1001
0000
0001
1000
0000
0000
,  // measure 80
1001
0000
1000
0000
0000
1000
0000
0000
0010
0100
0000
0010
0100
0001
0000
0000
,  // measure 81
0001
1000
0000
0100
1000
0000
0000
0000
2000
0002
0000
3003
0000
0000
0100
0000
,  // measure 82
0000
0100
0010
0000
0000
0010
0001
0000
0000
0001
1000
0100
1000
0010
0000
0010
,  // measure 83
0000
0100
0000
0000
0200
0020
0000
0000
0330
0000
0000
0001
1000
0001
0000
0010
,  // measure 84
0000
0000
0010
0100
0000
0000
0100
1000
0000
0000
1000
0001
0000
0000
0001
0000
,  // measure 85
2000
0002
0000
0000
3003
0000
0000
0000
0001
1000
0001
1000
0001
0000
0010
0000
,  // measure 86
0000
0010
0100
0000
0000
0100
0000
1000
0000
0000
1000
0000
0002
0000
0000
0000
,  // measure 87
0103
0000
0000
0100
0000
0000
0100
0000
0000
0010
0000
0001
0000
0001
0010
0100
,  // measure 88
1000
0000
1000
0000
1000
0000
0000
0100
0000
0000
0100
0000
0000
0100
0000
0000
,  // measure 89
0100
0000
0010
0000
0110
0000
0000
0000
0001
0000
0001
0000
0000
0001
0000
0000
,  // measure 90
0001
0000
0000
0000
1001
0000
0000
1000
0100
0000
0010
0100
0000
0000
0110
0000
,  // measure 91
0110
0000
0000
0000
0001
0100
0000
0000
0100
1000
0000
0000
1000
0000
0001
0000
,  // measure 92
0000
1000
0001
0000
1000
0001
0000
1000
0001
0000
0000
0000
0110
0000
0000
0100
,  // measure 93
0000
1000
0000
0100
1000
0000
0100
1000
0000
0000
1001
0000
0000
0000
0100
1000
,  // measure 94
0001
0010
0000
0001
0010
0100
0000
0000
0110
0000
0000
0000
1000
0000
0001
0000
,  // measure 95
0110
0000
1001
1001
1001
0000
0100
0010
,  // measure 96
0000
0001
1000
0001
0100
0110
0000
0110
,  // measure 97
0000
1000
0001
1000
0000
0000
1100
0000
0000
0110
0000
0000
1001
0000
0000
0110
,  // measure 98
0000
0000
0000
2000
0000
0000
0000
0000
0000
0000
3000
0000
0000
0000
0010
0200
,  // measure 99
0000
0000
0000
0000
0000
0300
0000
0000
0002
0000
0000
0003
0000
1000
0200
0000
,  // measure 100
0000
0000
0300
0000
0000
0000
0002
0000
0000
0003
0000
0000
1000
0200
0000
0000
,  // measure 101
0300
0000
0010
0000
0002
0000
0000
0003
0000
1000
0200
0000
0000
0000
0300
0000
,  // measure 102
0000
0000
0001
0000
0001
0000
0020
0000
0000
0000
0030
0000
0000
0000
1000
0200
,  // measure 103
0000
0000
0300
0000
0000
0001
0020
0000
0000
0030
0100
0000
0000
0000
0110
0000
,  // measure 104
0000
0001
1000
0001
0000
0000
1000
0000
0000
1001
0000
0000
1000
0000
0000
1001
,  // measure 105
0000
0000
0200
0020
0000
0000
0000
0330
0000
0000
0001
0000
0000
0001
0000
1000
,  // measure 106
0002
0000
0000
0003
0000
0000
2000
0000
0000
3000
0010
0100
0020
0000
0000
0000
,  // measure 107
0030
0000
0000
0002
0000
0000
0003
0000
0000
2000
0000
0000
3000
0000
0000
0200
,  // measure 108
0000
0020
0000
0000
0330
0000
0000
0002
0000
0000
2000
0000
0000
0000
0000
0000
,  // measure 109
0000
3003
0000
0000
0100
0010
0200
0000
0000
0000
0000
0300
0000
0002
0000
0000
,  // measure 110
1003
0000
2000
0000
0000
0000
0000
0000
0000
0000
3000
0000
0020
0000
0000
0030
,  // measure 111
0000
0100
0000
0020
0000
0000
0030
0000
0002
0000
0000
0003
2000
0000
0000
0000
,  // measure 112
0000
0000
0001
0010
3100
0000
0000
0000
;
