#TITLE:Back In Your Arms;
#SUBTITLE:(Full Version);
#ARTIST:jun feat. DJ Silver vs Milo ft. Becca Hossany;
#TITLETRANSLIT:;
#SUBTITLETRANSLIT:;
#ARTISTTRANSLIT:;
#GENRE:;
#CREDIT:PaperBox440;
#BANNER:Back In Your Arms (Full Version).png;
#BACKGROUND:Back In Your Arms (Full Version)-bg.png;
#LYRICSPATH:;
#CDTITLE:;
#MUSIC:Back In Your Arms (Full Version).mp3;
#OFFSET:0.000000;
#SAMPLESTART:15.413327;
#SAMPLELENGTH:14.053327;
#SELECTABLE:YES;
#BPMS:0.000000=132.352997
;
#STOPS:
;
#BGCHANGES:;
#KEYSOUNDS:;
#ATTACKS:;

//---------------dance-single - ----------------
#NOTES:
     dance-single:
     :
     Hard:
     11:
     0.430114,0.507079,0.379740,0.085248,0.001937,777.000000,679.000000,98.000000,22.000000,0.000000,0.000000,0.430114,0.507079,0.379740,0.085248,0.001937,777.000000,679.000000,98.000000,22.000000,0.000000,0.000000:
// measure 0
0000
0000
0000
0000
,  // measure 1
0000
0000
0000
0000
,  // measure 2
0000
0000
0000
0000
,  // measure 3
0000
0000
0000
0000
,  // measure 4
0000
0000
0000
0000
0001
1000
0001
0000
,  // measure 5
0000
0010
0100
0010
1000
1000
0100
0000
,  // measure 6
0110
0000
1010
0000
0001
0001
1000
0000
,  // measure 7
0000
0100
0010
0100
0001
0001
1000
0000
,  // measure 8
1000
0110
0000
0000
0001
0000
0001
0000
,  // measure 9
0010
0010
1000
0100
,  // measure 10
0100
0010
0010
1000
,  // measure 11
0001
0100
0001
0000
0010
0000
0010
0000
,  // measure 12
1000
0000
0001
0000
0001
0000
1000
0100
,  // measure 13
1000
0010
0010
0001
,  // measure 14
1001
0000
1001
0000
0010
0020
0000
0000
,  // measure 15
0000
0000
1000
1030
,  // measure 16
0000
1000
1000
1000
0010
0000
1010
0000
,  // measure 17
1000
0011
0100
0110
,  // measure 18
0001
1100
0010
0110
,  // measure 19
0001
1001
0010
1010
,  // measure 20
1000
1100
0100
0110
,  // measure 21
0001
1001
0100
0110
,  // measure 22
0010
1010
1000
1001
,  // measure 23
0001
0110
0100
0001
,  // measure 24
1000
0010
0100
0000
0010
0000
0000
0000
0110
0000
0000
0000
0000
0000
0000
0000
,  // measure 25
0001
0000
1000
1000
0000
0010
0100
0010
,  // measure 26
0000
0001
1000
0100
0000
0100
0010
0000
,  // measure 27
1000
0001
1000
0010
0000
0010
0100
0000
,  // measure 28
0010
0100
0001
0000
1001
0000
0000
0000
,  // measure 29
0110
0000
0010
0100
,  // measure 30
0100
0010
0000
0010
0001
1000
0001
0000
,  // measure 31
0010
0100
0000
0100
1000
0000
1000
0002
,  // measure 32
0003
0002
0003
0000
1001
0000
0000
0000
,  // measure 33
0110
0000
0000
0000
1000
0000
0001
1000
,  // measure 34
0001
0010
0010
0100
0010
1000
0001
0000
,  // measure 35
0010
0100
0000
0100
0001
0000
0011
0000
,  // measure 36
1000
0010
0001
0000
1001
0000
0000
0000
,  // measure 37
0110
0000
0000
0000
0010
0000
0100
1000
,  // measure 38
0000
1000
0001
0000
0001
0000
0010
0100
,  // measure 39
0000
0100
0000
1000
0100
1000
0010
0000
,  // measure 40
0010
0001
0001
0000
1100
0000
0200
0000
,  // measure 41
0000
0000
0000
0000
,  // measure 42
0000
0000
0000
0000
0300
0010
0001
0000
,  // measure 43
0010
0020
0000
0000
,  // measure 44
0000
0000
0030
2000
,  // measure 45
0000
0000
0000
0000
,  // measure 46
0001
0000
3001
0000
0000
0001
0010
0001
,  // measure 47
0010
0010
1000
0100
0100
0010
1000
0010
,  // measure 48
0100
0100
1001
0000
0010
0001
1000
0001
,  // measure 49
0010
0000
0100
0100
0010
1000
0000
1001
,  // measure 50
0000
0000
0110
0000
0000
1000
1000
0010
,  // measure 51
0001
0000
0100
0100
0010
1000
0000
1000
,  // measure 52
0010
0001
0000
1001
0000
0100
0010
0010
,  // measure 53
1001
0000
0100
0010
0100
0000
1000
0000
,  // measure 54
1000
0100
0000
0001
0000
0001
0010
0000
,  // measure 55
0110
0000
0000
1000
1000
0001
0010
0001
,  // measure 56
1000
0000
1000
2002
3003
0000
0010
0000
,  // measure 57
1010
0000
0100
0001
0100
0000
1001
0000
,  // measure 58
0100
0100
0010
0000
0010
0001
1000
0100
,  // measure 59
1000
0000
0000
0001
0001
0100
0010
0010
,  // measure 60
1000
0100
1000
0000
1001
0010
0010
0100
,  // measure 61
0110
0000
0000
0001
0001
1000
0100
1000
,  // measure 62
0000
0110
0010
0000
0110
0000
1010
0000
,  // measure 63
1001
0000
0010
0000
0010
0001
1000
0100
,  // measure 64
0000
0010
0001
0000
0011
0000
0000
0000
,  // measure 65
1001
0000
0000
0000
0100
0000
0001
0001
,  // measure 66
0100
0010
1000
0001
0010
0001
1000
0100
,  // measure 67
0100
0000
0001
0100
0001
1000
0000
0001
,  // measure 68
0010
0100
0100
1000
0000
1001
0000
0000
,  // measure 69
0011
0000
0000
0000
0001
0000
0000
0010
,  // measure 70
0010
1000
0100
0010
0100
0000
0001
0000
,  // measure 71
0001
0010
0000
0100
1000
0000
1001
0000
,  // measure 72
0100
0000
0000
0000
2200
3300
0000
0000
0110
0000
0000
0000
0000
0000
0000
0000
,  // measure 73
0010
0000
0000
0000
1000
1000
0000
0010
,  // measure 74
0100
0010
0001
0100
1010
0000
1100
0000
,  // measure 75
0000
0001
0000
0001
0100
0000
0100
0010
,  // measure 76
0010
1000
0100
1000
0000
1001
0000
0000
,  // measure 77
0010
0000
0000
0100
0100
0000
0000
0010
,  // measure 78
1000
0100
1000
0001
0001
0010
0100
0000
,  // measure 79
0001
0010
0000
0010
0100
0100
1000
0000
,  // measure 80
1001
0000
0010
0000
0010
1001
0000
0001
,  // measure 81
0001
0010
0100
1000
0000
1001
0000
1001
,  // measure 82
0110
0000
0110
0000
0001
0000
1000
1000
,  // measure 83
0001
0010
0001
0100
0000
1010
0000
1010
,  // measure 84
0101
0000
0101
0010
0010
0000
1000
0010
,  // measure 85
0001
0010
0001
0001
0000
1100
0000
1100
,  // measure 86
0011
0000
0011
0000
0100
0100
1000
0010
,  // measure 87
0001
0010
0100
0100
0001
0000
0010
0010
,  // measure 88
1100
0000
1100
1100
0100
0000
1001
0000
,  // measure 89
0100
0000
1010
0000
0100
0001
0100
0010
,  // measure 90
0001
0001
0100
0000
0100
0010
1000
1000
,  // measure 91
0100
0010
0010
0001
0100
1000
0000
1000
,  // measure 92
0100
0100
0001
0010
0001
0100
0000
0100
,  // measure 93
1000
1000
0010
0001
0001
0110
0000
0110
,  // measure 94
1100
0000
1100
0001
0010
0001
0100
0000
,  // measure 95
0100
0010
0010
0000
1000
0100
1000
0100
,  // measure 96
0010
0010
0001
1001
0000
1000
1000
1000
,  // measure 97
0000
0000
0000
0000
0000
0000
0010
0100
,  // measure 98
0010
0000
0100
0000
1000
0001
1000
0010
,  // measure 99
0100
0010
1100
0000
0011
1000
0001
1000
,  // measure 100
1001
0000
0000
0100
0010
0100
0001
0000
,  // measure 101
0001
0010
0100
0100
1001
0000
0000
1000
,  // measure 102
0001
1000
0010
0000
0010
0100
1000
1000
,  // measure 103
0001
0010
0001
0100
0000
0100
0010
1000
,  // measure 104
0100
1001
0000
0000
0100
0010
0001
1000
,  // measure 105
0001
0010
0100
0100
1001
0000
0000
0010
,  // measure 106
0010
0100
1000
0000
1000
0001
1000
0100
,  // measure 107
0100
0010
0000
0010
0100
0001
1000
1000
,  // measure 108
0001
0010
0000
0100
0100
0001
0010
0100
,  // measure 109
0000
0100
0010
0001
1001
0000
0010
0000
,  // measure 110
0010
0000
1100
0000
0001
0000
0010
0100
,  // measure 111
0000
0100
0001
0010
0001
1000
1000
0010
,  // measure 112
0001
1001
0000
0000
0010
0100
0100
0010
,  // measure 113
1000
0001
0100
1000
2002
3003
0000
1000
,  // measure 114
0001
0010
1001
0000
0100
0100
1000
0001
,  // measure 115
1100
0000
0011
0100
1100
0000
0010
0010
,  // measure 116
0100
0001
0110
0000
0000
1000
0010
0100
,  // measure 117
0010
0001
0001
1000
1000
0002
0003
1000
,  // measure 118
0001
1000
0000
0000
0100
0100
0001
1000
,  // measure 119
0100
1000
0001
0001
0100
0100
0000
0010
,  // measure 120
1000
0100
1000
0000
0010
0001
0010
0100
,  // measure 121
0000
0100
1000
1000
0000
2002
3003
0000
,  // measure 122
0010
0100
0010
0000
0000
1000
1000
0001
,  // measure 123
0010
0001
0100
0000
0100
0000
1001
0000
,  // measure 124
0001
1000
0001
0000
0100
0000
0100
0010
,  // measure 125
0010
1000
0100
1000
0000
2002
3003
0100
,  // measure 126
0100
0010
0000
0000
0100
0001
0001
0000
,  // measure 127
0010
0100
0010
1000
1000
0000
1001
0000
,  // measure 128
0010
0100
0010
1000
1000
0001
0010
0001
,  // measure 129
0001
1000
0100
1000
0000
2002
3003
0000
,  // measure 130
0001
0001
0010
0100
,  // measure 131
0001
1000
0100
0100
,  // measure 132
0010
0001
0100
1000
,  // measure 133
1000
0010
0010
0000
,  // measure 134
2000
0000
0000
0000
,  // measure 135
0000
0000
0000
0002
,  // measure 136
0000
0003
0020
0000
,  // measure 137
0030
0000
3000
1001
;
