#TITLE:Baby's Tears;
#SUBTITLE:(SUKAIGAARUZU OOPUNINGUTEEMA)-Full Version-;
#ARTIST:小坂りゆ;
#TITLETRANSLIT:;
#SUBTITLETRANSLIT:;
#ARTISTTRANSLIT:RIYU KOSAKA;
#GENRE:;
#CREDIT:;
#BANNER:Baby's Tears (SUKAIGAARUZU OOPUNINGUTEEMA)-Full Version-.png;
#BACKGROUND:Baby's Tears (SUKAIGAARUZU OOPUNINGUTEEMA)-Full Version--bg.png;
#LYRICSPATH:;
#CDTITLE:cdtitle.png;
#MUSIC:Baby's Tears (SUKAIGAARUZU OOPUNINGUTEEMA)-Full Version-.mp3;
#OFFSET:0.000000;
#SAMPLESTART:1.764706;
#SAMPLELENGTH:20.823530;
#SELECTABLE:YES;
#BPMS:0.000000=170.000000
;
#STOPS:
;
#BGCHANGES:;
#KEYSOUNDS:;
#ATTACKS:;

//---------------dance-single - ----------------
#NOTES:
     dance-single:
     :
     Hard:
     12:
     0.572447,0.727233,0.553268,0.402747,0.073227,985.000000,849.000000,136.000000,99.000000,0.000000,0.000000,0.572447,0.727233,0.553268,0.402747,0.073227,985.000000,849.000000,136.000000,99.000000,0.000000,0.000000:
// measure 0
0000
0000
0000
0000
,  // measure 1
0000
0000
0000
0000
,  // measure 2
0020
0000
0000
2000
,  // measure 3
0030
0000
0000
0000
,  // measure 4
0002
3000
0000
0000
,  // measure 5
0200
0000
0000
0000
,  // measure 6
0000
0300
2000
3003
,  // measure 7
1001
0001
0010
0100
,  // measure 8
0020
0000
0000
0030
0000
0000
1000
0001
,  // measure 9
2000
0000
3000
0020
0000
0030
0200
0000
,  // measure 10
0320
0000
0000
0030
2000
0000
3001
0000
,  // measure 11
0011
0010
0010
1010
,  // measure 12
2000
0000
0000
3000
0002
0000
0000
0003
,  // measure 13
0020
0000
0000
0030
0000
0100
2000
0000
,  // measure 14
0001
0000
3002
0000
2000
3003
0000
0000
,  // measure 15
1001
0000
0000
0000
1000
0000
1000
0010
,  // measure 16
0000
0010
0100
0000
0010
1000
0100
0000
,  // measure 17
0001
0001
0100
0010
,  // measure 18
0020
0000
0030
1000
1000
0001
0100
0000
,  // measure 19
0010
0000
0100
0000
0010
0010
0000
0100
,  // measure 20
0001
0001
1000
0100
,  // measure 21
1000
0000
0100
0001
0000
0001
0010
0000
,  // measure 22
0010
0100
0000
0110
0000
0000
1000
0000
,  // measure 23
1001
0000
0001
0010
0000
0010
0001
1000
,  // measure 24
0100
0000
0100
0010
0001
0000
0001
1000
,  // measure 25
0000
1000
0010
0100
0000
0100
0010
0100
,  // measure 26
0001
0000
0001
0010
0001
1000
0100
0000
,  // measure 27
0100
0010
1000
0000
1000
0100
0001
0010
,  // measure 28
0000
0010
0001
1000
0100
0000
0010
0100
,  // measure 29
0000
0010
1000
0000
1000
0000
0001
0001
,  // measure 30
0100
0100
2000
0000
,  // measure 31
3001
0000
0001
0001
0010
0100
0010
1000
,  // measure 32
0000
1000
0100
0010
0000
0010
0100
0001
,  // measure 33
0000
0001
1000
0100
0000
1000
0010
0010
,  // measure 34
0200
0300
0000
0110
0001
0000
0001
0000
,  // measure 35
1001
0000
0010
0001
0100
1000
0000
1000
,  // measure 36
0100
0010
0001
0000
0001
0000
0100
0010
,  // measure 37
0100
1000
0000
1000
0001
0010
0001
0000
,  // measure 38
0001
0000
0100
0000
0010
0000
0100
0000
1000
0000
0000
0000
1000
0001
0010
0100
,  // measure 39
0000
0010
0100
0000
0010
1000
0000
0100
0020
0000
0000
0000
0130
0000
0000
0000
,  // measure 40
1000
0100
0000
0100
0010
0000
0010
1000
,  // measure 41
1000
0001
0010
0001
0010
0000
0100
0000
,  // measure 42
0100
0010
1000
0011
0000
0110
0000
2000
,  // measure 43
0000
3001
0010
0100
0000
0100
0000
2000
,  // measure 44
0000
0000
0002
3000
0000
0020
0003
0000
,  // measure 45
0230
0000
0000
0310
1000
0100
1000
0000
,  // measure 46
0001
0000
0011
0000
0010
0100
1000
0000
,  // measure 47
1000
0110
0000
1010
0000
1001
0000
0000
,  // measure 48
0001
0001
0010
0100
0010
1000
1000
0100
,  // measure 49
0001
0010
0100
0010
1100
0000
1000
0010
,  // measure 50
0001
0011
1010
1100
,  // measure 51
0002
0000
0000
1000
1003
0000
0000
1001
,  // measure 52
0000
0010
0100
0010
1000
1000
0001
0010
,  // measure 53
0100
0001
1000
0100
0100
0010
0100
0000
,  // measure 54
1001
1100
0110
0011
,  // measure 55
1000
0001
1000
0000
0100
0100
0010
0001
,  // measure 56
1000
0100
1000
0001
0020
0000
0000
0030
,  // measure 57
0100
0000
1100
0000
1001
0000
0010
0100
,  // measure 58
0020
1030
2000
3010
,  // measure 59
1001
0000
0001
0010
0000
1000
0100
0100
,  // measure 60
0010
0000
0010
0000
1000
0100
1001
0000
,  // measure 61
0100
0000
0100
0010
1000
0001
1001
0000
,  // measure 62
0010
0100
0100
0010
0001
0000
0110
1000
,  // measure 63
0100
0001
0010
0000
0100
0000
0110
0000
,  // measure 64
0001
1000
0100
0000
1000
0000
1001
0000
,  // measure 65
0010
0001
0001
1000
1000
0000
0110
0000
,  // measure 66
0001
0010
0001
1000
1000
0000
1001
0000
,  // measure 67
0010
1000
0000
1000
0100
0000
0110
0000
,  // measure 68
0010
0001
0000
0100
1000
0000
1001
0000
,  // measure 69
0010
0100
1000
0000
1000
0000
0110
0000
,  // measure 70
0001
1000
0010
0010
0001
0000
1001
0000
,  // measure 71
0100
0010
0001
1000
1000
0000
0110
0000
,  // measure 72
0001
0100
0010
0100
1000
0000
1001
0000
,  // measure 73
1000
0001
0010
0010
0100
0000
0110
0000
,  // measure 74
0010
0001
0100
1000
0100
0010
0010
0001
,  // measure 75
0001
0100
0100
1000
1000
0000
1001
0000
,  // measure 76
0010
0100
1100
0010
0100
0000
1010
0001
,  // measure 77
0100
0100
1001
0010
1000
0000
0110
0001
,  // measure 78
0100
0000
1010
0001
0100
0001
1100
0010
,  // measure 79
0100
0100
0011
0000
0100
0010
1000
1000
,  // measure 80
0001
0010
1001
0100
0100
0010
1100
0001
,  // measure 81
0010
0100
1001
0100
0100
0000
0110
1000
,  // measure 82
0001
0000
1010
0100
0001
0000
0110
1000
,  // measure 83
1000
0000
0001
0100
1000
0000
1000
0000
,  // measure 84
0010
0100
0000
0010
0100
0000
0010
0000
1000
0100
0010
0000
0000
0010
0000
0000
,  // measure 85
1001
0000
1000
0100
0011
0100
0001
0001
,  // measure 86
1010
0100
1000
0010
0100
0100
0001
0010
,  // measure 87
1000
1000
1001
0010
0100
0010
0110
0000
,  // measure 88
2000
0100
0000
3001
0020
0000
1030
0000
,  // measure 89
0100
0010
0100
0001
0001
0010
0000
0100
,  // measure 90
0110
1000
1000
0001
0010
0100
0100
0010
,  // measure 91
1001
0100
0010
0100
1000
0001
0001
0000
,  // measure 92
0110
0000
1010
0000
1100
0000
0010
0010
,  // measure 93
0100
0001
1000
1000
0100
0010
0100
0000
,  // measure 94
0010
0100
0001
0001
1000
0100
1000
0001
,  // measure 95
0002
0010
0023
0000
0130
0200
0000
0320
,  // measure 96
0000
0000
1000
2000
0000
3030
0000
1002
,  // measure 97
0000
0100
0020
0030
,  // measure 98
0100
0000
0003
0000
0000
1000
1000
0010
,  // measure 99
0110
0001
1010
0010
0100
0000
0110
0001
,  // measure 100
0002
0000
0000
0000
1003
0000
0010
0010
,  // measure 101
0100
0010
1000
0001
2000
0000
0001
0002
,  // measure 102
3000
0003
0010
0100
0010
0000
1000
0000
,  // measure 103
2000
0000
0100
3000
0010
0010
0001
0000
,  // measure 104
0002
0000
0000
1000
0000
1000
0003
0000
,  // measure 105
0210
0000
0300
0000
1000
0001
1000
0000
,  // measure 106
0002
0010
0100
1003
,  // measure 107
0120
0000
0000
0030
0000
0100
1000
0000
,  // measure 108
1002
0003
0102
0003
,  // measure 109
0012
0000
0003
1000
1000
0000
1001
0010
,  // measure 110
1000
1000
0001
0010
0100
0100
1001
0000
,  // measure 111
0010
0100
0010
0010
0100
0000
0110
0000
,  // measure 112
0001
0100
1000
0000
1000
0000
1001
0000
,  // measure 113
0010
0100
0010
1000
1000
0010
0110
0001
,  // measure 114
1000
1000
0011
0000
0010
0100
1100
0001
,  // measure 115
0010
1000
1010
0100
0001
0100
0110
0000
,  // measure 116
0002
0000
0100
0100
0000
0010
0100
0000
,  // measure 117
2003
0000
0000
3020
0000
0230
0000
0300
,  // measure 118
0002
0000
0000
0000
0000
0000
0000
0000
0000
0003
0000
0000
0000
0000
1001
0000
0000
0000
1000
0000
0000
2000
0000
0000
,  // measure 119
0000
0000
3000
0002
0000
0000
0023
0000
,  // measure 120
0100
0230
0000
0000
0000
0300
0010
0100
,  // measure 121
0020
0000
0000
0000
0000
0030
1001
0000
,  // measure 122
2000
0000
0001
3000
0002
0000
1003
0000
,  // measure 123
2002
0000
3003
2020
0000
3030
0220
0000
,  // measure 124
0330
0202
0000
0303
2002
0000
3003
0010
,  // measure 125
0100
0010
0100
0010
0010
0000
0110
0000
,  // measure 126
1000
0000
1100
0000
0100
0000
0110
0001
,  // measure 127
0010
1000
0100
0000
0010
0000
1010
0000
,  // measure 128
1000
0000
1001
0000
0001
0010
0010
0100
,  // measure 129
0020
0000
0000
1030
2000
0000
3000
0000
,  // measure 130
1001
0000
0010
0100
0010
1000
1010
0001
,  // measure 131
0010
0001
1100
0000
0100
0010
1001
0000
,  // measure 132
0100
0010
1100
0000
0100
0010
1001
0000
,  // measure 133
0002
0000
0013
0020
0000
0130
0000
0000
,  // measure 134
1000
0000
1100
0000
0100
0010
0010
0001
,  // measure 135
1000
0100
1000
0000
1001
0000
0011
0000
,  // measure 136
1010
0000
1000
0010
0100
0010
0000
2000
,  // measure 137
0000
0000
3001
0002
0000
0000
0003
0000
,  // measure 138
1001
0120
0000
0130
,  // measure 139
0001
0000
1001
0000
0010
0100
1100
0000
,  // measure 140
1010
0100
0000
0110
0001
1000
0101
0000
,  // measure 141
2001
0000
0100
0000
,  // measure 142
3002
0000
0000
0000
0000
0000
0003
0010
,  // measure 143
0020
0000
0000
0030
0001
0100
0000
0100
,  // measure 144
2000
0000
0020
0000
3030
0000
1001
0010
,  // measure 145
0100
0000
1100
0010
0001
0000
1001
0010
,  // measure 146
1100
0000
0010
0000
1001
0010
0100
0000
,  // measure 147
0110
0000
0010
0100
0010
1000
1000
0000
,  // measure 148
1010
0000
0100
0010
0001
0100
0100
0000
,  // measure 149
1001
0000
1100
0000
0000
1010
0000
0010
,  // measure 150
0220
0000
0000
0000
0330
0000
1000
2000
,  // measure 151
0000
0000
3002
0000
0000
0023
0000
0000
,  // measure 152
0130
2000
3001
1001
,  // measure 153
2000
0000
0000
3020
0000
0000
0230
0000
,  // measure 154
0001
0300
0010
0000
0001
0000
1001
0000
,  // measure 155
2000
0001
3000
0110
,  // measure 156
1002
0000
0010
0000
0000
0100
0000
2000
,  // measure 157
3003
0100
0010
0010
0100
0100
1000
0000
,  // measure 158
0110
0000
0000
0000
0001
0010
0000
0100
0000
0010
0100
0000
0010
0000
1001
0000
,  // measure 159
0000
0000
0100
0000
0010
0100
0001
0000
0000
0001
1000
0000
0000
1000
0000
0000
,  // measure 160
0110
0000
0000
1000
0000
0100
0010
0000
0100
0010
0000
0001
0000
0010
0000
0000
,  // measure 161
1001
0000
0100
0000
0010
0000
0100
0000
0010
1000
0000
0000
1000
0000
0000
0000
,  // measure 162
1001
0000
0010
0000
0100
0000
0010
0000
0100
0001
0000
0010
0000
0001
0000
0000
,  // measure 163
1100
0000
0010
0000
0001
0000
0010
0100
0000
0010
0100
0000
0010
0000
0001
0000
,  // measure 164
1001
0000
0000
0100
0000
0001
0010
0000
0100
0010
0000
0100
0000
0000
1000
0000
,  // measure 165
1100
0000
0000
0010
0100
0000
0010
0000
0100
0001
0000
0000
0001
1000
0000
0100
,  // measure 166
0000
0010
0000
0000
2002
0000
0000
0000
0000
0000
0000
0000
0000
0000
0000
0000
,  // measure 167
0000
0000
0000
3000
2000
0000
0000
0000
,  // measure 168
0000
0000
0000
0000
,  // measure 169
0000
0000
0000
0000
,  // measure 170
0000
3003
0000
0000
;
