#TITLE:BRE∀K DOWN!;
#SUBTITLE:-Full Version-;
#ARTIST:BeForU;
#TITLETRANSLIT:BREAK DOWN!;
#SUBTITLETRANSLIT:;
#ARTISTTRANSLIT:;
#GENRE:;
#CREDIT:;
#BANNER:BREAK DOWN! -Full Version-.png;
#BACKGROUND:BREAK DOWN! -Full Version--bg.png;
#LYRICSPATH:;
#CDTITLE:cdtitle.png;
#MUSIC:BREAK DOWN! -Full Version-.mp3;
#OFFSET:0.000000;
#SAMPLESTART:107.362778;
#SAMPLELENGTH:20.367348;
#SELECTABLE:YES;
#BPMS:0.000000=190.009995
;
#STOPS:
;
#BGCHANGES:;
#KEYSOUNDS:;
#ATTACKS:;

//---------------dance-single - ----------------
#NOTES:
     dance-single:
     :
     Hard:
     12:
     0.675897,0.776302,0.396722,0.391825,0.000000,966.000000,885.000000,81.000000,80.000000,0.000000,0.000000,0.675897,0.776302,0.396722,0.391825,0.000000,966.000000,885.000000,81.000000,80.000000,0.000000,0.000000:
// measure 0
0000
0000
0000
0000
,  // measure 1
0000
0000
0000
0000
,  // measure 2
0000
0000
0000
0000
,  // measure 3
0000
0000
0000
0000
,  // measure 4
0000
0000
0000
0000
,  // measure 5
0000
0000
0000
0000
0001
0001
0010
0100
,  // measure 6
0100
0010
1000
1000
0001
0010
0100
0001
,  // measure 7
0001
0010
0100
1000
0010
0100
0010
0010
,  // measure 8
0001
1000
0100
1000
0010
0010
0200
0000
,  // measure 9
0310
0000
0000
0000
0010
0000
0000
0010
,  // measure 10
0000
0000
0000
0010
0000
0010
0000
0010
,  // measure 11
0100
0000
0110
0000
0000
1000
1000
0001
,  // measure 12
0010
0100
0001
1000
0000
1000
0000
2002
,  // measure 13
0000
0000
3003
0000
0010
0010
0100
0001
,  // measure 14
1000
0100
1000
0010
0100
0001
0001
0100
,  // measure 15
1000
0000
2002
0000
3003
0000
0100
0100
,  // measure 16
0010
1000
0001
0010
0001
1000
0000
1000
,  // measure 17
0020
0000
0130
0000
0200
0010
0310
0001
,  // measure 18
0000
0001
0000
0010
0100
0010
1000
1000
,  // measure 19
1000
0000
1001
0000
0010
0000
1000
0001
,  // measure 20
0010
0001
0100
0000
0100
0010
0000
0010
,  // measure 21
2000
0000
3001
0000
0010
0010
0100
0000
,  // measure 22
0010
0100
0001
0010
0001
1000
1000
0000
,  // measure 23
2002
0000
3003
0000
0010
0100
0000
0100
,  // measure 24
0010
0001
0000
0001
0200
0000
0310
0000
,  // measure 25
0010
0010
1000
2000
0000
3000
0001
0000
,  // measure 26
1001
0010
0100
0010
0200
0000
0310
0000
,  // measure 27
0002
0000
1003
0000
0010
0010
0100
0010
,  // measure 28
1001
0000
1000
0100
2000
0000
0000
0002
,  // measure 29
3000
0000
1003
0000
0010
0000
1001
0100
,  // measure 30
0010
0001
0110
0000
0100
0010
1010
0000
,  // measure 31
0001
0100
0101
0000
1000
0100
1000
0010
,  // measure 32
0020
0000
0130
0010
0200
0000
0301
0000
,  // measure 33
0002
0000
1003
0000
1000
0001
0000
0001
,  // measure 34
0100
0010
0010
1000
0100
1000
0001
0001
,  // measure 35
0001
1000
0000
1100
0000
0001
0000
0001
,  // measure 36
1000
0100
1000
0001
0100
0010
0010
0000
,  // measure 37
0001
1000
0002
0000
0000
0003
1000
0001
,  // measure 38
0010
0100
0000
0100
1000
0001
0001
0000
,  // measure 39
0010
0100
0010
0100
2000
0000
0000
3000
,  // measure 40
0001
0001
1000
0000
0001
0100
0010
0000
,  // measure 41
0010
1000
0100
1000
0001
0001
0000
0100
,  // measure 42
0010
0100
0010
0001
1000
0100
1000
0001
,  // measure 43
0100
0010
0010
0000
1001
0000
0001
0000
,  // measure 44
0001
0000
1000
1000
0001
0010
0100
0010
,  // measure 45
0100
0010
0001
0001
2000
0000
0000
3000
,  // measure 46
0100
0000
0010
0010
1000
0100
0100
0001
,  // measure 47
0010
0001
0000
1000
0002
0000
0000
0000
,  // measure 48
0003
0010
0010
0100
0010
1000
0000
1000
,  // measure 49
0100
0001
0000
1000
0010
0010
0100
0000
,  // measure 50
1000
0002
0000
0000
0003
1001
1001
1001
,  // measure 51
0000
0000
1001
2002
0000
0000
0000
0000
,  // measure 52
3000
0000
0100
0000
0003
0000
0010
0100
,  // measure 53
0010
0100
0100
0010
0001
0001
1000
0100
,  // measure 54
1100
0010
0010
0100
1001
0010
0010
1000
,  // measure 55
1000
0010
0001
0010
0001
1000
1000
0010
,  // measure 56
0100
0010
0001
0001
0100
0100
1000
0010
,  // measure 57
0010
0100
0001
0001
2000
0000
3020
0000
,  // measure 58
0000
0030
0000
0100
0010
0100
1000
1000
,  // measure 59
0001
0010
0001
0010
0010
0100
1001
0100
,  // measure 60
0010
0000
0110
0010
0001
0000
1100
1100
,  // measure 61
0000
0022
0000
0033
0000
1000
0000
1000
,  // measure 62
0010
1000
0001
0000
0001
0100
0010
0100
,  // measure 63
0000
0010
0020
0000
0030
0100
0100
0001
,  // measure 64
0001
1000
0000
1000
0010
0100
0010
0001
,  // measure 65
0002
0000
0003
0000
0010
0010
0100
1000
,  // measure 66
0001
0010
0001
0100
0100
0010
1000
0001
,  // measure 67
0001
0100
0010
1000
2000
0000
3010
0010
,  // measure 68
0200
0000
0310
0001
1000
0001
1000
0001
,  // measure 69
0002
0000
0013
0100
0100
0010
0010
1000
,  // measure 70
0100
1000
0001
0001
0010
0100
0010
0001
,  // measure 71
0100
0100
1000
0000
1001
0000
0100
1000
,  // measure 72
0001
0000
0001
0010
0100
0010
0000
0100
,  // measure 73
0110
0000
1000
0001
0001
0010
0001
0100
,  // measure 74
1000
0000
1000
0001
0000
0010
0100
0010
,  // measure 75
0001
0000
0001
1000
0100
1000
0001
0001
,  // measure 76
0100
0010
0100
0000
1001
0000
0010
0010
,  // measure 77
0020
0000
0030
0100
0100
0001
1000
0001
,  // measure 78
1000
1000
0010
0100
0020
0000
0000
0000
,  // measure 79
0030
0000
0001
0001
1000
0100
1000
0001
,  // measure 80
0010
0010
0100
0001
0010
0001
1000
1000
,  // measure 81
0010
0000
0110
0000
0001
0001
0010
0100
,  // measure 82
0100
0010
0200
0000
0310
0000
0011
0000
,  // measure 83
1001
0000
0000
0100
0100
0010
0100
0010
,  // measure 84
0100
0000
1000
1000
0010
0001
0001
0000
,  // measure 85
1001
0000
0010
0100
1001
0000
1000
1000
,  // measure 86
0010
0100
0010
0010
0001
1000
0100
1000
,  // measure 87
0001
0001
0200
0000
0310
0000
0110
0000
,  // measure 88
0001
0001
0010
0100
0010
1000
0000
1000
,  // measure 89
0010
0100
0002
0000
1003
0000
0010
1000
,  // measure 90
0100
1000
0001
0000
0001
0010
0100
0000
,  // measure 91
0010
0100
0001
1000
0001
0100
0010
0100
,  // measure 92
1000
0000
1000
0001
0010
0001
0010
0100
,  // measure 93
0100
1000
1001
0010
,  // measure 94
0010
0001
0100
0100
0010
0001
1000
0100
,  // measure 95
1000
0001
0000
0001
0200
0000
0310
0000
,  // measure 96
0001
0001
0100
0010
0001
0000
1001
0000
,  // measure 97
1000
1100
0220
0330
,  // measure 98
0001
0001
0010
0100
0000
0100
0010
0001
,  // measure 99
0010
0001
1000
1000
0020
0000
0130
2000
,  // measure 100
0000
3001
0000
0110
1001
1001
1001
0000
,  // measure 101
1000
0000
0010
1001
0100
0010
0100
0010
,  // measure 102
0100
0001
0001
1000
0100
1000
0100
1000
,  // measure 103
0001
0010
0010
0100
0001
0000
0010
0001
,  // measure 104
0100
1000
0000
1000
0001
0010
0001
0100
,  // measure 105
0100
0010
0001
1000
1000
0000
1001
0000
,  // measure 106
1100
0000
1010
0000
0100
0000
0110
0001
,  // measure 107
0000
0001
0010
0000
1001
0000
0100
0100
,  // measure 108
0000
0001
0100
0010
0010
0000
0001
1000
,  // measure 109
0001
0000
0100
0020
0000
0000
0030
0000
,  // measure 110
0100
0100
0010
0001
1000
0001
0010
0100
,  // measure 111
0010
2010
0001
3001
,  // measure 112
0100
0100
0001
0100
0010
0010
1000
0001
,  // measure 113
1000
0020
0100
0130
,  // measure 114
1000
0100
0010
1000
0001
0000
0001
0000
,  // measure 115
0100
0010
0100
0001
0002
0000
1000
0000
,  // measure 116
1003
0100
0010
1010
,  // measure 117
1100
0000
0010
0200
0000
0000
0000
0300
,  // measure 118
0010
0010
0100
0001
1000
0100
0001
0001
,  // measure 119
0010
0100
0010
0000
0002
0000
1000
1003
,  // measure 120
0000
0010
0010
0100
0001
2000
0010
3000
,  // measure 121
0011
0100
0000
2200
0000
3300
0000
0010
,  // measure 122
0100
0001
0010
0001
1000
1000
0100
0010
,  // measure 123
0100
0001
0001
0000
2000
0000
0000
0000
,  // measure 124
0000
0000
3010
0010
0000
0100
0010
0100
,  // measure 125
0010
1000
2000
0000
0010
3000
0001
0100
,  // measure 126
0000
0100
0010
0020
0000
0100
0030
0000
,  // measure 127
0001
0100
0200
0000
0000
0010
0000
0300
,  // measure 128
0020
0000
0032
0000
0000
0003
0010
0100
,  // measure 129
1000
0000
1000
0000
1000
1000
0010
0100
,  // measure 130
0001
0010
0100
0010
0100
1010
0000
0100
,  // measure 131
0000
1001
0000
0200
0000
0300
0110
0000
,  // measure 132
1000
0100
1000
0001
0010
0100
0100
0001
,  // measure 133
0010
0001
0000
1000
2000
0000
3001
0001
,  // measure 134
0100
0010
0100
0000
0001
0000
1010
0000
,  // measure 135
1100
0010
0100
0000
1001
0100
0010
0001
,  // measure 136
0000
0100
0110
0000
0001
0100
0010
0000
,  // measure 137
1000
1000
0001
0001
0020
0000
0000
0030
,  // measure 138
0100
0010
0100
0010
1000
2000
0000
0001
,  // measure 139
3010
0000
1001
0100
0010
0100
1010
0000
,  // measure 140
0100
0001
0110
0000
1000
0001
1001
1001
,  // measure 141
0000
0000
0010
0110
0000
1000
1000
0010
,  // measure 142
0100
0000
0001
1001
0100
0100
0000
0010
,  // measure 143
0001
0001
0100
0110
0000
0010
0100
0001
,  // measure 144
0001
0000
1000
1001
0000
1100
0000
0110
,  // measure 145
0000
0101
0000
0022
0000
0033
1000
0001
,  // measure 146
1000
0001
0001
0100
0200
0000
0320
0000
,  // measure 147
2030
3002
1000
1003
,  // measure 148
2002
0000
0000
3003
0010
0100
0010
0100
,  // measure 149
0010
0000
0001
0001
1000
0100
1000
1000
,  // measure 150
0001
0100
0100
0010
0100
0001
0001
0000
,  // measure 151
0020
0000
0130
1000
1100
0000
0010
0110
,  // measure 152
0000
0001
1001
0000
0010
1010
0200
0000
,  // measure 153
0310
0001
0001
0010
2000
0000
0000
3000
,  // measure 154
0000
0001
0010
0001
0010
0000
1010
0000
,  // measure 155
1000
2200
0000
0000
,  // measure 156
0000
0000
3300
0000
0001
0001
0001
0000
,  // measure 157
0000
2002
0000
0000
,  // measure 158
3003
0000
0010
0200
0300
0000
0000
0000
;
