#TITLE:Blue rain IIDX ver;
#SUBTITLE:;
#ARTIST:dj TAKA vs Ryu;
#TITLETRANSLIT:;
#SUBTITLETRANSLIT:;
#ARTISTTRANSLIT:;
#GENRE:;
#CREDIT:PaperBox440;
#BANNER:Blue rain IIDX ver.png;
#BACKGROUND:Blue rain IIDX ver-bg.png;
#LYRICSPATH:;
#CDTITLE:;
#MUSIC:Blue rain IIDX ver.mp3;
#OFFSET:0.000000;
#SAMPLESTART:0.416667;
#SAMPLELENGTH:26.250000;
#SELECTABLE:YES;
#BPMS:0.000000=144.000000
;
#STOPS:
;
#BGCHANGES:0.000=Blue rain IIDX ver.mp4=1.000=0=0=0=StretchNoLoop====,
99999=-nosongbg-=1.000=0=0=0 // don't automatically add -songbackground-
;
#KEYSOUNDS:;
#ATTACKS:;

//---------------dance-single - ----------------
#NOTES:
     dance-single:
     :
     Hard:
     15:
     0.573520,0.717671,0.595721,0.094970,0.418732,465.000000,396.000000,69.000000,11.000000,0.000000,0.000000,0.573520,0.717671,0.595721,0.094970,0.418732,465.000000,396.000000,69.000000,11.000000,0.000000,0.000000:
0000
0000
0000
1002
,
0000
0000
0000
0000
,
0000
0003
0010
0110
,
2000
0000
0000
0000
,
3000
1100
1001
0002
,
0000
0000
0000
0000
0000
0000
0000
0100
,
0000
0000
0003
0000
1100
0000
1000
0001
,
0200
0000
0000
0000
,
0300
0001
0001
1100
,
2000
0000
0001
0010
,
3010
0100
1000
1010
,
0002
0000
0000
1003
,
0000
1100
0010
1000
,
1002
0000
0000
0010
,
1003
1000
0100
0010
,
0100
0001
0001
2000
,
0000
0000
3000
1001
,
0100
0010
0100
0000
0000
0001
0000
0000
0010
0000
0001
0000
0100
0000
0100
0010
,
0000
0000
0010
1000
0000
0000
1000
0001
0000
0000
0001
0000
0100
0010
0100
0000
,
1000
0001
0000
0100
0000
0000
0100
0001
0000
0000
0001
0000
0000
0000
0010
0100
,
0010
0000
1000
0001
1000
0000
0000
0000
1001
0000
0000
0000
0100
0010
0000
0000
,
1000
0000
1000
0000
0100
0000
0000
0100
0000
0000
0010
0100
0010
0001
0000
0000
,
0001
0100
0000
0000
0100
0000
0001
0000
1000
0000
1001
0000
0000
0000
0100
0010
,
0100
0000
0001
0000
0001
0000
1000
0000
1000
0000
0000
0000
1000
0001
0000
0000
,
0100
0010
0000
0000
1001
0000
0000
0000
0010
0100
0000
0000
1000
0000
0000
0000
,
1001
0000
0100
0000
0000
0100
0000
0000
0110
0000
0000
0001
0000
0010
0001
0000
,
1100
0000
0000
1000
0000
1000
0010
0000
1001
0000
0000
0100
0010
0100
0000
0000
,
0110
0000
0001
0000
0001
0100
0000
0000
1010
0000
1000
0000
0010
0100
0000
0000
,
1001
0000
0001
0000
1000
0100
0001
0000
0101
0000
0000
1000
0010
1000
0001
0000
,
1100
0000
0000
0010
0100
0010
0000
0000
0110
0000
1000
0000
1000
0000
0001
0000
,
1001
0000
0100
0010
0100
0000
0001
0000
0110
0000
0000
1000
0001
1000
0010
0000
,
0010
0000
0100
0000
1000
0001
1000
0001
1000
0001
1000
0000
0110
0000
0000
0000
,
1010
0000
0000
0000
1100
0000
0000
0000
1001
0000
0000
0000
2000
0000
0000
3000
,
0000
0000
0010
0000
0000
0010
0100
0000
0000
0100
0000
0001
0010
0001
1000
0000
,
0000
1000
0010
0100
0000
0000
0100
0001
0000
0001
1000
0100
1000
0000
0010
0000
,
0100
0100
0000
0001
0010
0001
1000
0000
0000
1000
0010
0000
0000
0010
0100
0000
,
0100
0000
0001
0010
0001
1000
0000
0000
1000
0100
0000
0010
0000
0010
0100
0000
,
1000
0000
1000
0001
0010
0001
1000
0000
0000
1000
0000
0010
0100
0000
0001
1000
,
0000
0000
1000
0000
0001
0010
0001
0000
0100
0000
0100
0000
0001
0000
0000
0100
,
1000
0000
0000
0010
0001
0000
0000
0000
1100
0000
0010
0000
0110
0000
0000
0000
,
0110
0000
1001
0000
1100
0000
0001
0001
,
0100
0000
0010
0000
1000
0000
1000
0000
0011
0000
0000
0100
0010
0100
0000
0000
,
1100
0000
0001
0000
0001
0000
0100
0000
1001
0000
0100
0010
0100
0000
0001
0000
,
0110
0000
0000
1000
0000
0000
1000
0000
1100
0000
0000
0010
0100
0000
0010
0000
,
0110
0000
0000
1000
0001
1000
0000
0000
1001
0000
0100
0000
0010
0000
0100
0000
,
1100
0000
0001
1000
0001
0000
0100
0000
0110
0000
0000
0000
1000
0000
0100
0000
,
0010
0100
0001
0001
1000
0000
1010
0000
,
0110
0000
0000
0000
1000
0001
1000
0001
1000
0001
1000
0000
0100
0000
0010
0000
,
0100
0000
1100
0001
1001
0000
0110
0000
,
1001
0000
1000
0000
1100
0000
0010
0001
,
1001
0000
0100
0010
0011
0000
1000
0001
,
0101
0000
1000
0100
0110
0000
0010
1000
,
1010
0000
0001
0100
0110
0000
0001
1000
,
1100
0000
0010
0100
0110
0000
0001
1000
,
1001
0000
0010
0100
0110
0000
1000
0000
,
1001
0000
1001
0000
0110
0000
0100
0010
,
0100
0001
1000
0001
0000
1000
0000
1000
,
0110
0000
0001
0000
0000
0001
0000
0010
0000
0000
0010
0100
0000
0000
0100
0000
,
1000
0000
0001
0000
1000
0000
0100
0000
0010
0000
0010
1000
0000
0000
1000
0001
,
0000
0000
0001
0000
0000
0010
0100
0010
1000
0000
0000
1000
0001
0000
0000
0001
,
0000
0010
0000
0000
0010
0100
0000
0000
0100
0000
1000
0001
1000
0000
0000
0000
,
0110
0000
0001
0000
0001
0000
1000
0000
0000
1000
0000
0010
0000
0000
0010
0100
,
0000
0000
0100
0000
0001
0000
1000
0000
0001
0100
0000
0000
0100
0010
0000
0000
,
0010
0000
1000
0100
1000
0000
0001
0000
0001
0000
0000
0000
0110
0000
0000
0000
,
1001
0000
0000
0000
0100
0010
0000
0000
1100
0000
0000
0000
2002
0000
0000
0000
,
0000
0000
0000
0000
,
0000
0000
3003
0000
;

//---------------dance-single - ----------------
#NOTES:
     dance-single:
     :
     Easy:
     6:
     0.324378,0.430603,0.388514,0.129505,0.000000,263.000000,218.000000,45.000000,15.000000,0.000000,0.000000,0.324378,0.430603,0.388514,0.129505,0.000000,263.000000,218.000000,45.000000,15.000000,0.000000,0.000000:
0000
0000
0000
1002
,
0000
0000
0000
0000
,
0000
0003
0010
0110
,
2000
0000
0000
0000
,
3000
1000
1001
0002
,
0000
0000
0000
0000
,
0000
0003
1100
0001
,
0200
0000
0000
0000
,
0300
0001
0001
2002
,
0000
0000
3003
0010
,
0100
1000
0001
1000
,
0002
0000
0000
1003
,
0000
1001
0000
1000
,
1002
0000
0000
0013
,
1000
1000
0100
0010
,
0100
0001
0001
2000
,
0000
0000
3000
1001
,
0100
0100
0001
1000
,
0001
0110
0110
1000
,
1000
0001
0001
1100
,
1100
0010
0110
1000
,
1000
0001
1000
0001
,
1000
1000
0110
0110
,
0001
0100
0100
1001
,
1001
0110
1010
1000
,
1000
0100
1000
0001
,
0010
0001
0100
0100
,
0001
1000
0001
0100
,
0010
1000
0100
1000
,
0001
0001
0100
0010
,
0100
1000
1000
0001
,
0001
1100
1000
0110
,
0001
1001
1000
1100
,
0001
0010
0010
1000
,
0100
1000
0100
0100
,
1000
0001
0010
0100
,
0001
0001
1000
0100
,
1000
0001
0100
0010
,
0100
0001
0001
1000
,
1000
0001
0001
0100
,
0110
0110
1010
0001
,
1000
0000
0001
0100
,
0100
0001
0010
0001
,
1000
0110
0100
0100
,
0001
0010
0001
1000
,
1000
0010
0100
0100
,
0001
0010
0001
1000
,
1000
0010
0110
0001
,
1001
0000
1000
0000
1100
0000
0000
1001
,
0000
1000
0001
0010
,
0100
0100
0010
0010
,
0001
1000
1000
0020
,
0230
0302
0003
2000
,
0000
3001
0001
0010
,
0100
1001
1001
0010
,
0001
1000
1100
0100
,
0110
1010
1001
0001
,
0010
0001
0100
0100
,
0001
0010
0001
1000
,
1000
0000
0001
1000
,
0001
0110
0000
0100
,
1000
1000
0001
0010
,
0001
0100
0100
1001
,
1001
1001
0000
0110
,
0110
0110
0001
2002
,
0000
0000
0000
0000
,
0000
0000
3003
0000
;

//---------------dance-single - ----------------
#NOTES:
     dance-single:
     :
     Medium:
     12:
     0.437849,0.516723,0.362613,0.120871,0.000000,355.000000,313.000000,42.000000,14.000000,0.000000,0.000000,0.437849,0.516723,0.362613,0.120871,0.000000,355.000000,313.000000,42.000000,14.000000,0.000000,0.000000:
// measure 0
0000
0000
0000
1002
,  // measure 1
0000
0000
0000
0000
,  // measure 2
0000
0003
0010
0110
,  // measure 3
2000
0000
0000
0000
,  // measure 4
3000
1100
1000
0002
,  // measure 5
0000
0000
0000
0000
0000
0000
0000
0100
,  // measure 6
0000
0003
1000
0000
1100
0000
1000
0001
,  // measure 7
0200
0000
0000
0000
,  // measure 8
0300
0001
0001
1100
,  // measure 9
2000
0000
0001
0010
,  // measure 10
3010
0100
1000
1010
,  // measure 11
0002
0000
0000
1003
,  // measure 12
0000
1100
0010
1000
,  // measure 13
1002
0000
0000
0010
,  // measure 14
1003
1000
0100
0010
,  // measure 15
0100
0001
0001
2000
,  // measure 16
0000
0000
3000
1001
,  // measure 17
0100
0010
0100
0000
0001
0100
0010
0100
,  // measure 18
0001
0001
1000
0000
1001
0000
1000
0100
,  // measure 19
0000
0100
0001
0010
0001
0000
1100
0000
,  // measure 20
1100
0000
0001
0001
1000
0000
1000
0000
,  // measure 21
0100
0000
0110
0001
1000
0010
0100
0000
,  // measure 22
0001
0001
0000
0100
0011
0000
1001
0000
,  // measure 23
1000
0000
0010
0100
1000
0001
0001
0000
,  // measure 24
0100
0010
0100
0001
1000
0000
0110
0000
,  // measure 25
1000
0001
0000
0001
1000
0100
1000
0000
,  // measure 26
0100
0001
0100
0000
0010
0000
0010
0000
,  // measure 27
1000
0100
1000
0001
0001
0000
1100
0000
,  // measure 28
1001
0000
0010
0000
0001
0100
0100
0001
,  // measure 29
0010
0001
1000
1000
0010
0000
1001
0000
,  // measure 30
0001
0001
0100
0010
0100
0000
0110
0000
,  // measure 31
1000
0000
1000
0001
0010
0001
0000
0100
,  // measure 32
0100
0001
0001
1000
1000
0000
1001
0000
,  // measure 33
0010
1000
1000
0001
0100
0001
0000
0100
,  // measure 34
0010
0100
0001
0001
0000
1000
1000
0001
,  // measure 35
0000
1000
0100
1000
0010
0010
0001
1000
,  // measure 36
1000
0001
0010
0001
0000
0100
0000
0100
,  // measure 37
0001
0010
0001
1000
1000
0010
0001
1000
,  // measure 38
0000
0010
0100
0001
0001
0000
1100
0000
,  // measure 39
1001
0000
0100
0001
0001
0000
0110
0000
,  // measure 40
0100
0000
1100
0000
1001
0000
0010
0100
,  // measure 41
0100
0010
0001
0001
1000
1000
0011
0000
,  // measure 42
0100
0010
0010
0001
1100
1000
0001
0001
,  // measure 43
0000
0100
1000
1000
0001
0010
0001
0000
,  // measure 44
0100
0010
0010
0000
0001
1000
1000
0000
,  // measure 45
0100
1000
0001
0011
0000
0100
0010
0010
,  // measure 46
1000
0100
1000
0001
0001
0000
0010
0100
,  // measure 47
0000
0100
0010
1000
1000
0001
0001
0000
,  // measure 48
0100
0010
0100
0001
0001
0000
2002
0000
,  // measure 49
0003
0000
0000
0000
,  // measure 50
0000
0000
0000
0000
3000
0000
0100
0001
,  // measure 51
0010
0001
1000
0100
1000
0000
0010
0000
,  // measure 52
0001
0001
1000
0100
1000
0001
0001
0000
,  // measure 53
2002
0000
3003
0100
,  // measure 54
0100
0000
0001
0010
0001
0000
1000
0000
,  // measure 55
1001
1001
0100
0011
,  // measure 56
1001
0000
0110
0000
0011
1000
1100
0000
,  // measure 57
0010
0001
0100
0000
0010
0000
0010
0000
,  // measure 58
1000
0001
1000
0000
0010
1000
0100
1000
,  // measure 59
0001
0001
0100
0010
0100
0000
0001
0000
,  // measure 60
1001
0000
0100
0010
0000
0001
0100
0000
,  // measure 61
0100
0000
0001
1000
0001
0100
0010
0100
,  // measure 62
0001
0000
0001
0000
1100
1100
0001
0000
,  // measure 63
0010
0001
1000
0000
1000
0001
0010
0000
,  // measure 64
0100
0100
1000
0001
1000
0000
2002
0000
,  // measure 65
0000
0000
0000
0000
,  // measure 66
0000
0000
3003
0000
;
