#VERSION:0.83;
#TITLE:B4U;
#SUBTITLE:(8 bit Remix);
#ARTIST:Naoki;
#TITLETRANSLIT:;
#SUBTITLETRANSLIT:;
#ARTISTTRANSLIT:;
#GENRE:;
#ORIGIN:;
#CREDIT:PaperBox440;
#BANNER:B4U (8 bit Remix).png;
#BACKGROUND:B4U (8 bit Remix)-bg.png;
#PREVIEWVID:;
#JACKET:B4U (8 bit Remix)-jacket.png;
#CDIMAGE:;
#DISCIMAGE:;
#LYRICSPATH:;
#CDTITLE:;
#MUSIC:B4U (8 bit Remix).mp3;
#OFFSET:0.000000;
#SAMPLESTART:25.201960;
#SAMPLELENGTH:12.387098;
#SELECTABLE:YES;
#BPMS:0.000=155.000;
#STOPS:;
#DELAYS:;
#WARPS:;
#TIMESIGNATURES:0.000=4=4;
#TICKCOUNTS:0.000=4;
#COMBOS:0.000=1;
#SPEEDS:0.000=1.000=0.000=0;
#SCROLLS:0.000=1.000;
#FAKES:;
#LABELS:0.000=Song Start;
#BGCHANGES:;
#KEYSOUNDS:;
#ATTACKS:
;

//---------------dance-single - ----------------
#NOTEDATA:;
#CHARTNAME:;
#STEPSTYPE:dance-single;
#DESCRIPTION:;
#CHARTSTYLE:;
#DIFFICULTY:Hard;
#METER:9;
#RADARVALUES:0.671893,0.698866,0.425768,0.049508,0.331703,475.000000,432.000000,43.000000,5.000000,0.000000,0.000000,0.000000,0.000000,0.000000,0.671893,0.698866,0.425768,0.049508,0.331703,475.000000,432.000000,43.000000,5.000000,0.000000,0.000000,0.000000,0.000000,0.000000;
#CREDIT:;
#NOTES:
0000
0000
0100
0010
0000
0010
0100
0000
,
1000
1000
0010
0100
0000
0100
0010
1000
,
1000
0001
0100
1000
1000
0010
0001
0010
,
0000
0100
0100
0010
1000
0100
1000
0001
,
0010
0000
0110
1000
1000
0010
0100
0001
,
0010
0001
1000
0010
0001
0001
1000
0100
,
1000
0000
0010
0000
0001
0000
1000
0000
1000
0000
0100
0001
0010
0000
1000
0000
,
0001
0100
0001
0010
1000
1000
0010
0100
,
0010
0110
0000
0000
1000
0000
1000
0000
,
0010
0010
0100
0100
,
0001
0001
1000
1000
,
0010
0010
0100
0100
,
0001
0000
0001
0000
1000
0000
1000
0010
,
0010
0001
0001
1000
,
1000
0000
0100
0000
0100
0000
0010
0010
,
1000
0001
0110
0000
1010
0000
0101
0011
,
0011
1001
0000
0100
0010
0100
0001
0010
,
0110
0000
1000
0000
1000
0000
0010
0000
0100
1000
0001
0000
0010
0000
0001
0000
,
1001
0000
0000
0000
0100
0010
0000
0000
1100
0000
0010
0000
0100
0000
0001
0010
,
1000
0100
1010
0001
0001
1000
1000
0010
,
0100
0000
0001
0000
0010
0000
0011
0000
0000
1000
0100
0000
1000
0010
0000
0000
,
1000
0000
0001
0000
0010
0000
0100
0000
1000
0010
0001
0000
0100
0000
0010
0000
,
0010
0000
1000
0000
0001
0000
0001
0000
1000
0100
0000
1000
0010
0000
0100
0000
,
0010
0000
0000
0000
0000
0001
0010
1000
0100
0000
1000
0010
0000
0100
0000
0001
,
0000
0001
1001
0000
0010
1000
0100
0100
,
0001
0010
0001
0001
1000
0100
1000
0010
,
0010
0100
0100
0001
0100
0001
1000
1000
,
0010
0010
0100
0001
0010
0001
0110
0110
,
0000
0001
0010
1000
0001
0001
0010
0100
,
0001
1000
1100
0001
0010
0100
1001
1001
,
0000
0100
0001
0001
1000
0010
1000
0010
,
0001
1000
0100
0001
0010
1000
0100
1000
,
0010
0010
1000
0000
1000
0001
0010
0010
,
0100
0001
1000
0000
1000
0000
0100
0000
,
0100
0000
0001
0000
0001
0010
0010
1000
,
0100
1000
0001
0000
0001
0000
0100
0000
,
0100
0000
0001
0000
0001
1000
1000
0010
,
0100
0001
0010
0000
0010
0000
1000
0000
,
1000
0000
0001
0000
0001
0100
0100
0010
,
1000
0100
0011
0000
1010
0000
1100
0110
,
0110
0000
0001
0010
0001
1000
0100
1000
,
0000
0010
0000
0100
0010
0000
0000
1000
0000
0100
0000
1000
0010
0000
0010
0000
,
0000
0001
0010
0001
1000
0010
0200
0000
,
0300
0000
0001
0000
0000
0001
0010
0000
1000
0100
0000
1000
0010
0000
0000
0010
,
0000
0000
0100
0010
0100
0001
1000
0020
,
0000
0000
0030
0000
0100
0000
1000
0100
0000
1000
0010
0000
0000
0001
0000
0000
,
0001
0000
1000
0100
1000
0010
0001
0010
,
0000
0000
0000
0100
0000
0010
0000
1000
0100
0000
1000
0000
0001
0010
0000
0100
,
0000
0010
0000
0000
1000
0000
1000
0000
0000
0000
0100
0000
0010
0001
0100
1000
,
0000
0001
0000
0000
0010
0000
0010
0000
0000
0000
0000
1000
0100
0000
0001
0100
,
0000
0100
1000
0000
0010
0001
0000
0000
1000
0100
0000
1000
0010
0000
0001
0010
,
0000
0100
1000
0010
0000
0001
1000
0100
0000
0010
0100
0001
0000
0001
0000
0000
,
1001
0000
1000
0110
0001
1010
0100
0001
,
0101
0000
0000
0000
1000
0010
0000
0100
0001
0000
0010
0001
0000
1000
0100
0000
,
2000
3000
0010
0100
1010
0001
1100
0100
,
0011
0000
0000
0000
1000
0010
0100
0000
0010
0100
0001
0000
1000
0001
0000
1000
,
0000
1010
0100
0011
1000
0110
1000
0101
,
0010
0000
0000
0000
0100
0000
0010
0100
0000
0010
1000
0000
0100
0001
0000
0010
,
0100
0000
1010
0100
0011
1000
0110
0001
,
0000
1000
0000
0100
1000
0100
0000
0001
0010
0000
1000
0100
0000
1000
0001
0000
,
0001
0010
0110
0000
1000
1100
1010
0101
,
0000
0220
0000
0330
0000
0000
0000
0000
;

//---------------dance-single - ----------------
#NOTEDATA:;
#CHARTNAME:;
#STEPSTYPE:dance-single;
#DESCRIPTION:;
#CHARTSTYLE:;
#DIFFICULTY:Medium;
#METER:7;
#RADARVALUES:0.514882,0.636795,0.405965,0.108917,0.000000,364.000000,323.000000,41.000000,11.000000,0.000000,0.000000,0.000000,0.000000,0.000000,0.514882,0.636795,0.405965,0.108917,0.000000,364.000000,323.000000,41.000000,11.000000,0.000000,0.000000,0.000000,0.000000,0.000000;
#CREDIT:;
#NOTES:
0000
0100
0100
0100
,
1001
0001
0001
0001
,
1100
0000
1000
0000
1000
0000
1000
0010
,
0010
1000
1000
0010
,
0010
0000
0100
0100
0000
1000
0000
0010
,
0000
0100
0010
0001
0000
0001
1000
0000
,
1000
0010
0010
0100
0001
0000
0001
1000
,
0100
1000
0001
0010
0000
0010
0100
0000
,
1010
0100
1000
1000
,
0001
0001
0100
0100
,
0010
0010
1000
1000
,
0001
0001
0010
0010
,
0001
0001
1000
1000
,
0001
0100
0100
0010
,
0010
0001
0001
1000
,
1000
0000
0002
0000
2003
0000
3020
0100
,
0130
0110
0010
1000
,
0001
0000
0010
0000
0001
1000
0100
1000
,
0010
0100
0000
0001
0000
0001
1000
0100
,
1000
0000
0010
0000
0010
0100
1000
0001
,
1000
0010
0000
0010
0100
0000
0100
0001
,
1000
0000
1000
0001
0010
0000
0010
0100
,
0000
0110
0000
0001
0000
0001
1000
0100
,
1000
0010
0010
0100
0100
0001
1000
0100
,
1000
0001
0020
0000
0030
0000
1000
0000
,
1001
0200
0300
0001
,
1001
2000
3000
0010
,
0110
0000
2000
0000
3000
0000
0001
0010
,
0001
1000
1000
1001
,
0010
0100
0010
0000
0110
0000
0110
0000
,
1000
0000
1000
0000
0001
0010
0001
1000
,
0100
0110
0110
1000
,
1001
0000
0001
0000
1000
0010
0100
0001
,
1000
0010
0001
0010
,
1000
0000
0100
0000
1000
0000
0001
0010
,
1000
0100
1000
0000
0001
0000
0001
0000
,
1000
0000
1000
0000
0000
0100
1000
0100
,
0010
0010
0001
0001
,
1000
0000
1000
0000
0000
0010
0100
0001
,
1000
0000
2000
3000
0020
0030
1001
0000
,
1001
0000
0010
0100
0010
0000
1000
0000
,
1001
0000
0010
0100
0010
0100
0001
1000
,
0001
1000
0010
0000
0110
0000
0100
0000
,
1001
0010
0100
0010
0100
0010
1000
0010
,
1000
0001
1001
1000
,
1010
0000
0001
0010
0001
1000
0100
1000
,
0010
0110
0011
1100
,
1000
0010
0010
0100
0100
0001
1000
0100
,
1000
0000
0010
0100
0010
0000
1001
0000
,
1001
0000
0010
1000
0010
0000
1001
0000
,
1001
1010
0110
0101
,
0011
0000
1000
0001
1000
0001
1000
0001
,
0000
0000
0010
0010
0100
0001
1000
0100
,
0010
0000
1000
0001
1000
0010
0100
0010
,
0100
0000
0001
0001
1000
0100
1000
0010
,
0110
0000
0001
0010
0001
0010
1000
0010
,
1000
0000
0100
0100
0001
0010
0100
0010
,
1001
0000
0010
0100
0010
0001
1000
0001
,
1000
0010
0010
1000
0011
0000
0100
0010
,
1001
0010
0100
0001
0010
0001
1000
0100
,
1000
0100
0110
0000
0001
1001
0110
1100
,
0000
0220
0330
0000
0000
0000
0000
0000
;

//---------------dance-single - ----------------
#NOTEDATA:;
#CHARTNAME:;
#STEPSTYPE:dance-single;
#DESCRIPTION:;
#CHARTSTYLE:;
#DIFFICULTY:Easy;
#METER:5;
#RADARVALUES:0.333825,0.454854,0.356457,0.039606,0.000000,236.000000,200.000000,36.000000,4.000000,0.000000,0.000000,0.000000,0.000000,0.000000,0.333825,0.454854,0.356457,0.039606,0.000000,236.000000,200.000000,36.000000,4.000000,0.000000,0.000000,0.000000,0.000000,0.000000;
#CREDIT:;
#NOTES:
// measure 0
0000
0000
0000
0000
,  // measure 1
0000
0000
0000
0000
,  // measure 2
0000
0000
0000
0000
,  // measure 3
0000
0000
0000
0000
,  // measure 4
0000
0100
0010
1000
,  // measure 5
0001
0001
1000
0100
,  // measure 6
1000
0001
0010
0010
,  // measure 7
0100
0010
0001
1000
,  // measure 8
1000
1000
0000
0100
,  // measure 9
0000
0010
0000
0001
,  // measure 10
0000
0100
0000
0010
,  // measure 11
0000
1000
0000
0001
,  // measure 12
0000
0010
0000
0100
,  // measure 13
0100
0000
1000
0010
,  // measure 14
0000
0001
0000
1000
,  // measure 15
1000
0020
0030
2000
,  // measure 16
0000
3000
0001
0000
0001
0000
0010
0000
,  // measure 17
0100
0010
1000
1001
,  // measure 18
0001
0100
0010
0100
,  // measure 19
1000
1000
0001
0001
,  // measure 20
0100
0110
1000
0010
,  // measure 21
0010
1000
0001
1000
,  // measure 22
0001
0010
0010
0100
,  // measure 23
0110
0001
0010
0001
,  // measure 24
1001
0100
0100
0010
,  // measure 25
0000
0100
0100
1000
,  // measure 26
0000
0100
0001
0001
,  // measure 27
0010
0000
0100
0100
,  // measure 28
1000
0010
0010
0100
,  // measure 29
0001
1000
0100
1000
,  // measure 30
0110
0001
0001
0010
,  // measure 31
1000
0110
1000
0010
,  // measure 32
1001
0000
0100
0100
,  // measure 33
0110
0001
0000
1000
,  // measure 34
0000
0010
0000
0100
,  // measure 35
0100
0110
0000
0001
,  // measure 36
0000
1000
0000
0010
,  // measure 37
0010
0110
0000
1000
,  // measure 38
0000
0001
0100
0110
,  // measure 39
0000
0001
1001
0110
,  // measure 40
0110
1000
1000
0100
,  // measure 41
0110
0001
1000
0100
,  // measure 42
1000
0010
0010
0110
,  // measure 43
1000
1000
0010
0001
,  // measure 44
1000
0011
0100
0110
,  // measure 45
1000
0001
0010
0100
,  // measure 46
0010
1000
1001
0001
,  // measure 47
0000
0000
1000
0000
0100
0010
0001
0000
,  // measure 48
1000
1000
0000
0010
,  // measure 49
0110
1000
1000
0001
,  // measure 50
1001
1000
1010
0010
,  // measure 51
0110
0100
0101
1001
,  // measure 52
1001
0010
0010
1000
,  // measure 53
1001
0100
0010
0100
,  // measure 54
1001
0010
0010
0001
,  // measure 55
1001
0100
1010
0100
,  // measure 56
0110
1000
1000
0010
,  // measure 57
0100
0001
1001
1000
,  // measure 58
0010
0010
0001
1000
,  // measure 59
0110
0001
1000
0001
,  // measure 60
0010
1010
0100
0110
,  // measure 61
2002
3003
0000
0000
;
