#VERSION:0.83;
#TITLE:Angel Eyes;
#SUBTITLE:;
#ARTIST:Brisk Ham;
#TITLETRANSLIT:;
#SUBTITLETRANSLIT:;
#ARTISTTRANSLIT:;
#GENRE:;
#ORIGIN:;
#CREDIT:PaperBox440;
#BANNER:Angel Eyes.png;
#BACKGROUND:Angel Eyes-bg.png;
#PREVIEWVID:;
#JACKET:Angel Eyes-jacket.png;
#CDIMAGE:;
#DISCIMAGE:;
#LYRICSPATH:;
#CDTITLE:;
#MUSIC:Angel Eyes.mp3;
#OFFSET:0.000000;
#SAMPLESTART:55.144318;
#SAMPLELENGTH:15.937500;
#SELECTABLE:YES;
#BPMS:0.000=174.000,
65.000=170.000,
65.500=140.000,
66.000=120.000,
66.500=100.000,
67.000=88.000,
82.000=176.000,
212.000=88.000,
244.000=176.000,
311.000=88.000,
327.000=176.000;
#STOPS:;
#DELAYS:;
#WARPS:;
#TIMESIGNATURES:0.000=4=4;
#TICKCOUNTS:0.000=4;
#COMBOS:0.000=1;
#SPEEDS:0.000=1.000=0.000=0;
#SCROLLS:0.000=1.000;
#FAKES:;
#LABELS:0.000=Song Start;
#BGCHANGES:;
#KEYSOUNDS:;
#ATTACKS:
;

//---------------dance-single - ----------------
#NOTEDATA:;
#CHARTNAME:;
#STEPSTYPE:dance-single;
#DESCRIPTION:;
#CHARTSTYLE:;
#DIFFICULTY:Hard;
#METER:11;
#RADARVALUES:0.567327,0.732786,0.646106,0.041153,0.176959,965.000000,808.000000,157.000000,10.000000,0.000000,0.000000,0.000000,0.000000,0.000000,0.567327,0.732786,0.646106,0.041153,0.176959,965.000000,808.000000,157.000000,10.000000,0.000000,0.000000,0.000000,0.000000,0.000000;
#CREDIT:;
#NOTES:
// measure 0
0000
0000
0000
0000
,  // measure 1
0000
0000
0000
0000
,  // measure 2
0000
0000
0000
0000
,  // measure 3
0000
0000
0000
0000
,  // measure 4
0000
0000
0000
0000
,  // measure 5
0000
0000
0000
0000
,  // measure 6
0000
0000
0000
0000
,  // measure 7
0000
0000
0000
0000
,  // measure 8
0000
1001
0010
0100
,  // measure 9
1000
0100
0000
0010
,  // measure 10
0010
0001
0100
0010
,  // measure 11
0100
1001
0000
0010
,  // measure 12
0010
0100
1000
0001
,  // measure 13
0001
0010
0100
0010
,  // measure 14
0100
0000
0100
0000
0001
0010
0001
0000
,  // measure 15
1000
1000
0100
0010
,  // measure 16
0010
0000
0000
0000
2001
0000
0000
0000
0000
0000
0000
0000
3010
0000
0000
0001
,  // measure 17
0000
0100
0000
1000
0000
1000
0000
0100
0000
0010
0000
0001
0000
0001
0000
0010
,  // measure 18
0000
0110
0000
1000
0000
1000
0000
0100
0000
0010
0000
0010
0000
0100
0000
0001
,  // measure 19
0000
1001
0000
0100
0000
0010
0000
1000
0000
1000
0000
0100
0001
0010
1000
0100
,  // measure 20
0010
0001
0000
0010
0100
1000
0000
0000
0010
0000
0000
0000
0011
0000
0000
0000
,  // measure 21
1000
0000
0100
0010
0001
0000
0100
0000
,  // measure 22
0110
0000
0001
0010
1000
0000
1000
0000
,  // measure 23
1001
0000
0010
0100
0010
0000
1000
0000
,  // measure 24
1001
0000
0010
0100
0001
0000
1001
0000
,  // measure 25
1001
0000
1000
0100
0010
0000
0001
0000
,  // measure 26
1001
0000
0010
0001
1000
0000
0100
0000
,  // measure 27
0110
0000
0001
0010
0100
0000
1000
0000
,  // measure 28
1010
0000
0001
0100
0010
0000
1001
0000
,  // measure 29
1001
0000
0010
0001
0100
0010
0100
0000
,  // measure 30
0110
0000
0001
0000
0010
0100
1000
0000
,  // measure 31
1001
0000
0001
0000
0010
0100
1000
0000
,  // measure 32
0010
0000
0110
0000
0001
0000
1000
0100
,  // measure 33
0001
0000
1001
0000
0100
0010
0100
0000
,  // measure 34
0010
0000
1010
0000
0010
0001
0100
0010
,  // measure 35
0100
0000
1010
0000
0100
0010
1000
0100
,  // measure 36
1000
1001
0000
0110
,  // measure 37
0010
1010
1000
1100
,  // measure 38
0010
0000
0100
0010
0100
0000
0001
0000
,  // measure 39
0011
0000
1000
0000
0100
0010
1000
0000
,  // measure 40
0010
0000
1010
0000
0100
1000
0100
0000
,  // measure 41
0001
0010
0011
1000
,  // measure 42
0100
0001
0100
0000
0010
0000
1010
0000
,  // measure 43
1000
0000
0001
1000
0010
0000
0100
0010
,  // measure 44
0100
0000
0110
0000
0001
0100
1000
0000
,  // measure 45
1001
0000
0100
0010
0100
0000
0110
0000
,  // measure 46
0001
0000
1000
0000
0100
0010
0100
0000
,  // measure 47
0010
1000
0100
0000
0001
0010
0001
0000
,  // measure 48
1000
0000
0100
0000
0010
0100
0010
0000
,  // measure 49
1000
0100
0001
0010
0100
0000
0010
0000
,  // measure 50
1001
0000
1000
0000
0010
0000
0100
0001
,  // measure 51
0010
0000
1000
0000
0010
0100
0010
0000
,  // measure 52
0011
0100
1100
0000
,  // measure 53
0020
0000
0030
0000
0100
0000
0010
0000
1000
0001
0000
0001
0000
1001
0000
1000
,  // measure 54
0000
0100
0001
0010
0001
0000
0000
1000
0000
1000
0000
0100
0010
0100
0000
0000
,  // measure 55
0001
0000
1000
0000
0010
0100
0001
0000
0000
0010
0000
0010
1000
0000
1000
0000
,  // measure 56
0000
0001
0000
0100
0010
1001
0000
0000
0100
1000
0000
1000
0000
0010
0100
0000
,  // measure 57
0001
0001
1001
0000
0000
0100
0000
0010
0000
0100
0000
1000
0000
0001
0000
0001
,  // measure 58
0000
0100
0000
0010
0100
1000
0000
0000
0001
0000
1001
0000
0100
0010
0000
1000
,  // measure 59
0000
1000
0000
0001
0000
0011
0000
0010
0000
0110
0000
0100
0000
0001
0001
0000
,  // measure 60
0010
1000
0000
1000
0000
0000
0100
0000
0110
0000
0001
1000
0010
0000
0010
0000
,  // measure 61
2000
3001
0001
0011
,  // measure 62
0010
0110
0100
1001
,  // measure 63
1100
0110
0000
0010
,  // measure 64
0010
1010
1000
1100
,  // measure 65
0010
0001
0000
0000
0000
0000
0100
0000
,  // measure 66
0110
0010
1000
1100
,  // measure 67
0001
0011
0000
0100
,  // measure 68
0110
0020
0032
0003
,  // measure 69
1000
0100
1000
0000
0110
0000
0001
0000
,  // measure 70
0011
0110
1100
1000
,  // measure 71
0010
0011
1001
0010
,  // measure 72
0100
0100
1001
1000
,  // measure 73
0100
0010
0100
0000
1000
0100
1000
0000
,  // measure 74
0010
0001
0110
1100
,  // measure 75
1010
0001
0101
0010
,  // measure 76
1100
1000
0010
0011
,  // measure 77
0100
0000
0010
0000
1000
0000
0000
0000
2000
0000
0000
0000
3001
0000
0000
0100
,  // measure 78
0000
0001
0000
0000
0000
0010
0000
0000
0000
0100
0000
0000
0010
0000
0000
0010
,  // measure 79
0000
0100
0000
1000
0000
0000
1000
0001
0000
0000
0001
0000
0000
0010
0000
0000
,  // measure 80
0010
0000
0000
0100
0000
1000
0000
0000
1000
0000
0000
0000
0001
0010
0100
1000
,  // measure 81
0100
0010
0001
0000
0100
0000
0100
0010
0000
1000
0100
1000
0010
0000
0000
0000
,  // measure 82
0011
0000
0100
1000
0010
0000
0001
1000
,  // measure 83
0001
0000
1010
0000
0100
1000
0010
0100
,  // measure 84
0000
0010
1001
0000
1000
0000
0100
1000
,  // measure 85
0010
0001
0110
0000
0100
0010
0000
0010
,  // measure 86
1000
0100
1001
0000
0011
0000
0001
0000
,  // measure 87
0010
0100
0010
0100
1000
0010
0001
1000
,  // measure 88
0001
0010
1000
0000
1100
0010
0001
0000
,  // measure 89
0010
0110
0110
0000
,  // measure 90
1100
0000
1010
0000
0001
0000
0100
0010
,  // measure 91
0000
1000
0001
0000
0011
0000
0110
0000
,  // measure 92
1100
1000
1010
0100
,  // measure 93
0001
1000
0011
0000
1000
0000
1010
0000
,  // measure 94
0010
0000
0100
0000
1000
0001
0000
0001
,  // measure 95
0100
0010
0100
0000
0010
0000
1000
0100
,  // measure 96
1000
0100
0011
0110
,  // measure 97
1100
0000
0000
0000
,  // measure 98
1001
0000
0000
1100
0000
1000
0000
0010
,  // measure 99
0100
0000
0100
0010
0000
0001
1100
0000
,  // measure 100
0100
1000
0011
0001
,  // measure 101
0100
1000
0000
1000
0000
0001
0000
0100
,  // measure 102
0010
0000
0100
1000
0010
0000
0010
0000
,  // measure 103
0001
1000
0000
0100
0001
0010
0001
0000
,  // measure 104
1000
0000
0100
0010
0001
0000
0001
0100
,  // measure 105
1000
0000
1000
0010
0000
0010
0001
0100
,  // measure 106
1000
0100
0011
1000
,  // measure 107
1100
0000
0110
0000
0000
1000
0001
0000
,  // measure 108
0010
0100
0000
0100
1000
0000
0001
0000
,  // measure 109
0011
0000
0110
0000
0000
1000
0010
1000
,  // measure 110
0000
0001
0000
0010
0100
0000
0010
0001
,  // measure 111
0000
0100
0000
1000
0010
0000
0100
0001
,  // measure 112
0000
0001
0000
0100
1000
0000
1000
0000
,  // measure 113
0010
0100
0000
0010
0001
0000
0100
1000
,  // measure 114
0010
0100
1001
0000
0001
0000
0011
0000
,  // measure 115
0110
0100
1100
1000
,  // measure 116
1001
0001
0011
0010
,  // measure 117
0110
0100
1100
1001
,  // measure 118
1001
0000
0100
0010
1000
0100
0001
0000
,  // measure 119
1001
0100
0000
0110
1000
0000
1010
0000
,  // measure 120
0010
0110
0011
1000
,  // measure 121
1100
1000
1001
0010
,  // measure 122
0110
0000
1000
0010
0001
0100
0010
0000
,  // measure 123
1010
0000
1100
0001
0100
0000
0110
0000
,  // measure 124
0010
0000
0011
1000
0001
0000
0101
0000
,  // measure 125
0100
0000
0110
0000
0010
0001
1010
0000
,  // measure 126
1000
0000
1100
0000
0010
0100
0010
1000
,  // measure 127
0010
0001
0011
0100
,  // measure 128
1100
0010
1010
0001
,  // measure 129
0100
0000
1100
0000
1000
0000
1001
0010
,  // measure 130
0100
0100
0010
0001
0100
1000
1001
0200
,  // measure 131
0000
0300
0010
1000
0010
0000
0100
0001
,  // measure 132
0100
0000
1000
0100
0001
0000
0010
0000
,  // measure 133
0100
0010
0100
0000
0001
0000
1000
0010
,  // measure 134
0100
0000
1000
0100
1000
0000
0010
0001
,  // measure 135
0100
0000
0001
1000
0001
0000
0010
0000
,  // measure 136
1000
0000
0100
0010
0100
0001
1000
0000
,  // measure 137
0010
0000
0001
1000
0001
0000
0100
0000
,  // measure 138
1000
0000
0010
0100
0010
0000
1001
0000
,  // measure 139
1100
0000
0020
0030
0001
1000
0100
0010
,  // measure 140
1000
0001
0010
0000
1000
0000
0010
1000
,  // measure 141
0001
0000
0100
0010
1000
0000
0010
0100
,  // measure 142
0010
0000
0001
0000
0100
0000
1000
0001
,  // measure 143
1000
0020
0030
0000
0001
1000
0001
0000
,  // measure 144
0100
0010
1000
0000
0010
1000
0001
0000
,  // measure 145
0100
0000
1000
0010
1000
0000
0001
1000
,  // measure 146
0010
0000
0100
0001
0100
0000
1000
0000
,  // measure 147
1001
0010
0100
0010
1000
0000
1100
0000
,  // measure 148
0110
0000
0011
0000
1001
0000
0010
0010
,  // measure 149
0000
0100
0010
0100
1001
0000
1001
0000
,  // measure 150
0110
0000
1001
0000
0010
0100
0010
0000
,  // measure 151
1010
0000
0001
0001
0011
0000
1010
0000
,  // measure 152
1100
0000
1010
0000
0110
0000
0001
1000
,  // measure 153
0001
0000
0010
0010
0000
0110
0000
1100
,  // measure 154
0000
0011
0100
0010
0100
0100
0010
0000
,  // measure 155
1001
0000
0010
0100
0010
0200
0300
0000
,  // measure 156
0110
0000
1100
0000
0100
0011
1000
0001
,  // measure 157
1000
0000
0010
0100
0010
0100
1000
0000
,  // measure 158
1100
0000
0110
0000
0001
0010
0001
0010
,  // measure 159
1000
0000
0100
0010
0100
0010
0000
0001
,  // measure 160
1000
0000
1001
0000
0011
0000
0100
0010
,  // measure 161
0100
1001
0000
0010
0100
0010
0100
0001
;
