#TITLE:Abyss;
#SUBTITLE:(sharp stepp remix);
#ARTIST:borzy;
#TITLETRANSLIT:;
#SUBTITLETRANSLIT:;
#ARTISTTRANSLIT:;
#GENRE:;
#CREDIT:PaperBox440;
#BANNER:Abyss (sharp stepp remix).png;
#BACKGROUND:Abyss (sharp stepp remix)-bg.png;
#LYRICSPATH:;
#CDTITLE:;
#MUSIC:Abyss (sharp stepp remix).mp3;
#OFFSET:0.000000;
#SAMPLESTART:12.685714;
#SAMPLELENGTH:10.285714;
#SELECTABLE:YES;
#BPMS:0.000000=175.000000
;
#STOPS:
;
#BGCHANGES:;
#KEYSOUNDS:;
#ATTACKS:;

//---------------dance-single - ----------------
#NOTES:
     dance-single:
     :
     Hard:
     15:
     0.771912,0.741976,0.549496,0.008326,0.199817,649.000000,583.000000,66.000000,1.000000,0.000000,0.000000,0.771912,0.741976,0.549496,0.008326,0.199817,649.000000,583.000000,66.000000,1.000000,0.000000,0.000000:
// measure 0
0000
0000
0000
0000
,  // measure 1
1000
1000
1000
0000
0000
0010
0100
0010
,  // measure 2
0010
0010
0001
0001
0001
1000
1100
0000
,  // measure 3
1100
0000
0000
1000
0000
0000
0100
0001
,  // measure 4
0001
0001
1000
1000
1000
0010
0100
0010
,  // measure 5
0001
0001
0001
0000
0010
0100
1000
1000
,  // measure 6
1000
0010
1000
1000
0001
0010
0001
0100
,  // measure 7
0100
0100
0001
0001
1000
1000
0010
0100
,  // measure 8
1000
0001
0000
0001
1000
0000
1000
0000
0100
0000
0010
0001
0010
0000
0100
0000
,  // measure 9
0000
0000
0000
0000
1001
0000
1000
0000
0010
0100
0010
0000
1000
0000
0100
0000
,  // measure 10
1000
0001
0001
0100
0100
0010
0010
1000
,  // measure 11
1001
0000
0000
0000
0100
0010
0100
0000
0001
0000
0001
0000
1000
0000
1000
0000
,  // measure 12
0010
0100
0010
0001
0001
1000
0100
1001
,  // measure 13
0000
0000
0010
0010
0100
1000
0001
0010
,  // measure 14
0001
0000
1000
0000
1000
0000
0100
0010
0100
0000
0001
0000
0010
0000
0001
0000
,  // measure 15
0100
0100
0110
0000
1001
0010
0110
0000
,  // measure 16
1100
0000
0001
0001
1001
0000
0010
0000
,  // measure 17
1001
0000
0000
0000
0000
0000
1000
0001
1000
0000
0010
0000
0010
0000
0100
0000
,  // measure 18
0001
0000
0010
0000
0100
0000
0010
1000
0010
0000
0000
0000
0001
0000
1000
0000
,  // measure 19
1001
0000
0010
0010
0100
0000
0100
1000
,  // measure 20
0001
0010
0001
0000
0100
0000
0010
0000
0100
0000
0001
0000
0001
0000
1000
0000
,  // measure 21
1100
0000
0010
0010
0010
0000
0100
0001
,  // measure 22
0100
0010
0010
1000
0100
1000
0001
0001
,  // measure 23
1100
0000
0010
0000
0001
0000
0000
0000
1000
0000
0000
1001
0000
0000
0100
0000
,  // measure 24
0010
0000
0000
0110
0000
0000
1000
0000
0000
1001
0000
0000
0110
0000
0001
0000
,  // measure 25
0000
0000
0000
1001
0000
1000
0001
1000
,  // measure 26
0010
0100
0010
0100
0001
0001
1000
0010
,  // measure 27
0110
0000
1001
0000
0100
0001
0010
0001
,  // measure 28
1000
0000
1000
0100
0010
0100
0001
0001
,  // measure 29
1100
0000
0001
1000
0100
1000
0001
0000
,  // measure 30
0010
0100
0100
0001
0000
0001
1100
0000
,  // measure 31
0010
0011
0000
1000
1100
0000
0000
0001
,  // measure 32
1001
0000
0010
0110
0000
0001
1000
1000
,  // measure 33
0001
0000
0000
0000
1001
0000
0000
0000
1000
0001
1000
0000
0000
0000
1001
0000
,  // measure 34
0000
0000
0010
0000
0000
0000
0100
0010
0100
0000
0001
0000
0001
0100
1000
0000
,  // measure 35
0000
0000
0001
0000
0001
0000
0010
0000
0100
0000
0010
0000
1000
0000
0000
1000
,  // measure 36
0001
0000
0000
0001
0000
0000
0000
0000
0001
0000
1000
0000
1001
0000
0000
0000
,  // measure 37
0100
0000
0000
0000
0110
0000
0000
0000
1000
0000
1000
0000
0001
0010
0000
0000
,  // measure 38
0110
0000
0000
0000
1000
0000
0000
1000
0000
0000
0100
0000
0000
0010
0000
0000
,  // measure 39
0110
0000
0000
0000
0001
0000
0001
0000
0010
0100
1000
0000
1000
0000
0000
0000
,  // measure 40
0010
0100
0001
1001
0000
0010
1100
0000
,  // measure 41
1000
0000
0001
1000
1000
0010
0000
0100
,  // measure 42
0110
0000
0000
0001
0001
1000
1000
0000
,  // measure 43
0110
0000
0000
0000
0001
1000
0001
0000
0000
0100
0010
0000
1000
0000
1000
0000
,  // measure 44
0010
0100
0000
0000
0100
0000
0001
1000
0001
0000
0010
0100
0000
0000
1001
0000
,  // measure 45
0000
0000
1100
0000
0001
0001
1000
0010
,  // measure 46
0110
0000
0000
1000
1000
0010
0001
0001
,  // measure 47
0100
0000
0010
0000
0000
0100
1000
0000
0001
0000
0000
0001
1000
0000
1000
0000
,  // measure 48
0100
0000
0010
0000
0100
0001
0000
0000
0001
0000
0000
0000
1000
0001
1000
0000
,  // measure 49
0000
0001
1001
1000
0000
0001
0010
0010
,  // measure 50
0100
0000
0100
0000
0100
0001
0010
0000
0000
0000
0000
0000
1000
0010
0100
0000
,  // measure 51
0100
0010
0010
0001
1001
0000
1000
1000
,  // measure 52
0001
0000
0010
0000
0100
0000
0001
0000
0001
0010
1000
0000
1000
0000
0100
0000
,  // measure 53
0110
0000
0000
0000
1000
0000
0000
0000
0001
1000
0001
0000
0010
0000
0100
0000
,  // measure 54
0100
0000
1001
0000
0100
0010
0010
1100
,  // measure 55
0000
0010
1000
0001
0001
0010
0100
0100
,  // measure 56
0000
0000
1000
0001
1000
0000
0100
0010
0100
0000
0010
0100
1000
0000
0001
0000
,  // measure 57
0000
1001
0000
0010
0010
0001
0100
0100
,  // measure 58
1000
0000
1001
0000
0010
0100
0001
0001
,  // measure 59
1000
1000
0000
0001
0100
0010
0010
1000
,  // measure 60
0100
1000
0001
0000
0001
0100
0010
0100
,  // measure 61
0001
0001
1000
1000
0010
0001
0001
0001
,  // measure 62
0100
0010
0100
0001
0001
1000
0100
1000
,  // measure 63
0110
0000
0010
0001
1100
1000
0001
0001
,  // measure 64
0100
0010
0100
0001
0001
1000
1000
0000
,  // measure 65
1001
0000
0000
0000
0010
0000
0000
0010
0100
0000
0000
0100
0001
0000
0000
0001
,  // measure 66
1000
0000
0000
1000
0010
0000
0100
0000
0000
0100
0010
0000
0001
0000
0000
0001
,  // measure 67
1000
0000
0000
1000
0000
0000
0001
0000
0001
0000
1000
0000
0001
0000
0000
0000
,  // measure 68
0001
0100
0010
0100
0001
0001
0001
1000
,  // measure 69
1100
0000
0010
0010
0100
0010
0100
0000
,  // measure 70
0001
0001
1000
0000
0010
0100
0010
1000
,  // measure 71
1001
0000
1000
1000
0001
0100
0010
0100
,  // measure 72
0010
1000
0100
1000
0001
0010
0010
0001
,  // measure 73
1100
0000
1001
0000
1100
0000
1001
0010
,  // measure 74
0011
1000
1100
0000
1010
0001
0011
0000
,  // measure 75
1100
0000
0001
0001
0100
0010
0010
1000
,  // measure 76
0100
1000
0001
0001
0010
0100
0010
0100
,  // measure 77
1000
0000
0000
0001
0001
1000
0100
1000
,  // measure 78
0000
0100
1000
0001
0010
0001
0100
0100
,  // measure 79
0110
0000
0001
0001
0001
1000
0100
1000
,  // measure 80
0010
0010
0100
0001
0010
1000
1001
0000
,  // measure 81
0100
0010
0100
0000
0100
0001
0001
1000
,  // measure 82
1000
0000
0001
0000
0001
0010
0100
1000
0000
0010
0100
0010
0001
0000
0002
0000
,  // measure 83
0003
1000
1000
0010
0100
1000
0001
0001
,  // measure 84
0100
0010
0100
0001
0011
1000
1100
1001
;
