#VERSION:0.83;
#TITLE:AM-3P (Extended Mix);
#SUBTITLE:;
#ARTIST:kTz;
#TITLETRANSLIT:;
#SUBTITLETRANSLIT:;
#ARTISTTRANSLIT:;
#GENRE:;
#ORIGIN:;
#CREDIT:PaperBox440;
#BANNER:AM-3P full.png;
#BACKGROUND:AM-3P full-bg.png;
#PREVIEWVID:;
#JACKET:AM-3P full-jacket.png;
#CDIMAGE:;
#DISCIMAGE:;
#LYRICSPATH:;
#CDTITLE:cdtitle.png;
#MUSIC:AM-3P full.mp3;
#OFFSET:0.000000;
#SAMPLESTART:100.040672;
#SAMPLELENGTH:12.000000;
#SELECTABLE:YES;
#BPMS:0.000=130.000;
#STOPS:;
#DELAYS:;
#WARPS:;
#TIMESIGNATURES:0.000=4=4;
#TICKCOUNTS:0.000=4;
#COMBOS:0.000=1;
#SPEEDS:0.000=1.000=0.000=0;
#SCROLLS:0.000=1.000;
#FAKES:;
#LABELS:0.000=Song Start;
#BGCHANGES:;
#KEYSOUNDS:;
#ATTACKS:
;

//---------------dance-single - ----------------
#NOTEDATA:;
#CHARTNAME:;
#STEPSTYPE:dance-single;
#DESCRIPTION:;
#CHARTSTYLE:;
#DIFFICULTY:Challenge;
#METER:16;
#RADARVALUES:0.952009,0.994592,1.029071,0.950231,1.319535,1606.000000,1327.000000,248.000000,229.000000,26.000000,36.000000,0.000000,0.000000,0.000000,0.952009,0.994592,1.029071,0.950231,1.319535,1606.000000,1327.000000,248.000000,229.000000,26.000000,36.000000,0.000000,0.000000,0.000000;
#CREDIT:;
#NOTES:
// measure 0
0000
0000
0000
0000
0000
0010
0200
0020
,  // measure 1
0300
0000
1030
0001
0200
0000
0310
0000
1000
0100
1000
0020
0000
0130
0000
0002
,  // measure 2
0000
1003
0010
0000
0200
0000
0310
0000
1000
0100
0000
1000
0010
0200
0000
0301
,  // measure 3
0020
0100
0000
0100
1030
0000
0100
0001
0010
0001
1000
0000
0010
0100
0000
1000
,  // measure 4
0010
0100
0010
0100
0010
0100
0010
0000
2200
3300
0000
0110
0000
0000
1010
0000
,  // measure 5
0101
0000
0011
0000
1010
0100
0000
0011
1000
0000
1100
0000
0010
0000
0110
0000
,  // measure 6
1000
0022
0033
0000
0000
0000
1100
0000
0010
1001
0000
0010
0100
0000
1010
0000
,  // measure 7
0100
0000
0011
0000
1000
0110
0000
0010
0000
0011
1000
0000
1100
0000
0010
0000
,  // measure 8
1000
0202
0303
0000
0000
1000
0010
0100
0000
0010
0001
0000
1001
0000
0100
0001
,  // measure 9
0100
1000
0100
1000
0100
0010
0100
0010
0100
0000
1000
0010
1000
0010
0001
0010
,  // measure 10
0001
0010
0001
0010
0100
0010
0100
0010
0000
1000
0000
1000
0000
1000
0010
1000
,  // measure 11
0010
1000
0010
1000
0001
1000
0010
1000
0100
1000
0000
0010
0000
0100
0000
0022
,  // measure 12
0033
0000
1000
0010
0100
0001
0000
1001
0000
0100
0010
0000
0011
0000
0010
0100
,  // measure 13
0001
1000
0000
1100
0010
0000
0101
0000
0010
1000
0000
1100
0000
1001
0000
1010
,  // measure 14
0000
0110
0000
0000
0120
0000
0130
0000
2100
3000
0100
0000
0120
0000
0130
0000
,  // measure 15
0102
0000
0103
0000
2100
0000
3100
0000
0220
0000
0330
0000
1000
0100
1000
0001
,  // measure 16
0010
0001
0100
0010
0100
0000
1000
0000
1100
0000
1000
0001
0000
0011
0000
0001
,  // measure 17
0000
2100
0010
0000
3000
0001
0000
0120
0000
0001
0030
0000
1100
0001
0010
0000
,  // measure 18
0110
0000
1000
0102
1000
0003
0010
0000
0120
0000
1030
0000
1200
0000
1300
0000
,  // measure 19
1000
0020
0130
0002
0000
1003
0010
0100
0000
2000
0010
3010
0000
0002
0000
0013
,  // measure 20
0000
0100
1000
0000
1200
0000
0310
0000
0011
1000
0100
0000
1000
0011
0100
0001
,  // measure 21
2000
0000
3010
0000
0201
0000
0301
0000
2000
3010
0000
0200
0010
0000
0010
0000
,  // measure 22
1300
0000
0011
0000
1100
0010
0001
0200
0000
0310
0000
1000
0000
1000
0200
0000
,  // measure 23
0310
0000
0001
0010
0001
1000
0200
0000
0320
0000
2030
3002
0000
0013
0000
0100
,  // measure 24
0020
0000
1030
0000
2100
0000
3100
0000
0100
0000
0020
0000
0130
0000
2000
3100
,  // measure 25
0000
0010
0002
0103
1000
0010
0100
0001
0001
1000
0100
1000
0010
0000
0110
0001
,  // measure 26
0000
1100
0010
0000
0101
0000
1000
0100
0000
0011
0100
0001
1000
0200
0000
0310
,  // measure 27
0000
1000
0210
0000
0310
0000
0011
0000
0110
0000
1000
0100
1000
0020
0000
0130
,  // measure 28
0000
0002
0000
1003
0000
0200
0320
0000
2030
0000
3002
0000
0000
1003
0000
0100
,  // measure 29
0010
0100
0001
1000
0100
1000
0100
1000
0100
1000
0100
0020
0030
0002
2003
3000
,  // measure 30
0010
0100
0001
0010
0001
1000
0100
0011
0100
0000
2200
0000
3300
0010
0100
0001
,  // measure 31
0000
2000
0000
3010
0000
0100
0001
0002
0000
1003
0100
0020
0000
0130
0000
0001
,  // measure 32
2000
0000
3100
0000
1000
0200
0320
0002
0030
0003
0010
0100
0010
0100
0010
0100
,  // measure 33
0010
0100
0010
0100
0010
0000
1100
0000
1010
0000
0101
0000
0011
1000
0100
0010
,  // measure 34
1000
0102
0003
1010
0200
0300
0010
0100
0001
0000
0011
0000
1000
0100
1000
0010
,  // measure 35
0200
0000
0301
0010
0000
1001
0100
0000
0010
1000
0200
0000
0301
0020
0000
0130
,  // measure 36
0000
0011
0000
1100
0000
1010
0000
0200
0000
0301
0000
0000
1011
0000
0100
0010
,  // measure 37
0000
0100
0001
0000
1110
0000
0000
0M01
10M0
0001
1000
0001
0000
0010
0100
0001
,  // measure 38
1000
0010
0000
1100
0000
0001
0010
0100
0010
1000
0000
1000
000M
1100
0000
0020
,  // measure 39
010M
0000
1030
0000
0110
0000
0001
0010
1000
0000
1101
0000
0010
0100
0000
0001
,  // measure 40
1000
0010
0100
0000
1011
0000
0100
0010
010M
0000
1000
0000
1111
0000
1111
0000
,  // measure 41
0000
0100
M010
0100
0001
0000
0011
1000
0100
0000
100M
1000
0010
0100
0001
0020
,  // measure 42
0000
0130
0000
2000
000M
3100
0000
0010
0200
0000
0302
0000
1003
0010
0100
0000
,  // measure 43
0000
1011
0200
0000
0310
0000
1000
0001
0110
0000
M120
0000
0130
0000
1002
0000
,  // measure 44
1003
0000
1111
0000
MMMM
0000
0010
0100
1000
0100
1000
0001
0010
0000
M010
0200
,  // measure 45
0000
0310
0000
2000
0001
0000
3001
0000
1110
0000
0100
0001
0020
0100
0000
0130
,  // measure 46
000M
0000
1010
0000
1200
0000
1300
0000
002M
0100
0000
0130
0000
0000
0002
1003
,  // measure 47
0000
0000
0000
0100
0000
0000
0010
0000
0000
1000
0000
0000
0000
0000
0000
1011
0000
0000
0000
0000
0000
0100
0000
0000
0000
0000
000M
0010
0000
0000
0100
0000
0000
0000
0000
0000
1011
0000
0000
0000
0000
0000
0100
0000
0000
0010
0000
0000
,  // measure 48
0100
0001
0000
1010
0000
0100
0001
0000
0011
1000
0000
0210
0000
0010
M001
0310
,  // measure 49
0000
0000
1111
0000
0000
2100
0000
0100
3000
0000
0010
0100
0010
1000
0010
1000
,  // measure 50
0010
0001
0010
0001
0010
0100
0010
0100
0010
0000
1000
0000
1100
0000
1000
0010
,  // measure 51
0000
0011
0000
0010
0100
0000
1100
0000
0100
0000
1100
0000
0011
0000
0001
0000
,  // measure 52
0011
0000
0001
0000
0000
1000
0000
1010
0000
1100
0000
1000
0000
1010
0000
1100
,  // measure 53
0000
0000
0010
0100
0010
0000
1001
0000
1100
0000
1010
0000
1100
0000
1001
0000
,  // measure 54
1100
0000
1010
0000
1100
0000
0000
0010
0100
0010
0100
0010
0000
0001
1000
0100
,  // measure 55
1000
0010
0000
0010
0000
0010
0000
0100
0000
0101
0000
1100
0000
0010
0000
0100
,  // measure 56
0001
0010
0000
0001
0000
0101
0000
0001
0000
1001
0000
0200
0000
0311
0000
2000
,  // measure 57
0000
3101
0000
0020
0000
1031
0000
0000
MMMM
0000
0100
0020
0000
0130
0000
2000
,  // measure 58
0000
3011
0000
0100
0010
0000
0100
0001
1010
0000
1100
0000
0021
0230
0000
0302
,  // measure 59
0000
2003
0000
3110
0000
0020
0001
0130
0000
2002
3003
0100
0010
0100
0001
1000
,  // measure 60
0100
1000
0010
0100
0010
0000
0000
0001
0010
0001
0000
1000
0100
0000
0110
0000
,  // measure 61
0100
0011
0000
1000
0100
1000
0010
0100
0001
0000
0001
0000
1100
0010
0100
0001
,  // measure 62
0000
0011
0000
1000
0100
1000
0010
0000
0100
0001
0010
1000
0100
1000
0010
0200
,  // measure 63
0300
0020
0031
1000
0100
0000
0010
0100
0010
1000
0001
0000
0011
0000
0001
0000
,  // measure 64
1101
0000
1100
0000
1010
0000
1100
0000
0010
0100
0001
0010
2000
0000
3100
0001
,  // measure 65
0010
0000
0210
0000
0310
0000
0000
2000
0000
3100
0000
0020
0031
2000
3100
0020
,  // measure 66
0130
0002
0013
2000
3200
0320
0000
0230
0301
0000
2200
0000
3311
0000
0000
0020
,  // measure 67
0130
0002
0000
1003
0200
0320
0000
0031
2000
0000
3101
0000
0020
0130
0002
1003
,  // measure 68
0000
2100
0000
3100
0020
0030
0200
0301
0000
2000
0000
0010
3010
0000
0000
0100
,  // measure 69
0001
0000
0010
0001
1000
0100
1000
0000
1011
0000
1000
0000
2200
0011
0000
3311
,  // measure 70
0000
0000
0100
0010
0100
0001
1000
0000
0010
0100
0001
1000
0100
0010
0000
0100
,  // measure 71
0001
0010
0001
1000
0100
0010
0100
0001
1000
0010
0100
0001
0020
0000
1130
0000
,  // measure 72
0000
0001
0100
0000
1100
0010
0100
0001
0000
0010
1000
0100
1000
0000
0011
0100
,  // measure 73
0010
1000
0000
1100
0000
1100
0010
0000
0020
0000
0000
0000
0030
0000
0000
0100
,  // measure 74
0010
1000
0100
1000
0001
0010
0100
0001
1000
0100
0010
0100
0001
0000
0010
1000
,  // measure 75
0000
0100
1000
0000
1020
0000
0130
0000
2100
0000
3100
0000
0201
0000
0301
0000
,  // measure 76
0021
0000
0130
0000
2100
0000
3100
0000
0000
0010
0100
0010
0001
0000
0001
0000
,  // measure 77
0001
1000
0100
1000
0100
1000
0010
0000
0010
0000
0000
0110
0000
1010
0000
0101
,  // measure 78
0000
0011
0000
1100
0000
1011
0000
0110
0000
1001
0000
0111
0000
1100
0000
1010
,  // measure 79
0000
0101
0000
1111
0000
0000
0100
0011
0100
0011
0100
0000
0000
1000
0100
1000
,  // measure 80
0010
0100
0001
0010
0100
0002
0000
1003
0000
1100
0000
1100
0000
0000
0010
0100
,  // measure 81
0001
1000
0010
0100
0001
1000
0200
1000
0300
0000
0010
0000
0011
0000
0010
0000
,  // measure 82
0100
0000
1100
0000
0100
0000
1100
0000
0100
0000
0000
0010
0001
1000
0100
0010
,  // measure 83
0100
0001
0000
1000
0000
1100
0000
1000
0000
0010
0100
0001
0000
1010
0000
1000
,  // measure 84
0100
0010
0100
0001
0000
0001
0000
2100
0000
3100
0000
0021
0000
0031
0000
0210
,  // measure 85
0000
0310
0000
0000
1020
0000
1000
0000
1030
0000
1000
0100
1000
0000
0010
0100
,  // measure 86
0001
0010
1000
0100
0000
0011
0000
0100
0000
1000
0100
1000
0020
0200
0330
0001
,  // measure 87
1000
0001
1000
0000
0010
0100
0010
0100
0010
0000
1000
0000
1000
0100
0000
0010
,  // measure 88
0100
0000
1010
0000
0100
0001
0000
0011
0000
0001
0000
2000
0000
3100
0000
0020
,  // measure 89
0000
0130
0000
0002
0000
0013
0000
1000
0100
1000
0010
0100
0001
0000
1011
0000
,  // measure 90
0100
0010
0100
0000
0011
0000
1200
0000
1300
0000
1000
0000
0020
0130
0000
0002
,  // measure 91
1003
0200
0000
0310
0000
0000
1000
0100
0000
0110
0000
0001
0000
0011
0000
0011
,  // measure 92
0000
0000
1000
0100
1000
0010
0100
0001
0000
0110
0000
1000
0100
0000
0111
0000
,  // measure 93
1110
0000
0111
0000
1101
0000
0000
1111
0000
0000
0200
0000
0310
0000
2000
0000
,  // measure 94
3001
0010
0100
0002
0013
2000
0000
3100
0000
0010
0100
0001
0002
0000
1003
0100
,  // measure 95
0010
0100
0000
0020
0000
2030
3000
0200
0000
0301
0000
0010
0100
0000
0001
1000
,  // measure 96
0000
1200
0000
1300
0000
0010
0100
0001
0000
1001
0100
0010
0100
1000
0000
2000
,  // measure 97
0000
3100
0010
0002
0000
0013
0100
0010
2000
0000
3100
0000
0001
0000
0011
0000
,  // measure 98
1000
0100
1000
0010
0200
0000
0301
0000
0021
0000
0031
0000
2000
0000
3100
0000
,  // measure 99
1010
0000
0100
0002
0013
0000
0100
1000
0020
0130
0002
0000
1003
0010
0200
0000
,  // measure 100
0302
0003
2000
3010
0000
0200
0000
0301
0000
2000
3010
0000
0010
0000
0100
0010
,  // measure 101
0100
0001
1000
0100
1000
0010
0000
0202
0000
0303
1000
0100
1000
0010
0000
0100
,  // measure 102
0001
0000
0010
0200
0000
0310
0000
2100
0000
3100
0000
0012
0000
0013
0000
2000
,  // measure 103
0000
3100
0000
0010
0200
0000
0300
0011
1000
0100
1000
0010
0000
0100
0001
0000
,  // measure 104
1001
0000
0100
0020
0000
0130
0000
1002
0000
1003
0000
0220
0000
0000
1331
0000
,  // measure 105
0000
0100
0010
0100
0001
1000
0100
1000
0010
0000
0010
0000
0010
0000
0100
0000
,  // measure 106
0100
1000
0100
1000
0010
0000
0001
0000
0011
0000
0011
0000
1010
0000
0110
0000
,  // measure 107
0220
0000
0000
0000
0330
0000
0000
1000
0100
1000
0010
0100
0001
0010
0001
0100
,  // measure 108
0010
0100
1000
0000
1000
0100
0020
0130
0001
0010
1000
0000
1100
0000
1010
0000
,  // measure 109
0100
0000
0000
0001
0000
0000
0010
0000
0000
0001
0000
0000
0000
0000
0000
1000
0000
0000
0010
0000
0000
0100
0000
0000
0010
0000
0000
0100
0000
0000
0010
0000
0000
0000
0000
0000
2200
0000
0000
0000
3300
0000
0011
0000
0000
0000
0000
0000
,  // measure 110
0100
0010
0100
0001
1000
0100
1000
0010
0100
0001
1000
0010
0000
0010
0100
0000
,  // measure 111
0001
1000
0200
1000
0310
0000
0010
0100
0001
0000
0001
1000
1000
1000
0000
0000
,  // measure 112
0010
0100
0001
1000
0100
1000
0010
0000
0001
0100
0010
0100
0000
1000
0100
0001
,  // measure 113
0010
0200
0000
0310
0000
2000
0000
3001
0020
0000
0000
0100
0000
0130
0000
0110
,  // measure 114
0000
0000
1000
0100
1000
0001
0010
0100
0001
0000
0001
1000
0100
0000
1010
0000
,  // measure 115
0200
0000
0320
0000
1030
0000
0000
0000
0000
0100
0010
0100
0001
0000
0001
0000
,  // measure 116
0001
0000
1000
0100
1000
0010
0000
0100
0001
0000
0010
0000
0100
0001
0000
0001
,  // measure 117
0000
1100
0000
1100
0000
1000
0210
0000
0310
0000
0012
0000
0013
0000
2010
0000
,  // measure 118
3010
0000
0012
0000
0013
0000
0210
0000
0310
0000
0000
1200
0000
1300
0000
1002
,  // measure 119
0000
1003
0000
1020
0000
1030
0000
1200
0000
1300
0000
0000
0010
0200
0302
0000
,  // measure 120
1003
0000
1010
0000
1200
0000
1300
0000
0000
0020
0130
0000
0001
1000
0200
1300
,  // measure 121
0000
0010
0000
0010
0000
0000
0100
0010
0100
0001
0000
1100
0000
0010
0100
0000
,  // measure 122
0001
0000
1022
0000
0033
0000
0100
0000
0010
0000
0110
0000
0000
1000
0100
1000
,  // measure 123
0001
0000
0010
0100
0000
0001
0000
1000
0200
0000
0310
0000
2000
0000
3001
0000
,  // measure 124
0021
0000
0031
0000
1000
0100
1000
0010
0000
0100
0000
0010
0010
0000
0001
1000
,  // measure 125
0100
0000
0000
0000
0000
0000
1000
0000
0000
0020
0000
0000
0000
0000
0000
0130
0000
0000
0000
0000
0000
0002
0000
0000
0000
0000
0000
1003
0000
0000
0000
0000
0000
0020
0000
0000
0000
0000
0000
0100
0000
0000
0000
0000
0030
0000
0000
0000
,  // measure 126
0000
1100
0000
0000
1010
0000
0101
0000
0000
0011
1000
0000
0000
0111
0000
0000
,  // measure 127
1000
0100
1000
0000
0010
0200
0310
0000
1001
0000
0002
0000
0203
0000
2300
0000
,  // measure 128
3020
0100
0032
1000
0203
0010
2300
0001
3020
0000
0230
0000
0300
0000
1010
0000
,  // measure 129
0110
0000
0101
0000
0011
1100
0000
1100
0000
MMMM
0000
0000
0000
0000
0000
0000
;
