#VERSION:0.83;
#TITLE:AKATSUKI;
#SUBTITLE:;
#ARTIST:NAOKI underground;
#TITLETRANSLIT:;
#SUBTITLETRANSLIT:;
#ARTISTTRANSLIT:;
#GENRE:;
#ORIGIN:;
#CREDIT:;
#BANNER:AKATSUKI.png;
#BACKGROUND:AKATSUKI-bg.png;
#PREVIEWVID:;
#JACKET:AKATSUKI-jacket.png;
#CDIMAGE:;
#DISCIMAGE:;
#LYRICSPATH:;
#CDTITLE:cdtitle.png;
#MUSIC:AKATSUKI.mp3;
#OFFSET:0.000000;
#SAMPLESTART:1.714286;
#SAMPLELENGTH:13.285715;
#SELECTABLE:YES;
#BPMS:0.000=140.000;
#STOPS:;
#DELAYS:;
#WARPS:;
#TIMESIGNATURES:0.000=4=4;
#TICKCOUNTS:0.000=4;
#COMBOS:0.000=1;
#SPEEDS:0.000=1.000=0.000=0;
#SCROLLS:0.000=1.000;
#FAKES:;
#LABELS:0.000=Song Start;
#BGCHANGES:;
#KEYSOUNDS:;
#ATTACKS:
;

//---------------dance-single - ----------------
#NOTEDATA:;
#CHARTNAME:;
#STEPSTYPE:dance-single;
#DESCRIPTION:;
#CHARTSTYLE:;
#DIFFICULTY:Hard;
#METER:10;
#RADARVALUES:0.477907,0.511880,0.352142,0.018534,0.050968,361.000000,323.000000,38.000000,2.000000,0.000000,0.000000,0.000000,0.000000,0.000000,0.477907,0.511880,0.352142,0.018534,0.050968,361.000000,323.000000,38.000000,2.000000,0.000000,0.000000,0.000000,0.000000,0.000000;
#CREDIT:;
#NOTES:
0000
0000
0000
0000
,
0000
0000
0000
0000
,
0000
0000
0000
0000
,
0000
0000
0000
0000
,
0000
0000
0000
0000
,
1000
0000
1000
0010
0000
0010
0100
0000
,
0010
0100
0001
0000
1000
0000
0001
0010
,
0100
0010
1000
0000
1000
0100
0010
0000
,
0100
0100
0100
0010
0010
0000
0001
0010
,
0100
0000
0100
0010
0000
0010
0000
0100
,
0000
1000
0100
1000
0001
0000
0001
0100
,
0010
0100
1000
0000
1001
0000
0000
0010
,
0100
0000
0010
0001
1000
0000
0001
0100
,
0000
0100
0010
0010
0000
0001
1000
0100
,
0000
0100
0010
0001
0000
0010
0001
1000
,
0000
1000
0100
0000
0110
0000
1000
0010
,
0002
0000
0000
0000
0000
0000
1000
1003
,
0000
1001
0000
0010
0100
0010
0000
1000
,
0000
1000
0010
0100
0001
0001
1000
0100
,
0000
1000
0010
0000
0010
0100
0001
1000
,
0000
1000
0100
0010
0000
0100
0001
0000
,
1001
0000
0100
1000
0010
0100
0010
0100
,
0000
0001
0100
1000
0000
1000
0001
0000
,
1001
0001
0110
0100
,
1100
0011
0001
1001
,
0010
0100
0100
0001
1000
0100
0010
0100
,
0000
0010
0000
0001
0100
0000
0100
1000
,
0010
0000
0010
0001
0001
0100
1000
0000
,
1000
0001
0010
0000
0100
0010
0001
1000
,
1000
0100
0000
0010
0001
0000
0100
0100
,
0010
0000
0001
0100
0000
0100
1000
0000
,
1001
1010
1100
0110
,
0001
0001
0010
0100
0100
1000
0010
0100
,
0100
0001
0010
1000
0001
1000
0000
0100
,
0010
0010
0000
0001
0000
0100
0000
1000
,
1000
0000
0010
0001
0000
0001
0100
0100
,
0010
0000
0010
1000
1000
0010
0010
0000
,
1001
0000
1000
0001
1000
0100
0010
0100
,
0000
0001
0010
0000
1000
1000
0100
0000
,
0110
0000
0010
0000
0001
0100
0100
0000
,
1000
0010
0001
0000
0001
0100
0100
0000
,
1001
0000
0010
0100
0000
0100
1000
0000
,
0110
0000
0001
0001
0100
0100
1000
0000
,
1001
0000
1000
0000
0110
0000
1000
0010
,
0000
0100
0010
0001
0001
1000
1000
0000
,
0110
0000
0000
0000
0001
1000
0001
0000
0010
0000
0000
0000
0100
0000
1000
0000
,
0001
0000
1000
0000
0010
0000
0000
0000
0110
0000
0000
0000
0100
0010
0100
0000
,
0100
0000
0010
0001
1000
0010
0010
0000
,
0100
0000
0000
0000
0110
0000
0000
0000
0100
0000
0000
0000
0001
1000
0001
1000
,
0000
0010
0000
0000
0110
0000
0000
0000
0001
0000
0001
0000
1000
0000
0000
0000
,
1000
0000
0001
0000
0100
0000
0010
0000
0100
0000
0000
0000
0010
0100
0010
0100
,
0000
0000
1000
0000
0001
0000
0010
0000
0010
1000
0000
0000
1001
0000
0000
0100
,
0000
0000
0010
0000
1000
0000
1000
0000
0000
0000
0001
0010
0100
1000
0000
0000
,
0110
0000
1000
1000
0000
0100
0000
1000
,
0010
0001
0000
0001
0100
0000
0100
0010
,
0000
0101
0000
0100
1000
0000
1001
0000
,
0010
0000
1010
0000
0100
0100
0011
0000
,
1000
1001
0000
0010
0000
0100
0110
0000
,
0001
0000
1001
0000
0100
0000
1001
0010
,
0010
0110
0000
0000
1001
0000
0010
0000
,
1100
0000
0110
0000
0001
1000
1001
0000
,
0002
0000
0000
1003
0000
0000
0000
0000
;

//---------------dance-single - ----------------
#NOTEDATA:;
#CHARTNAME:;
#STEPSTYPE:dance-single;
#DESCRIPTION:;
#CHARTSTYLE:;
#DIFFICULTY:Medium;
#METER:8;
#RADARVALUES:0.401124,0.455005,0.379943,0.018534,0.000000,303.000000,262.000000,41.000000,2.000000,0.000000,0.000000,0.000000,0.000000,0.000000,0.401124,0.455005,0.379943,0.018534,0.000000,303.000000,262.000000,41.000000,2.000000,0.000000,0.000000,0.000000,0.000000,0.000000;
#CREDIT:;
#NOTES:
0000
0000
0000
0000
,
0000
0000
0000
0000
,
0000
0000
0000
0000
,
0000
0000
0000
0000
,
0000
0000
0000
0000
,
0001
1001
1000
1001
,
0010
0110
1000
1001
,
0010
0110
0100
1100
,
1000
0000
1001
0000
0010
0100
0010
0000
,
1001
0000
1000
0100
0000
0100
0001
0000
,
0010
0001
0100
0000
0100
0010
0000
1000
,
0000
1000
0010
0000
0010
0000
0000
1000
,
0001
0000
0001
0100
0010
0000
0010
1000
,
0000
1001
0000
0001
0010
0000
0010
0000
,
0010
1000
0000
1000
0001
0000
0001
0000
,
0010
0000
0010
0100
1000
0000
1000
0000
,
0002
0000
0000
0003
,
1001
0000
1001
0000
0010
0100
0010
0000
,
1000
0000
0100
0010
0000
0001
1000
0000
,
1000
0000
0010
0000
0100
0010
0000
0010
,
0001
0000
0100
1000
0000
1000
0010
0000
,
0110
0000
0001
0000
0100
0000
0010
0001
,
0000
0001
0100
1000
0000
1000
0000
0000
,
1001
0000
0001
0010
0000
0110
0000
0100
,
0000
1100
0000
1001
0000
0000
0110
0000
,
0110
0000
0001
0010
1000
0000
1000
0010
,
0000
0100
0000
0100
0001
0000
0001
1000
,
0001
0000
1000
0000
0010
0000
0010
0100
,
0010
0000
0100
0000
1000
0000
1000
0001
,
1000
0000
0100
0000
0010
0000
0010
0100
,
0010
0000
0000
0000
,
0011
0110
1010
0100
,
0001
0001
0010
0100
1000
0100
0000
0010
,
0110
0001
0001
0010
,
1000
0000
0010
0010
0000
0100
1000
0001
,
0000
0001
0000
1000
1000
0000
0010
0000
,
0100
0000
0010
0010
0000
1000
0000
0000
,
0110
0000
0001
1000
0001
0000
0001
0000
,
0010
0100
0010
0000
0001
0000
1000
0000
,
1001
0100
0100
0010
,
1000
1000
0001
0010
0100
1000
1000
0000
,
0110
0000
0001
0010
0100
0000
1000
0000
,
1001
0000
1000
0100
0010
0000
0001
0000
,
1001
0010
0110
1000
,
0010
0010
0001
0010
0100
1000
1000
0000
,
1001
0010
0010
0100
,
0100
0000
0001
0000
0001
0010
0100
0000
,
0010
1000
0000
1000
0001
0000
0001
0000
,
0010
0000
0010
0100
0000
0100
0000
0100
,
0000
1001
0000
0010
0000
1000
0000
0001
,
0010
0000
0100
0010
0000
0001
1000
0000
,
0001
0100
0000
0010
0000
0100
1000
0001
,
0000
0010
0000
0001
1000
0000
1000
0000
,
0110
0000
0010
0000
0010
0100
0000
1000
,
0001
0000
0001
0010
0100
0000
0010
1000
,
0000
1001
0000
0010
0000
0001
0100
0000
,
0100
0010
0000
0001
1000
0000
1000
0000
,
0110
0000
1000
0001
0000
0001
0000
0110
,
0000
0000
1001
0000
0000
0000
1010
0010
,
0100
0110
1001
0000
,
1100
0110
0001
1001
,
0020
0000
0000
0030
0000
0000
0000
0000
;

//---------------dance-single - ----------------
#NOTEDATA:;
#CHARTNAME:;
#STEPSTYPE:dance-single;
#DESCRIPTION:;
#CHARTSTYLE:;
#DIFFICULTY:Beginner;
#METER:4;
#RADARVALUES:0.244911,0.339168,0.240939,0.009267,0.000000,185.000000,159.000000,26.000000,1.000000,0.000000,0.000000,0.000000,0.000000,0.000000,0.244911,0.339168,0.240939,0.009267,0.000000,185.000000,159.000000,26.000000,1.000000,0.000000,0.000000,0.000000,0.000000,0.000000;
#CREDIT:;
#NOTES:
// measure 0
0000
0000
0000
0000
,  // measure 1
0000
0000
0000
0000
,  // measure 2
0000
0000
0000
0000
,  // measure 3
0000
0000
0000
0000
,  // measure 4
0000
0000
0000
0000
,  // measure 5
1000
1000
0000
0100
,  // measure 6
0001
0000
0001
1000
,  // measure 7
0000
0010
0100
0001
,  // measure 8
1000
0000
0001
0001
,  // measure 9
0001
0000
0001
1000
,  // measure 10
0000
0100
0010
0000
,  // measure 11
0100
0000
1000
1000
,  // measure 12
0001
0001
1000
0000
,  // measure 13
0010
0110
0000
1000
,  // measure 14
0001
0000
0001
0000
,  // measure 15
0010
0100
0000
1000
,  // measure 16
0002
0000
0000
0003
,  // measure 17
0000
1000
1000
0010
,  // measure 18
0010
0100
0100
0001
,  // measure 19
0001
1000
0001
1000
,  // measure 20
1000
0010
0010
0100
,  // measure 21
0110
1000
0001
1000
,  // measure 22
0001
0010
0010
0010
,  // measure 23
0110
0000
1001
0000
,  // measure 24
0110
1001
0000
0110
,  // measure 25
0110
0001
0000
1000
,  // measure 26
1000
0010
0100
0100
,  // measure 27
0000
0001
0000
1000
,  // measure 28
0001
0010
0000
0100
,  // measure 29
0100
0000
0010
1000
,  // measure 30
1001
0000
1000
0010
,  // measure 31
0110
0000
1001
0000
,  // measure 32
0100
0100
0100
0010
,  // measure 33
0100
0000
0001
0001
,  // measure 34
1000
0100
0000
0001
,  // measure 35
0010
0000
1000
0000
,  // measure 36
0100
0010
0010
0000
,  // measure 37
1001
0000
0100
0000
,  // measure 38
0010
0001
1000
0000
,  // measure 39
0110
0000
0100
0010
,  // measure 40
0001
1000
1000
0000
,  // measure 41
1001
0000
0010
0000
,  // measure 42
0110
0000
0010
0000
,  // measure 43
1001
0000
0110
0000
,  // measure 44
1000
0001
1000
0000
,  // measure 45
1001
0010
0010
1000
,  // measure 46
0000
0001
0000
0100
,  // measure 47
0100
0010
0000
0001
,  // measure 48
0000
0001
0000
1000
,  // measure 49
1001
0000
0010
0001
,  // measure 50
0000
1000
0001
0100
,  // measure 51
0010
0100
0100
0000
,  // measure 52
0001
0000
1000
0010
,  // measure 53
0110
0000
0000
0001
,  // measure 54
0000
1000
0000
0100
,  // measure 55
0010
0110
0000
0001
,  // measure 56
0000
1000
0000
0010
,  // measure 57
0100
0110
0000
1000
,  // measure 58
0000
0001
0000
0100
,  // measure 59
0010
0110
1001
0000
,  // measure 60
0110
1001
0001
0000
,  // measure 61
1000
0000
0000
0000
;

//---------------dance-single - ----------------
#NOTEDATA:;
#CHARTNAME:;
#STEPSTYPE:dance-single;
#DESCRIPTION:;
#CHARTSTYLE:;
#DIFFICULTY:Easy;
#METER:6;
#RADARVALUES:0.369352,0.454078,0.407743,0.018534,0.000000,279.000000,235.000000,44.000000,2.000000,0.000000,0.000000,0.000000,0.000000,0.000000,0.369352,0.454078,0.407743,0.018534,0.000000,279.000000,235.000000,44.000000,2.000000,0.000000,0.000000,0.000000,0.000000,0.000000;
#CREDIT:;
#NOTES:
0000
0000
0000
0000
,
0000
0000
0000
0000
,
0000
0000
0000
0000
,
0000
0000
0000
0000
,
0000
0000
0000
0000
,
0110
0100
0100
0001
,
0001
1000
0100
0010
,
0100
0010
0001
1000
,
1000
0001
1001
0000
,
1000
0000
1000
0100
0000
0100
0010
0000
,
0001
0000
0001
1000
0000
1000
0000
0010
,
0000
0100
0010
0001
,
1000
0000
0000
0001
0000
0001
0000
0000
,
0010
0100
0100
0010
,
1000
0100
1000
1001
,
0001
0001
0100
0100
,
0002
0000
0000
0003
,
1000
0000
1000
0100
0000
0100
0010
0000
,
0010
0001
0000
0001
0000
0000
0001
0000
,
1000
0000
0000
1000
0010
0000
0100
0000
,
0100
0000
0010
0001
0000
0100
1000
0000
,
0110
0000
0000
1000
0000
0000
1000
0001
,
0000
0100
0010
0000
0010
0000
1000
0000
,
1001
0000
0110
0000
,
1100
0110
0000
1001
,
1001
0000
0010
0100
0000
0100
0001
0000
,
1000
1000
0001
0010
,
0110
1000
1000
0001
,
1001
0010
0100
0110
,
0110
1000
1000
0001
,
1001
0010
1000
0100
,
0110
0011
0110
1100
,
0001
1000
0001
0000
0100
0010
0100
0000
,
0110
0001
1001
0100
,
0010
0000
1000
0001
0000
0001
0000
0100
,
0010
0000
0000
1000
0010
0000
0100
0000
,
0010
0001
0000
0001
1000
0000
1000
0000
,
0110
0010
1000
0010
,
0100
0001
0000
0001
1000
0000
1000
0000
,
0110
1000
0010
0010
,
1000
0001
1000
0010
0000
0100
1000
0000
,
0110
0000
0001
0100
0010
0000
1000
0000
,
1001
0000
0000
0100
0010
0000
1000
0000
,
0110
0000
1001
0010
,
1000
0000
0100
0010
0001
0100
1000
0000
,
0110
0001
0010
1000
,
1000
0000
0001
0000
1000
0000
0010
0100
,
0010
0000
1000
0001
1000
0000
0010
0000
,
0110
0001
0010
1000
,
1001
0010
0001
1000
,
1000
0000
0100
0000
0001
0000
0100
0010
,
0100
0100
1000
0010
,
0100
0001
0000
0001
1000
0000
1000
0000
,
0110
0010
0100
1001
,
1000
1001
0001
0011
,
0010
0110
1000
1001
,
0010
0110
0001
1000
,
0001
1001
0100
0110
,
0001
1001
0010
1000
,
0110
0100
1001
0010
,
1100
0000
0110
0000
0010
0000
1000
0100
,
0002
0003
0000
0000
;
