#VERSION:0.83;
#TITLE:ABSOLUTE(ismK passionate remix);
#SUBTITLE:;
#ARTIST:ismK;
#TITLETRANSLIT:;
#SUBTITLETRANSLIT:;
#ARTISTTRANSLIT:;
#GENRE:;
#ORIGIN:;
#CREDIT:PaperBox440;
#BANNER:ABSOLUTE(ismK passionate remix).png;
#BACKGROUND:ABSOLUTE(ismK passionate remix)-bg.png;
#PREVIEWVID:;
#JACKET:ABSOLUTE(ismK passionate remix)-jacket.png;
#CDIMAGE:;
#DISCIMAGE:;
#LYRICSPATH:;
#CDTITLE:;
#MUSIC:ABSOLUTE(ismK passionate remix).mp3;
#OFFSET:0.000000;
#SAMPLESTART:8.163265;
#SAMPLELENGTH:22.448978;
#SELECTABLE:YES;
#BPMS:0.000=147.000,
223.500=180.000;
#STOPS:;
#DELAYS:;
#WARPS:;
#TIMESIGNATURES:0.000=4=4;
#TICKCOUNTS:0.000=4;
#COMBOS:0.000=1;
#SPEEDS:0.000=1.000=0.000=0;
#SCROLLS:0.000=1.000;
#FAKES:;
#LABELS:0.000=Song Start;
#BGCHANGES:;
#KEYSOUNDS:;
#ATTACKS:
;

//---------------dance-single - ----------------
#NOTEDATA:;
#CHARTNAME:;
#STEPSTYPE:dance-single;
#DESCRIPTION:;
#CHARTSTYLE:;
#DIFFICULTY:Hard;
#METER:16;
#RADARVALUES:0.688685,0.818801,0.326975,0.352127,0.570111,575.000000,536.000000,39.000000,42.000000,0.000000,0.000000,0.000000,0.000000,0.000000,0.688685,0.818801,0.326975,0.352127,0.570111,575.000000,536.000000,39.000000,42.000000,0.000000,0.000000,0.000000,0.000000,0.000000;
#CREDIT:;
#NOTES:
0000
0000
0000
0000
,
1001
0000
0011
1000
1100
0000
1010
0000
,
0110
0000
0000
1000
0100
1000
0001
0000
0001
0000
0100
0010
0100
0000
0001
0000
,
1001
0000
1100
0001
1001
0000
1100
0000
,
1010
0000
0001
0000
0001
0000
0001
0000
0010
0100
1000
0000
0001
0000
0010
0000
,
1000
0000
1001
0000
0100
0000
0010
0000
0100
0010
0100
0000
0001
0000
0001
0000
,
2000
0010
0000
0100
0000
0010
0000
3001
,
0000
0000
0100
0000
1000
0000
1000
0000
0001
0010
0001
0000
0100
0000
0010
0000
,
0000
0001
2000
0000
0000
0000
0000
0000
0000
0000
3000
0000
0010
0000
0000
0000
,
0100
0000
0100
0010
0000
0000
0001
0000
0001
0100
1000
0000
0010
0000
0010
0000
,
2000
0001
0000
0100
0000
0001
0000
3010
,
0000
0000
0100
0000
0001
0000
0001
0000
1000
0100
1000
0000
0010
0000
0010
0000
,
0200
0000
0000
0000
0300
0000
0001
0000
0001
0000
0010
0100
1000
0000
0000
0000
,
1000
0000
1000
0000
0010
0100
0010
0000
0001
0000
0010
0000
1000
0100
1000
0000
,
0001
0000
0010
0000
1000
0000
1000
0000
0100
0010
0000
0100
0010
0000
0100
0000
,
0001
0000
0001
1000
0100
1000
0000
0000
0010
0000
0010
0000
0100
0001
0010
0001
,
0000
0000
2100
0000
0010
0000
3001
0000
0001
0000
0000
1000
0001
1000
0001
1000
,
0000
0000
0010
0000
0010
0000
0100
0000
0001
0010
0001
0000
1000
0000
0000
1000
,
0002
0000
0000
0003
0100
0000
1000
0000
0000
0000
1000
0001
1000
0001
1000
0000
,
0010
0000
0010
0000
1000
0100
1000
0000
0001
0000
0001
0010
0000
0000
1000
0000
,
0001
0000
2000
0000
0100
0000
3001
0000
0000
0000
0100
0010
0100
0010
0100
0000
,
1000
0001
0010
0000
0000
0000
1000
0100
0000
0000
0010
0000
0010
0000
0000
1000
,
0100
0000
0000
0010
0100
0010
0000
0000
0001
0000
1001
0000
1100
0000
0000
0000
,
0010
0000
1001
0000
0000
0000
1000
0100
1000
0000
0010
0000
0010
0000
0100
0001
,
0000
0000
0001
0000
0100
0000
0010
0000
0100
0001
0000
0000
0001
0000
1000
0000
,
0000
1000
0010
0000
0000
0010
0100
0000
0000
0100
0001
0000
0010
0000
0001
0000
,
0000
0000
1000
0000
0000
1000
0000
0001
0000
0000
0001
0000
1000
0000
1001
0000
,
0000
0110
0000
0000
1000
0000
0001
0000
1000
0000
0010
0000
0001
0000
0001
0000
,
0100
0000
0010
0000
0100
0001
0000
0000
0001
1000
0000
0000
1000
0001
0010
0000
,
0100
1001
0010
0000
0100
0000
2000
0000
,
3002
0000
0013
0000
1100
0000
1001
0010
,
0002
0000
0000
0000
0000
0000
0003
1000
,
2000
0000
3200
0000
0302
0000
0003
1001
,
0000
0000
2200
0000
0000
0000
0000
0000
3300
0000
0000
0010
0000
0000
0010
0000
,
1000
0001
1000
0001
0000
0000
0010
0000
0000
0000
1010
0000
0000
0000
2000
0000
,
0000
0000
3002
0000
0000
0000
0000
0000
0000
0000
0003
0000
1000
0100
0010
0000
,
1000
0000
0001
0000
0001
0000
0100
0000
0010
0000
0100
0000
1000
0001
0000
1000
,
0000
2002
0000
0000
0000
0000
3003
0010
,
0000
1001
0000
1100
0000
1000
0000
0002
,
0000
1003
2000
0000
0000
0000
0000
3002
,
0000
0000
0020
0000
0033
0000
1000
0000
0000
1001
0000
0000
0000
1100
0000
0000
,
0000
1002
0000
0000
0000
0000
0000
0000
0000
0000
0000
0000
0000
0000
0000
0000
,
1003
0000
0000
2000
0000
3002
0000
0013
,
0000
0220
0000
0000
0000
0000
0330
1000
,
1000
0001
0000
1000
0001
0000
1000
0000
0010
0000
0000
0010
0100
0000
0010
0100
,
0000
0000
1001
0000
0100
0000
0000
0100
0010
0000
1000
0001
0000
0000
0001
0000
,
0100
0010
0100
0000
1000
0000
1000
0001
1000
0001
1000
0001
2000
0000
0000
3000
,
0000
0000
1001
0000
0000
0010
0100
0001
0000
0000
0001
0000
1000
0100
1000
0000
,
0000
0010
0002
0000
1000
0000
0003
0000
1000
0000
0000
0000
1001
0000
0000
0000
,
0000
0000
0100
0010
0100
0000
0001
0000
0000
0001
1000
0100
1000
0000
0010
0000
,
0200
0000
0000
0000
0300
0000
0000
0001
0000
0000
0010
0000
1000
0001
1000
0000
,
0000
0000
0010
0000
0010
0100
0000
0000
1000
0000
0010
0001
0000
0000
0001
0000
,
1000
2001
0000
0010
3000
0100
0000
1001
,
0000
0000
0100
0010
0100
0000
0000
0000
1000
0000
0000
1000
0001
0000
0010
0000
,
0001
2000
0000
0000
0000
3000
0000
0000
0001
0010
0100
0010
0100
0000
1000
0000
,
1001
0000
0100
0000
0010
0100
0010
0100
0000
1000
0100
0010
0002
0000
1003
0000
,
1000
0000
0010
0000
0100
0000
0010
0000
0001
1000
0001
0000
1000
0000
0200
0000
,
0000
0000
0301
0000
0010
1000
0000
0000
1000
0000
0001
0000
1000
0000
0000
1000
,
0001
1000
0010
0000
0010
0100
0000
0000
0100
0000
0001
0000
0100
0010
0000
1000
,
0002
0000
0000
0000
0003
0010
0000
0100
0010
1000
0001
1000
0001
0000
0000
0000
,
1000
0000
0000
1000
0001
0000
0001
0000
0100
0010
0100
0001
0000
0000
0002
0000
,
1000
0000
0003
0000
0010
0100
0000
0000
0100
0000
0010
0000
1000
0001
1000
0001
,
1000
0000
0010
0000
0000
0100
0010
1000
0000
0000
1000
0000
0001
0010
0001
0000
,
0200
0000
0000
0000
0310
0000
0000
1000
0001
0000
0001
0000
0001
0000
0000
0000
,
1000
0001
1000
0000
0000
0010
0100
0001
0000
0000
0001
0000
0010
0100
0010
0000
,
1001
0000
0000
0100
0010
0000
1000
0000
0001
0000
0100
0010
0100
0001
0000
0000
,
0001
1000
0000
0000
1000
0000
0010
0100
0001
0000
0001
0000
1000
0100
1000
0000
,
0002
0000
0000
0000
0013
0100
1000
0100
0010
0001
0000
1000
0000
1001
0000
0100
,
0010
0100
1000
0001
0100
0010
0000
0000
0010
1000
0100
1000
0001
0000
0001
0000
,
0100
0000
0100
0010
1000
0000
0001
0100
0010
0000
0000
0010
0100
0001
0000
0000
,
0001
0000
1000
0000
1000
0001
0010
0001
0100
0000
0100
0000
1000
0000
2001
0000
,
0000
0001
0100
0010
0001
0010
0100
0001
,
0010
0001
0001
0100
0010
3000
0002
0010
,
1000
0100
1000
0010
0100
0000
0010
0100
,
0000
0000
0100
0000
1003
0000
0000
0000
1000
0100
0010
0100
1000
0000
0000
0000
,
2000
3000
0000
0000
0000
0000
0000
0000
;

//---------------dance-single - ----------------
#NOTEDATA:;
#CHARTNAME:;
#STEPSTYPE:dance-single;
#DESCRIPTION:;
#CHARTSTYLE:;
#DIFFICULTY:Medium;
#METER:14;
#RADARVALUES:0.486271,0.597359,0.385663,0.452735,0.138336,406.000000,360.000000,46.000000,54.000000,0.000000,0.000000,0.000000,0.000000,0.000000,0.486271,0.597359,0.385663,0.452735,0.138336,406.000000,360.000000,46.000000,54.000000,0.000000,0.000000,0.000000,0.000000,0.000000;
#CREDIT:;
#NOTES:
0000
0000
0000
0000
,
1001
0011
0110
1010
,
0110
0000
0000
0001
0100
0010
1000
0001
1000
0010
0000
0000
,
1100
1010
0110
0001
,
1001
0100
0100
1000
1000
1000
0020
0000
,
0030
0000
0001
0001
0100
0010
1000
1000
,
0000
0012
0000
0010
0000
0100
0000
1003
,
0000
1000
0001
0001
1000
0100
1000
0001
,
0002
0000
0000
0003
,
0001
0001
1000
0100
1000
0010
0010
0100
,
0000
2001
0000
0010
0000
0100
0000
3010
,
0000
0001
0000
0010
0100
0010
0000
0001
,
2000
0000
3000
0001
0001
0001
0001
0000
,
1000
0100
1000
0010
0000
1000
0010
0010
,
0000
0000
0000
0100
0000
0000
0000
0000
1000
0000
0000
0000
0000
0000
1000
0000
0001
0000
0000
0000
0010
0000
0001
0000
,
0000
1000
1000
0010
0001
0000
0001
0000
,
0100
0000
0010
0000
0100
0000
0000
0000
1001
0000
0000
0000
1000
0001
1000
0000
,
0000
1000
1000
0000
0001
0000
0010
0100
,
0010
0002
0000
0000
0003
0100
0010
0100
,
0000
1000
1000
0001
0000
0100
0010
0100
,
0000
2000
0000
0000
3000
0001
0001
1001
,
0000
0000
0000
1000
0000
1000
0001
0000
0001
0000
0010
0000
,
1100
0000
0000
1001
0000
0000
0100
0000
0100
0001
0000
0001
,
1000
0000
1000
0000
0000
0000
0010
0000
0000
0001
0000
0000
,
0010
0000
0100
0000
1000
0001
1000
0001
,
0000
0000
0000
1000
0000
1000
0000
0001
0000
0001
0100
0000
,
0100
0000
0000
0010
0000
0010
0000
0100
0000
0100
0001
0000
,
1001
0000
0000
0010
0000
0010
1000
0000
1000
0001
0000
0001
,
0000
0000
0000
0000
0100
0000
0000
0000
0000
0000
0000
0000
0100
0000
0000
0000
0000
0000
0000
0000
0010
0000
0000
0000
0000
0000
0000
0000
0000
0000
0001
0000
0000
0010
0000
0000
0100
0000
0000
0000
0000
0000
0000
0000
0000
0000
0000
0000
,
2200
0000
0000
0000
0000
3300
0000
0001
,
0010
1010
0110
1001
,
2002
0000
3003
0110
,
2200
3300
0220
0330
0202
0303
2002
0000
,
3003
2002
0000
0000
0000
0000
3003
0000
,
0110
0000
0002
0000
2000
0000
3000
0203
,
0000
0320
0000
0000
0000
0000
0030
0000
,
0001
0001
0001
0000
1000
0001
1000
0010
,
0000
0220
0000
0000
0330
0000
2000
0000
,
3002
0000
0023
0000
0230
0000
0000
0302
,
0000
2000
0000
0000
3003
0000
0110
0000
,
1001
1100
0110
1000
,
2002
0000
0000
3003
,
1000
0000
2200
3300
2002
3003
2020
3030
,
0220
0000
0000
0000
0000
0330
0000
0001
,
1000
0001
1000
0100
0100
0010
1000
0000
,
1001
0000
0010
1000
0001
0001
0000
0100
,
1000
0001
0010
0001
1000
1000
1000
1000
,
0000
1001
0000
0100
0100
0001
1000
1000
,
0000
2001
0000
0010
0000
0001
0000
3010
,
0000
0001
0100
0010
0010
1000
0001
1000
,
0000
0002
0000
0000
0000
0000
0003
0000
,
1000
1000
0010
0100
0010
0000
1000
0001
,
2000
0010
0000
0001
0000
0010
0000
3100
,
0000
0001
0100
0010
1000
1000
0001
0010
,
0001
2000
0000
0000
3000
0100
0010
0001
,
0100
0100
0010
0001
1000
1000
1000
0000
,
0001
1000
0001
1000
0010
0010
0100
0000
,
0110
0000
1000
0100
0001
0010
0100
0000
,
0001
0100
0100
0010
1000
0001
1000
0020
,
0000
0230
0000
0302
0000
1000
0103
0000
,
1000
0000
0100
0010
0100
0001
0001
0000
,
2000
0000
0000
3000
0001
0010
0001
0000
,
0110
0000
1000
0100
0010
0100
0001
0001
,
1000
0000
0000
0001
0001
0100
0110
0000
,
1000
0001
0000
0100
0010
0100
0000
0001
,
1000
1000
0010
0000
0110
0000
1000
0001
,
0000
0000
0000
1000
0000
0000
1000
0000
0000
0000
0000
0000
0100
0000
0000
0000
0000
0000
0100
0000
0001
0000
0000
0000
,
0010
0100
0010
0001
0000
0100
1000
0000
1000
0001
0000
0000
,
1000
0001
1000
0000
0100
0010
0000
0010
,
1000
1000
0000
0100
0001
0010
0001
0100
,
0100
0000
0010
0010
1000
0001
1000
0000
,
2200
0000
0000
0000
,
0000
0000
0000
0300
,
0002
0000
0000
0000
,
0000
0000
0000
0000
,
3003
0000
0000
0000
;

//---------------dance-single - ----------------
#NOTEDATA:;
#CHARTNAME:;
#STEPSTYPE:dance-single;
#DESCRIPTION:;
#CHARTSTYLE:;
#DIFFICULTY:Easy;
#METER:10;
#RADARVALUES:0.388059,0.438692,0.352127,0.293440,0.000000,324.000000,282.000000,42.000000,35.000000,0.000000,0.000000,0.000000,0.000000,0.000000,0.388059,0.438692,0.352127,0.293440,0.000000,324.000000,282.000000,42.000000,35.000000,0.000000,0.000000,0.000000,0.000000,0.000000;
#CREDIT:;
#NOTES:
// measure 0
0000
0000
0000
0000
,  // measure 1
1001
0011
0100
1000
,  // measure 2
1100
0000
0010
0100
0000
1000
0100
0000
,  // measure 3
0011
0110
1000
0001
,  // measure 4
1000
0001
0001
0001
0001
0000
0000
0000
,  // measure 5
0100
0010
0100
0000
1000
0000
0010
0000
,  // measure 6
0100
0100
0001
1001
,  // measure 7
0010
0000
1000
0100
1000
0000
0001
0000
,  // measure 8
2002
0000
3003
0000
,  // measure 9
1000
1000
0001
0000
0001
0000
0010
0100
,  // measure 10
0010
0100
0010
0100
,  // measure 11
1000
0000
0001
1000
0001
0000
1000
0000
,  // measure 12
0002
0000
0000
2000
0000
3003
0000
0000
,  // measure 13
0100
0010
0100
0000
0001
0000
1000
0000
,  // measure 14
1001
0010
0100
0010
,  // measure 15
0000
0100
0010
0100
0001
0000
0001
0000
,  // measure 16
1000
1001
0010
0100
,  // measure 17
0010
0000
1000
0001
1000
0000
0010
0000
,  // measure 18
0100
0110
0001
0000
,  // measure 19
1000
0001
1000
0000
0010
0000
0010
0000
,  // measure 20
0100
0000
0110
0000
0000
1000
1000
1000
,  // measure 21
0000
0001
0001
0010
,  // measure 22
0010
0000
1000
0001
1000
0000
1000
0000
,  // measure 23
1000
0100
0100
0010
,  // measure 24
0010
0000
0110
0000
0000
0001
1000
0001
,  // measure 25
1000
0100
0100
0010
,  // measure 26
0010
0000
1000
0001
1000
0000
0100
0010
,  // measure 27
0100
0001
0001
0110
,  // measure 28
0100
0000
0001
1000
0000
0000
0010
0100
,  // measure 29
2000
0000
3000
0001
,  // measure 30
0010
0110
0100
1100
,  // measure 31
2002
0000
3003
1100
,  // measure 32
1100
0101
0110
1010
,  // measure 33
0220
0000
0000
0000
,  // measure 34
0330
2000
3002
0203
,  // measure 35
0020
0300
0000
0000
0000
0000
0000
0000
,  // measure 36
0000
0000
0030
0000
0000
1000
0001
1000
,  // measure 37
0000
0000
2002
0000
0000
0000
0000
0000
0000
3003
0000
0000
0200
0000
0000
0000
,  // measure 38
0020
0300
0000
0000
2000
0030
0000
0000
0002
3000
0000
0000
0103
0000
0000
0000
,  // measure 39
0220
0000
0000
0330
,  // measure 40
0001
0010
0110
1100
,  // measure 41
2002
0000
0000
3003
,  // measure 42
1000
0002
0023
0230
,  // measure 43
2300
0000
0000
0000
3000
0000
0001
0001
,  // measure 44
1000
0100
1000
0010
0010
0100
0001
0000
,  // measure 45
1001
0010
1000
0010
,  // measure 46
0100
0010
0100
0010
1000
1000
1000
0000
,  // measure 47
0001
1001
0110
0010
,  // measure 48
1000
0001
0010
0100
,  // measure 49
1000
0110
0100
0001
,  // measure 50
1001
0000
0010
0000
0100
0010
0100
0000
,  // measure 51
1000
0001
1000
0000
0001
0000
1001
0000
,  // measure 52
0100
0010
0100
1000
,  // measure 53
0001
0000
0001
0000
0010
0100
0010
0000
,  // measure 54
1001
0000
0000
1000
1000
0000
0001
0000
,  // measure 55
0000
0100
0100
0010
0100
0010
0100
0000
,  // measure 56
1000
1000
0001
0010
0001
0000
0100
0000
,  // measure 57
0110
0002
0000
0003
,  // measure 58
1000
0001
1000
0000
0010
0000
0100
0000
,  // measure 59
1001
0020
0000
0030
,  // measure 60
0100
0100
0010
0000
1000
0000
1001
0000
,  // measure 61
0200
0000
0000
0300
,  // measure 62
0001
0001
1000
0100
1000
0000
0010
0000
,  // measure 63
0110
0002
0000
0003
,  // measure 64
1000
1000
0001
0010
0001
0000
0110
0000
,  // measure 65
2000
0000
0000
3000
,  // measure 66
1000
1000
0001
0010
0001
0000
0100
0000
,  // measure 67
0110
0000
0000
0001
0001
1000
1000
0000
,  // measure 68
0001
0000
0100
0010
0100
0000
1000
0000
,  // measure 69
0110
0000
0000
0000
0000
0000
0010
0100
,  // measure 70
0010
0000
0100
0001
0001
0000
1000
0000
,  // measure 71
2002
0000
0000
0000
,  // measure 72
0000
0000
0000
0003
,  // measure 73
0200
0000
0000
0000
,  // measure 74
0000
0000
0000
3300
;
