#TITLE:ABSOLUTE;
#SUBTITLE:(saminun mix);
#ARTIST:Saminun;
#TITLETRANSLIT:;
#SUBTITLETRANSLIT:;
#ARTISTTRANSLIT:;
#GENRE:;
#CREDIT:PaperBox440;
#BANNER:ABSOLUTE (saminun mix).png;
#BACKGROUND:ABSOLUTE (saminun mix)-bg.png;
#LYRICSPATH:;
#CDTITLE:;
#MUSIC:ABSOLUTE (saminun mix).mp3;
#OFFSET:0.000000;
#SAMPLESTART:22.191780;
#SAMPLELENGTH:12.328766;
#SELECTABLE:YES;
#BPMS:0.000000=146.000000
,270.000000=131.000000
,270.500000=121.000000
,271.000000=111.000000
,271.500000=101.000000
,272.000000=91.000000
,272.500000=81.000000
,273.000000=71.000000
,273.500000=61.000000
;
#STOPS:
;
#BGCHANGES:;
#KEYSOUNDS:;
#ATTACKS:;

//---------------dance-single - ----------------
#NOTES:
     dance-single:
     :
     Hard:
     14:
     0.557356,0.635608,0.250096,0.425163,0.433499,468.000000,438.000000,30.000000,51.000000,0.000000,0.000000,0.557356,0.635608,0.250096,0.425163,0.433499,468.000000,438.000000,30.000000,51.000000,0.000000,0.000000:
0000
0000
0000
0000
,
2000
0000
0000
0000
0000
0000
0000
0000
3001
0000
0000
0010
0100
0000
0001
1000
,
0001
0100
0100
0010
0010
1000
1000
0001
,
0001
0000
0100
0010
0100
0000
1000
0000
1000
0000
0001
1000
0001
0000
0100
0010
,
0100
0010
0010
0000
1001
0000
1100
0000
,
0110
0000
0000
0000
1100
0000
1000
0000
0001
0000
0001
0000
0100
0010
0000
0000
,
0001
0000
0010
0000
0000
0010
0100
0000
2000
0000
0001
0000
3000
0000
0010
0000
,
0000
0000
0010
0000
0100
0000
0100
0000
0001
0000
0000
0001
0010
0100
0010
0000
,
0000
0000
1000
0001
0000
0000
0001
0000
1000
0000
0000
0000
1100
0000
0001
0000
,
1001
0000
0000
0000
0010
0000
0100
0000
0110
0000
0000
0001
0000
0000
0001
0010
,
0000
0000
0010
0000
0100
1000
0000
0000
1001
0000
0100
0010
0100
0000
0001
0000
,
0001
0010
0000
0010
0100
0000
0001
0000
0000
1000
0000
0000
1000
0000
0001
0000
,
0001
0000
1000
0000
1000
0000
0001
0000
0010
0000
0000
0010
0200
0000
0000
0000
,
0000
0000
0000
0000
0300
0000
0001
0010
1000
0000
1000
0000
0000
0010
0000
0100
,
0010
0000
1000
0000
0001
1000
0100
0000
0020
0000
0000
0000
0000
0000
0000
0000
,
0000
0000
0000
0000
0030
0000
0000
0000
1000
0000
1000
0001
0010
0000
0100
0010
,
0100
0000
0001
0000
0000
0000
0010
0000
0010
0100
2000
0000
0000
0000
3200
0000
,
0000
0300
0002
0000
0000
0000
2000
0003
0000
3000
0010
0000
0010
0000
1000
0000
,
0001
0100
0000
0000
0100
0000
0010
0000
1000
0100
2000
0000
0000
0000
0000
0000
,
0000
0000
3100
0010
0000
0010
1000
1000
,
0001
0010
0100
0010
2000
0000
0000
0000
3001
0000
0000
0000
1001
0000
0000
0000
,
0000
0100
0010
0100
2000
0000
0000
0001
,
3001
0010
0100
0010
0100
0001
0001
1000
,
1000
0000
0010
0100
0010
0100
0010
0000
2000
0000
0000
0000
0000
0000
0000
0000
,
0000
0000
3000
0000
0010
0002
0000
0000
0000
0000
0000
0000
1003
0000
1000
0000
,
0010
0000
0001
0000
0000
0010
0100
0010
0100
0000
1001
0000
0000
0000
0010
0100
,
0000
0000
1000
0000
1000
0001
0000
0000
0021
0000
0000
0000
0000
0000
2030
0000
,
0000
3002
0000
0023
0000
2030
0000
0000
,
0000
0000
3000
0000
0001
0000
0001
1000
0200
0000
0000
0000
0310
0000
0000
0000
,
1000
0001
1000
0001
1000
0001
1000
0000
0000
0000
0110
0000
0001
0000
0001
0000
,
0000
1000
0001
0000
0000
0100
0010
0000
2000
0000
0000
0000
0001
0000
3100
0000
,
0100
0000
0010
0100
0010
0000
0001
0000
0110
0000
0000
0000
1000
0000
0001
0000
,
0001
0000
0010
0100
0010
0000
1000
0000
1000
0000
0002
0000
0000
0000
0013
0000
,
1000
0000
1000
0000
0010
0100
0010
0000
1001
0000
0000
0000
0100
0000
0010
0000
,
0100
0000
0100
0000
0010
0000
1000
0001
1000
0000
0200
0000
0000
0000
0320
0000
,
0000
0000
0032
0000
0000
0000
2003
0000
0000
0000
3001
0000
0000
0000
0010
0100
,
1000
0000
0001
0000
0001
0010
0100
0010
0000
0000
1001
0000
0000
0000
1000
0100
,
1000
0000
0001
0000
0001
0100
0010
0100
0010
0100
2000
0000
0000
0000
0000
0000
,
0000
0002
3000
0000
0003
2000
0000
0000
,
0020
3000
0030
1000
0000
1001
0000
0000
,
0000
1000
0000
0000
0000
0100
0000
0100
,
0010
0000
0010
0000
1001
0000
0100
0100
,
0000
1001
0000
0010
0100
0000
0001
0001
,
0000
0000
1100
0000
0000
0110
0000
0000
1001
0000
0000
0000
0000
0000
0000
0000
,
0000
1100
0000
0000
0000
0110
0001
0001
,
0010
0100
0010
0000
1000
0000
0000
0000
0002
0000
0000
0000
0000
0000
0000
0000
,
0000
0000
0003
0000
0010
0100
0010
0000
2000
0000
0000
0000
0000
0000
3000
0000
,
0002
0000
0000
0000
0003
0000
0010
0100
1000
0000
0001
0010
0001
1000
0000
1000
,
0000
0002
0000
0013
0010
2000
0000
3000
,
0001
0020
0000
0000
0000
0000
0000
0000
0000
0030
0200
0000
0000
0000
0000
0000
,
0300
0000
0000
0000
0001
0000
0001
1000
0000
0000
1001
0000
0000
0000
0011
0000
,
2000
0000
0000
0000
3000
0000
0010
0100
0010
0000
2000
0000
0000
0000
3000
0000
,
0001
0020
0000
0000
1030
0000
1000
0000
0002
0000
0000
0000
0000
0000
0003
0000
,
0010
0200
0000
0000
0300
0000
1000
0001
1000
0001
1000
0000
0010
0000
0000
0010
,
0000
0100
0000
1000
0000
0000
1000
0000
0002
0000
0000
0000
0000
0000
0003
0000
,
0010
0000
0200
0000
0000
0000
0300
0000
1000
0000
0000
1000
0000
0100
0000
0000
,
0010
0100
0010
0001
0000
0000
0001
0000
0200
0000
0000
0000
0301
0000
0000
0000
,
1000
0100
1000
0000
0000
0001
0000
0000
1001
0000
0000
0100
0000
0010
0000
0000
,
0110
0000
0001
1000
0000
1000
0000
0000
1001
0000
0000
0000
0010
0000
0001
0000
,
1000
0100
1000
0000
0100
0010
0000
0010
0100
0000
1001
0000
0000
0000
0100
0000
,
0001
0000
0001
1000
0100
1000
0010
0000
0010
0000
0200
0000
0000
0000
0310
0000
,
0010
0002
0000
0000
0000
0013
0100
1000
0000
1000
0000
0000
0001
0000
0000
0001
,
0000
0010
0000
0000
0010
0000
1000
0001
1000
0000
0200
0000
0000
0000
0300
0000
,
1000
0000
1000
0000
0001
0000
0000
0001
0010
0100
0000
0000
1000
0000
0000
0010
,
0000
0000
0010
0000
0000
0000
0100
0010
0100
0000
2000
0000
0000
0000
3001
0000
,
0001
0000
0010
0000
1000
0100
1000
0000
0001
0000
1001
0000
0000
0010
0100
0001
,
0000
0000
0001
1000
0100
1000
0010
0000
0010
0000
2000
0000
0000
0000
0000
0000
,
0000
0000
3001
0000
0000
0010
0100
0010
1000
0000
0001
0000
1000
0000
0001
0000
,
0001
0000
0010
0100
0010
0000
1000
0000
1000
0000
0002
0000
0000
0000
0000
0000
,
2000
0000
0000
0000
0000
3003
0000
0000
0000
0000
0000
0000
0000
0000
0000
0000
;

//---------------dance-single - ----------------
#NOTES:
     dance-single:
     :
     Medium:
     10:
     0.437072,0.549429,0.475182,0.400153,0.004168,367.000000,310.000000,57.000000,48.000000,0.000000,0.000000,0.437072,0.549429,0.475182,0.400153,0.004168,367.000000,310.000000,57.000000,48.000000,0.000000,0.000000:
0000
0000
0000
0000
,
2000
0000
0000
0000
3001
0000
0100
0100
,
0010
1000
0100
0000
0100
0001
1000
0001
,
0100
0010
0100
0000
1000
0001
1000
0100
,
0010
0100
0010
0000
1100
0000
1001
0000
,
1001
0010
0110
1001
0000
1000
1001
0000
,
0001
0000
2001
0000
0000
3010
0000
0100
,
0010
0100
0001
0001
1000
0000
1100
0000
,
0110
0000
0001
1000
0000
0110
0000
0000
,
0100
0010
0100
0000
1001
0000
0100
0010
,
0100
0000
1001
0000
0010
0100
0000
0100
,
0001
0010
0001
0000
1000
1000
0001
0000
,
0010
0001
1000
1000
0000
0010
0200
0000
,
0000
0300
0000
0001
1001
0000
1000
1000
,
0010
0100
0010
0000
0200
0000
0000
0000
,
0000
0000
0300
0000
0001
0001
0000
0010
,
0100
0000
1000
0001
1000
0000
1100
0000
,
0110
0000
0100
0000
1000
1000
0001
0001
,
1000
0100
0010
0010
0200
0000
0000
0000
,
0000
0000
0300
0000
0000
1000
1000
0010
,
0001
1000
1000
0000
1001
0000
1100
0000
,
0001
1000
0001
0000
0110
0000
1000
1100
,
0000
0001
0010
0100
0010
0010
0000
1000
,
0001
0010
0001
1000
2000
0000
0000
0000
,
0000
3000
0001
0002
0000
0000
0003
1000
,
0010
0010
0100
0010
1001
0000
1000
0200
,
0000
0300
0010
0010
1000
0000
0001
0000
,
1001
1100
0220
0000
,
0330
0000
0001
0001
2000
0000
0001
0000
,
3000
0000
0010
0000
1001
0000
0100
0100
,
0001
0010
0001
1000
1000
0002
0000
0000
,
0000
0000
0003
0000
0000
0100
0010
0100
,
1000
0010
0001
0001
2000
0000
0000
0000
,
0000
0000
3000
0000
1001
0000
0010
0001
,
0000
0100
0010
0100
0110
0000
1100
0000
,
1001
0000
0220
0330
2002
0000
0000
0000
,
0000
0000
0000
0000
3003
0000
0000
1000
,
1000
0100
0010
0100
1001
0000
0000
0000
,
1100
0000
0110
1000
,
1001
0000
0000
0000
0000
0000
1000
0000
0000
1001
0000
0000
0000
0000
0000
0000
,
0110
0000
1100
1000
,
2002
0003
3001
0000
,
1001
0000
0000
0100
,
0110
1000
1001
0000
,
1100
0000
0000
0000
0110
0000
0001
0001
,
0010
0100
0110
0000
2002
0000
0000
0000
,
0000
3003
0010
0010
0200
0000
0000
0000
,
2300
0000
0000
3001
0001
0010
0010
0100
,
2000
3000
0002
0003
0100
0200
0000
0001
,
0320
0000
0030
0000
2000
0000
0000
3000
,
0000
0001
0001
0010
0100
0020
0000
0030
,
2000
0000
0000
3001
0002
0000
0003
1000
,
2000
0002
3000
0203
0000
0320
0000
0030
,
1000
0002
0000
0003
0000
1000
1000
0000
,
0001
0001
0000
0220
0330
0000
1000
0001
,
0000
0100
0010
0000
0001
0002
0003
1000
,
2000
3000
0000
0110
0000
1010
0000
0001
,
0001
0100
1000
0000
1001
0000
0100
0000
,
0110
0000
1000
0000
1001
0000
1000
1000
,
0001
0010
0001
0100
0100
1000
1000
0010
,
0001
1000
1000
0002
0000
0010
0013
0100
,
0100
1000
1000
0000
1001
0000
0100
0010
,
1000
1000
0010
0001
0200
0000
0000
0000
,
0000
0000
0000
0000
0300
0001
0001
1000
,
0100
0001
0000
1000
2002
0000
3003
0000
,
1000
1000
0001
0000
0110
0000
1000
0100
,
0010
0100
0001
0001
2000
0000
0000
0000
,
0000
0000
0000
3001
0000
1000
0001
1000
,
0001
0001
0110
1000
1100
2002
0000
0003
,
0200
0000
0000
3300
0000
0000
0000
0000
;

//---------------dance-single - ----------------
#NOTES:
     dance-single:
     :
     Easy:
     6:
     0.322743,0.404843,0.291779,0.300115,0.000000,271.000000,236.000000,35.000000,36.000000,0.000000,0.000000,0.322743,0.404843,0.291779,0.300115,0.000000,271.000000,236.000000,35.000000,36.000000,0.000000,0.000000:
// measure 0
0000
0000
0000
0000
,  // measure 1
2000
0000
3001
0010
,  // measure 2
0100
0001
0001
1000
,  // measure 3
0100
0000
0100
0000
0001
1000
0001
0000
,  // measure 4
1000
0000
0001
1000
0001
0000
0100
0000
,  // measure 5
0100
0001
0001
0000
1001
0000
0000
0010
,  // measure 6
0100
0001
1001
0000
,  // measure 7
0001
0000
0000
0000
0100
0010
0000
0000
,  // measure 8
1000
0001
1000
0000
0110
0000
1010
0000
,  // measure 9
0000
0000
0110
1000
,  // measure 10
0001
1000
0010
0000
1000
1000
0000
0000
,  // measure 11
0100
0000
0001
0000
1000
0001
1000
0000
,  // measure 12
0001
0100
0020
0000
,  // measure 13
0030
1000
1001
0100
,  // measure 14
0001
1000
0200
0000
,  // measure 15
0300
0000
0010
0100
,  // measure 16
0010
0000
1000
1000
0002
0000
0023
0000
,  // measure 17
2030
3001
0100
0010
,  // measure 18
0100
0001
2000
0000
,  // measure 19
0000
0000
3000
0000
0100
0000
0001
0010
,  // measure 20
0001
0200
0300
0010
,  // measure 21
0100
0010
0100
0000
1001
0000
0010
0100
,  // measure 22
0000
0000
1000
0001
0100
0000
1000
0000
,  // measure 23
0001
0001
0200
0000
,  // measure 24
0300
0000
0010
0002
0000
0000
0003
0000
,  // measure 25
1000
0000
1000
0000
0110
0000
0000
0001
,  // measure 26
1000
0001
0000
0000
0010
0000
0110
0000
,  // measure 27
1010
0001
2000
0000
,  // measure 28
0000
3000
0001
0100
0002
0000
0000
0000
,  // measure 29
0003
0000
0000
0000
1000
0000
0010
0100
,  // measure 30
0010
1000
0002
0000
,  // measure 31
0000
0003
1000
0010
,  // measure 32
0100
0010
0200
0000
,  // measure 33
0000
0300
1001
0100
,  // measure 34
0001
0000
0100
0010
0100
0000
0001
0000
,  // measure 35
1001
1100
2002
0000
,  // measure 36
0000
0000
3003
0001
,  // measure 37
0010
0100
1000
0000
,  // measure 38
0010
0000
0100
0001
,  // measure 39
1001
0100
0110
0000
,  // measure 40
1100
0000
1001
0001
,  // measure 41
0110
0000
1001
0000
,  // measure 42
1100
0000
0000
0010
,  // measure 43
0110
1000
1001
0000
,  // measure 44
1100
0000
0000
0000
0110
0000
0001
1000
,  // measure 45
0001
0000
0100
0000
0000
0220
0000
0000
,  // measure 46
0000
0330
0000
0001
2000
0000
0000
3002
,  // measure 47
0000
0000
0003
0000
0100
0100
0000
1000
,  // measure 48
0020
0000
0030
0000
0200
0000
0000
0300
,  // measure 49
0002
0000
0000
0003
2000
0000
0000
3000
,  // measure 50
0000
0001
0010
0000
0200
0000
0000
0300
,  // measure 51
2000
0000
0000
3001
0002
0000
0000
0003
,  // measure 52
1000
0000
1001
0000
0010
0000
0000
0100
,  // measure 53
0020
0000
0000
0030
1000
0000
0001
0000
,  // measure 54
0100
0001
1001
0100
,  // measure 55
0000
0010
0100
0000
0000
0000
0100
0000
,  // measure 56
0010
0000
1001
1100
,  // measure 57
0001
0001
0110
0000
,  // measure 58
1100
0001
1001
0100
,  // measure 59
1000
0001
0000
0010
0100
0000
0001
1000
,  // measure 60
1000
0001
0001
0000
2000
0000
0001
3000
,  // measure 61
0001
0000
0010
0000
0100
0100
0010
0000
,  // measure 62
1000
0001
2000
0000
,  // measure 63
0000
3000
0000
0000
0001
1000
0001
0000
,  // measure 64
0220
0330
0000
1000
1000
0002
0000
0003
,  // measure 65
0100
0010
0100
0000
1001
0000
1000
0000
,  // measure 66
0010
0100
0010
0000
0200
0000
0000
0000
,  // measure 67
0300
0000
0001
0000
1000
0001
1000
0000
,  // measure 68
0010
0100
0000
0010
1000
0002
0000
0000
,  // measure 69
2003
0000
0000
3000
0000
0000
0000
0000
;
