#VERSION:0.83;
#TITLE:Absolute (Extended Mix);
#SUBTITLE:;
#ARTIST:dj.TAKA;
#TITLETRANSLIT:;
#SUBTITLETRANSLIT:;
#ARTISTTRANSLIT:;
#GENRE:;
#ORIGIN:;
#CREDIT:PaperBox440;
#BANNER:Absolute.png;
#BACKGROUND:Absolute-bg.png;
#PREVIEWVID:;
#JACKET:Absolute-jacket.png;
#CDIMAGE:;
#DISCIMAGE:;
#LYRICSPATH:;
#CDTITLE:cdtitle.png;
#MUSIC:Absolute.mp3;
#OFFSET:0.000000;
#SAMPLESTART:18.999001;
#SAMPLELENGTH:19.583332;
#SELECTABLE:YES;
#BPMS:0.000=144.000,
424.750=90.000;
#STOPS:349.500=0.360;
#DELAYS:;
#WARPS:;
#TIMESIGNATURES:0.000=4=4;
#TICKCOUNTS:0.000=4;
#COMBOS:0.000=1;
#SPEEDS:0.000=1.000=0.000=0;
#SCROLLS:0.000=1.000;
#FAKES:;
#LABELS:0.000=Song Start;
#BGCHANGES:;
#KEYSOUNDS:;
#ATTACKS:
;

//---------------dance-single - ----------------
#NOTEDATA:;
#CHARTNAME:;
#STEPSTYPE:dance-single;
#DESCRIPTION:;
#CHARTSTYLE:;
#DIFFICULTY:Hard;
#METER:12;
#RADARVALUES:0.789580,0.844399,0.629053,0.424745,1.034980,1028.000000,911.000000,117.000000,79.000000,0.000000,0.000000,0.000000,0.000000,0.000000,0.789580,0.844399,0.629053,0.424745,1.034980,1028.000000,911.000000,117.000000,79.000000,0.000000,0.000000,0.000000,0.000000,0.000000;
#CREDIT:;
#NOTES:
// measure 0
0000
0000
0200
0000
0010
0320
0100
1030
,  // measure 1
0002
0010
0013
2000
0010
0100
0100
0000
,  // measure 2
3010
0000
0100
0011
1000
0101
1000
0010
,  // measure 3
0100
0001
2000
0001
0100
0000
0010
0010
,  // measure 4
3100
0000
0010
0010
0100
0001
1000
0100
,  // measure 5
1000
0010
0100
0002
0010
1000
0100
1000
,  // measure 6
0010
0003
0200
0310
1000
0100
1001
1010
,  // measure 7
0100
0011
1000
0200
0010
0000
0010
0010
,  // measure 8
0010
0000
0010
0010
0000
0010
0010
0010
,  // measure 9
0000
0010
0000
0010
0010
0000
0010
0000
,  // measure 10
0010
0010
0010
0000
0010
0020
0330
0020
,  // measure 11
2030
0000
3200
0000
0300
0000
0010
0000
0001
1000
0100
0000
1000
0010
0100
0000
,  // measure 12
0001
0010
0001
0000
1000
0220
0000
0000
0000
0000
0000
0000
0000
0000
0000
0000
,  // measure 13
0000
0000
0330
0000
0100
0000
0001
0010
0000
0001
0100
0000
0010
1000
0000
0100
,  // measure 14
0000
1010
0000
0001
0100
0010
0000
1000
0220
0000
0000
0000
0000
0000
0000
0000
,  // measure 15
0000
0000
0330
0000
0010
0000
0010
0000
1000
0100
0000
1000
0010
0000
0100
0001
,  // measure 16
0000
0011
0000
0100
0000
0220
0000
0000
0000
0000
0000
0000
0000
0000
0000
0000
,  // measure 17
0000
0000
0000
0330
0000
1000
0010
0000
0100
0001
1000
0100
0000
1000
0010
0100
,  // measure 18
0001
0000
0000
0011
1000
0100
0000
1000
0220
0000
0000
0000
0000
0000
0000
0000
,  // measure 19
0000
0000
0000
0330
0000
0100
0000
0100
0000
0010
1000
0100
0000
1000
0010
0000
,  // measure 20
0011
0000
0100
0010
0000
1000
0000
2020
0000
0000
0000
0000
0000
0000
0000
0000
,  // measure 21
0000
0000
0000
0000
3030
0000
0100
0010
0000
1000
0100
0000
1000
0001
0000
0000
,  // measure 22
0011
0100
0000
0010
1000
0220
0000
0000
0000
0000
0000
0000
0000
0000
0000
0000
,  // measure 23
0000
0330
0000
0000
0100
0000
0010
1000
0000
0100
1000
0010
0000
0100
0001
0000
,  // measure 24
0010
0001
0100
0000
0010
1000
0101
0000
2020
0000
0000
0000
0000
0000
0000
0000
,  // measure 25
0000
0000
0000
3030
0000
0100
0010
0100
0000
0001
1000
0100
0000
1000
0010
0100
,  // measure 26
0000
0011
0000
0100
0020
0000
1000
0000
0000
0100
1000
0000
0100
1000
0000
0100
,  // measure 27
0000
0001
0000
0000
0130
0000
0000
1000
0010
0000
1000
0010
0100
0000
0001
0010
,  // measure 28
0000
1000
0100
0000
1000
0220
0000
0000
0000
0000
0000
0000
0000
0000
0000
0000
,  // measure 29
0000
0000
0000
0000
0330
0000
0000
0001
0000
0000
0021
0000
1030
0000
0200
1000
,  // measure 30
0000
0010
0300
0000
1000
0100
0000
1000
0001
0010
0100
0000
0010
1000
0100
0000
,  // measure 31
1000
0001
0010
0000
0011
0000
1000
0100
0000
1000
0010
0100
0000
0000
0001
0010
,  // measure 32
0000
1000
0100
0000
1000
0220
0000
0000
0000
0000
0000
0000
0000
0000
0000
0000
,  // measure 33
0000
0000
0000
0000
0330
0000
0000
1000
0100
0000
1000
0001
0000
0010
0001
0100
,  // measure 34
0000
0010
0000
1000
0100
0000
1000
0000
0220
0000
0000
0000
0000
0000
0000
0000
,  // measure 35
0000
0000
0330
0000
0000
0000
0010
0100
0000
1000
0100
0000
1000
0010
0000
0100
,  // measure 36
0001
0000
0011
0000
0001
0000
0000
1000
0100
0000
1000
0010
0100
0000
0001
0010
,  // measure 37
0000
0100
0010
0000
1000
0000
1100
0000
0010
0100
0000
0001
0000
0011
0000
1000
,  // measure 38
0100
0000
1010
0000
0100
0001
0000
0011
0000
0100
0010
0000
1000
0100
0000
0000
,  // measure 39
1010
0000
0100
0001
0000
0022
0000
0000
0033
0000
1000
0010
0000
0110
0000
0000
,  // measure 40
1000
0001
0000
0010
0001
0100
0000
0010
0000
0000
1010
0000
0100
0000
0001
0010
,  // measure 41
0000
0001
1000
0100
0000
1000
0010
0000
1010
0000
0001
0100
0000
0010
0100
0000
,  // measure 42
0100
0000
1000
0000
0010
0000
0100
0001
0000
0011
0000
1000
0100
0000
1000
0010
,  // measure 43
0000
0100
0001
0000
0010
0100
0000
0010
1000
0000
0100
0000
0220
0000
0000
0000
,  // measure 44
0000
0000
0000
0330
0000
0000
0100
0000
0010
1000
0000
0100
1000
0000
0001
0010
,  // measure 45
0100
0010
0000
1000
0100
0000
1000
0000
1010
0000
0100
0001
0010
0000
0001
0100
,  // measure 46
0000
1010
0000
0001
0100
0020
0000
0000
0130
0000
1000
0001
0000
0010
0001
0000
,  // measure 47
1000
0001
0000
0100
0000
0011
0000
0000
1000
0010
0000
0100
0001
0000
1000
0100
,  // measure 48
0000
1000
0010
0000
0220
0000
0000
0000
0330
0000
0000
1000
0100
0000
1000
0010
,  // measure 49
0100
0000
0001
0000
0010
0000
0001
1000
0000
0100
0000
1000
0000
0000
1010
0000
,  // measure 50
0000
0100
0000
0001
0000
0022
0000
0000
0033
0000
0100
1000
0010
0000
0100
0001
,  // measure 51
0000
1000
0010
0000
1000
0010
0100
0000
0000
0000
0001
0010
0000
0001
1000
0100
,  // measure 52
0000
1000
0000
1010
0000
0100
0001
0000
0010
0000
0001
1000
0100
0000
1000
0011
,  // measure 53
0000
0000
0110
0000
0001
0000
0000
1010
0000
0000
0110
0000
0000
0202
0000
0303
,  // measure 54
0000
0100
0000
0100
0000
0000
0100
0000
0000
0000
0010
0000
1000
0100
0000
1000
,  // measure 55
0010
0000
0100
0001
0000
0110
0001
0000
1000
0100
0000
1010
0000
0001
0100
0000
,  // measure 56
1010
0000
0100
0001
0010
0000
1010
0000
0100
0001
1000
0000
0110
0000
0001
0000
,  // measure 57
0001
0000
1001
0000
0000
0100
0010
0100
0001
0000
1000
0100
1000
0010
0000
0001
,  // measure 58
0200
0000
0010
1000
0000
0300
0000
1010
0000
0000
0001
0000
0010
0000
0001
1000
,  // measure 59
0100
0000
1000
0010
0000
0100
0001
0000
0010
0000
0110
0000
0000
1000
0010
0000
,  // measure 60
1000
0010
0000
0100
0001
0000
0011
0000
1000
0100
0000
1000
0010
0000
0100
0000
,  // measure 61
0001
0000
0011
0000
1000
0000
0001
1000
0000
0010
0100
0000
0012
0000
1000
0100
,  // measure 62
0003
1000
0010
0000
0100
0000
0000
0010
1000
0000
0100
0000
1000
0010
0000
0001
,  // measure 63
0000
0011
0000
0100
0010
0000
1000
0100
0000
1000
0010
0000
0000
1010
0000
0100
,  // measure 64
0000
0001
0010
0000
0011
0000
1000
0100
0000
1000
0010
0000
1010
0000
0100
0001
,  // measure 65
0010
0000
0100
0010
1000
0000
1010
0000
0100
0001
0000
0010
0001
1000
0100
0000
,  // measure 66
1000
0010
0000
1010
0000
0100
0001
0010
0100
0000
0000
0010
0100
0001
0000
1000
,  // measure 67
0010
0000
1000
0010
0000
0000
1010
0000
0100
0000
0001
0010
0000
0100
1000
0010
,  // measure 68
0001
0000
2100
3000
0000
0011
0000
0001
0100
0000
1010
0000
1000
0100
0001
0000
,  // measure 69
0010
0000
0010
1000
0000
0100
1000
0000
0110
0000
0001
0000
1010
0000
0010
0000
,  // measure 70
0100
0000
0100
0000
0100
0000
0220
0000
0000
0330
0000
0000
1000
0100
0000
1000
,  // measure 71
0010
0000
0100
0001
0010
0000
0001
1000
0000
0100
1000
0000
0010
0100
0000
0001
,  // measure 72
0000
0010
0100
0000
0010
1000
0000
0000
1010
0000
0100
0001
0000
0011
0000
0100
,  // measure 73
0010
0000
1000
0000
1100
0000
0010
0001
0000
0011
0100
0000
0010
1000
0000
0100
,  // measure 74
0000
1010
0000
0001
0100
0010
0000
1000
0000
1010
0000
0001
0100
0000
0110
0000
,  // measure 75
0000
1000
0100
0000
1000
0010
0000
0011
0000
0000
1000
0000
1100
0000
0010
0000
,  // measure 76
0100
0001
0000
0010
0000
1010
0000
0220
0000
0330
0000
0000
1000
0000
0100
1000
,  // measure 77
0010
0000
1000
0000
0011
0000
0100
0010
0000
1000
0000
0001
0100
0000
1010
0000
,  // measure 78
0100
0001
0010
0000
1001
0000
1010
0000
0100
0001
0000
0010
0001
0000
1000
0100
,  // measure 79
1000
0010
0000
0100
0000
0110
0000
0000
0001
1000
0110
0000
1000
0010
0000
0100
,  // measure 80
0010
0000
0000
0001
1000
0000
0100
0000
1000
0010
0000
0100
0001
0000
0011
0000
,  // measure 81
0000
1000
0010
0000
0100
0001
0000
1010
0000
0100
0010
0000
1000
0100
0000
0011
,  // measure 82
0000
0100
0010
0000
0001
0010
0100
0000
0000
1100
0000
0010
0100
0000
0001
0000
,  // measure 83
0011
1000
0000
0100
1000
0010
0000
1010
0000
0100
0001
0000
0010
0001
1000
0000
,  // measure 84
0110
0000
0000
0100
1000
0001
0000
0110
0000
0001
1000
0000
0100
1000
0000
0010
,  // measure 85
0100
0000
0010
0000
0011
0000
0200
0000
0320
0000
0230
0000
0020
0300
0000
2030
,  // measure 86
0000
3002
0000
0023
0200
0030
0300
0020
0000
2030
0000
0000
3002
0000
0023
0000
,  // measure 87
0230
0000
0000
0020
0300
0000
0000
0030
0000
0000
0000
0000
0110
0000
0000
0000
,  // measure 88
0000
1000
0100
0000
1000
0010
0000
0100
0001
0020
0030
0000
0100
1000
0010
0000
,  // measure 89
0100
0000
0210
0000
1000
0000
0310
0000
0001
0000
1000
0100
0000
1000
0010
0100
,  // measure 90
0001
0000
0010
0100
0000
0010
1000
0100
0000
0001
0010
0000
0001
1000
0100
0000
,  // measure 91
1000
0010
0100
0010
0000
0100
0001
1000
0100
0000
1000
0020
0000
0000
0100
0000
,  // measure 92
0130
0000
0000
1000
0100
0000
1000
0010
0000
0100
0001
0000
0010
0000
0101
0000
,  // measure 93
1000
0000
0100
1000
0000
0010
0100
0001
0000
0020
0001
0000
1000
0130
0000
0000
,  // measure 94
0110
0000
0000
0000
0010
0100
0010
0000
1000
0100
0000
1000
0010
0100
0000
0011
,  // measure 95
0000
0100
0010
2000
0000
0010
0100
0000
3100
0000
0010
0000
0001
1000
0000
0100
,  // measure 96
0000
1000
0010
0000
0110
0000
0000
1000
0000
0100
1000
0000
0001
0010
0000
0100
,  // measure 97
0010
0000
1000
0000
1020
0000
0100
0001
0000
0000
0031
0000
1001
0000
0100
0000
,  // measure 98
0010
1000
0101
0000
1000
0010
0000
0100
0000
0010
0000
1010
0000
0100
0001
0000
,  // measure 99
0010
0001
1000
0000
0100
1000
0020
0000
1000
0000
0100
0000
0030
1000
0100
0000
,  // measure 100
1001
0000
0010
0100
0000
0010
1000
0000
0100
1000
0010
0000
0000
1010
0000
0100
,  // measure 101
0001
0000
0010
0002
0000
0100
0000
0010
1000
0000
0100
0003
1000
0000
0000
0000
,  // measure 102
1010
0000
0010
0000
0100
0001
0000
1000
0100
0000
1000
0010
0100
0001
0000
0011
,  // measure 103
0000
0100
0010
0000
1020
0000
0100
0000
0100
0000
0001
0030
0100
0000
0000
1000
,  // measure 104
0100
0000
1000
0010
0000
0100
0001
0000
0010
0100
0000
0010
0000
0000
1010
0000
,  // measure 105
0200
0000
0010
0000
0010
0000
0310
0000
0000
0001
1000
0000
0100
1000
0000
0010
,  // measure 106
0000
0110
0000
0000
0100
0000
0010
1000
0100
1000
0010
0100
0001
0010
0000
0011
,  // measure 107
0100
0010
1000
0100
1010
0100
0001
0010
0010
0200
1000
0001
0000
0010
0000
0020
,  // measure 108
0000
0000
0000
0000
0000
0330
0000
0000
0000
0000
0000
0000
0000
0000
0000
0000
;
