#VERSION:0.83;
#TITLE:A Geisha's Dream;
#SUBTITLE:(Album Version);
#ARTIST:NAOKI feat. SMILE.dk;
#TITLETRANSLIT:;
#SUBTITLETRANSLIT:;
#ARTISTTRANSLIT:;
#GENRE:;
#ORIGIN:;
#CREDIT:;
#BANNER:A Geisha's Dream (Ruffage Remix).png;
#BACKGROUND:A Geisha's Dream (Ruffage Remix)-bg.png;
#PREVIEWVID:;
#JACKET:A Geisha's Dream (Ruffage Remix)-jacket.png;
#CDIMAGE:;
#DISCIMAGE:;
#LYRICSPATH:;
#CDTITLE:;
#MUSIC:A Geisha's Dream (Ruffage Remix).mp3;
#OFFSET:0.000000;
#SAMPLESTART:28.071430;
#SAMPLELENGTH:13.928570;
#SELECTABLE:YES;
#BPMS:0.000=140.000;
#STOPS:;
#DELAYS:;
#WARPS:;
#TIMESIGNATURES:0.000=4=4;
#TICKCOUNTS:0.000=4;
#COMBOS:0.000=1;
#SPEEDS:0.000=1.000=0.000=0;
#SCROLLS:0.000=1.000;
#FAKES:;
#LABELS:0.000=Song Start;
#BGCHANGES:;
#KEYSOUNDS:;
#ATTACKS:
;

//---------------dance-single - ----------------
#NOTEDATA:;
#CHARTNAME:;
#STEPSTYPE:dance-single;
#DESCRIPTION:;
#CHARTSTYLE:;
#DIFFICULTY:Hard;
#METER:13;
#RADARVALUES:0.485657,0.565399,0.489772,0.050418,0.018006,472.000000,404.000000,68.000000,7.000000,0.000000,0.000000,0.000000,0.000000,0.000000,0.485657,0.565399,0.489772,0.050418,0.018006,472.000000,404.000000,68.000000,7.000000,0.000000,0.000000,0.000000,0.000000,0.000000;
#CREDIT:;
#NOTES:
// measure 0
0000
0000
0000
0000
,  // measure 1
0000
0000
0000
1000
,  // measure 2
0100
0110
0010
0001
,  // measure 3
0000
0000
1000
1001
,  // measure 4
0000
0000
0000
0110
,  // measure 5
0000
0000
0000
0001
,  // measure 6
0001
0010
0100
1001
,  // measure 7
0000
0110
0000
1001
,  // measure 8
0200
0000
0300
0000
0010
0100
0010
0000
,  // measure 9
1000
0100
0010
0000
0010
0000
0100
0010
,  // measure 10
1000
0000
1000
0001
1000
0010
0000
0010
,  // measure 11
0100
0000
0010
0001
0010
0001
0000
0001
,  // measure 12
0010
0100
1000
0100
1000
0000
1001
0000
,  // measure 13
0010
0100
0010
0100
0001
0001
1000
0000
,  // measure 14
1000
0010
0100
0010
0001
0000
1001
0000
,  // measure 15
0100
0010
0000
0010
0001
0000
1100
0000
,  // measure 16
0110
0000
0011
0000
0001
0010
0001
0000
,  // measure 17
0100
0100
0000
1000
0001
0100
0010
0000
,  // measure 18
0011
0000
1100
0000
0010
0010
0100
0000
,  // measure 19
1000
0000
1000
0001
0000
0001
0000
0010
,  // measure 20
0100
0010
0100
0000
1000
0000
1001
0000
,  // measure 21
0010
0100
0010
0100
0000
0001
1000
0100
,  // measure 22
1000
0000
1001
0000
0010
0010
0100
0000
,  // measure 23
0000
0010
1000
0100
1000
0000
0001
0010
,  // measure 24
0001
1001
0000
1100
,  // measure 25
0110
0000
0011
0000
0001
0001
0000
0001
,  // measure 26
0001
0010
0100
0000
1000
1000
0010
0100
,  // measure 27
0010
0001
0000
0001
0100
0100
0000
0001
,  // measure 28
0010
0100
2000
3000
0010
0000
0110
0000
,  // measure 29
0011
0000
1000
1000
0010
0001
0000
0010
,  // measure 30
0100
0010
1001
0000
0100
0100
0010
0000
,  // measure 31
1000
0000
0100
0010
0000
0001
0001
0100
,  // measure 32
1000
0000
0000
0000
0000
1000
0100
0010
0001
0000
0000
0000
0010
0000
0000
0000
,  // measure 33
0110
0100
1100
1000
,  // measure 34
1001
0000
0010
0100
0010
0000
0110
0000
,  // measure 35
0000
1000
0001
0000
0100
0100
0010
0001
,  // measure 36
1000
1000
0010
0000
0110
0000
0001
0000
,  // measure 37
0011
0000
0010
0000
0110
0000
0100
1000
,  // measure 38
0100
1000
0001
0000
0010
0000
0110
0000
,  // measure 39
1000
0001
0000
0000
0100
0100
0010
0001
,  // measure 40
0000
1001
0000
0000
0000
0000
1000
1000
,  // measure 41
0100
0010
0001
0010
0001
0100
0010
0100
,  // measure 42
1000
0100
0100
0001
0010
0000
0010
0001
,  // measure 43
1000
0001
1000
0001
0001
0000
1100
0000
,  // measure 44
0110
0000
0011
0000
1000
1000
0110
0000
,  // measure 45
0001
0001
0010
0100
0010
0000
0100
0000
,  // measure 46
0100
1000
0000
0000
0110
0000
0001
0000
,  // measure 47
1000
0001
1000
0001
0010
0100
1000
0100
,  // measure 48
0010
0002
0003
0000
0010
0000
0110
0000
,  // measure 49
1000
1000
0100
0010
0000
0001
0010
0100
,  // measure 50
1000
0000
1001
0000
0100
0100
0010
0000
,  // measure 51
0001
1000
1000
0010
0100
0010
0001
1000
,  // measure 52
1000
1001
0000
1100
,  // measure 53
0100
0000
0110
0000
0010
0010
0001
1000
,  // measure 54
0001
2000
3000
0000
0010
0010
0000
0100
,  // measure 55
1000
0001
0010
0001
1000
0010
0100
0010
,  // measure 56
0100
0000
1001
0000
0100
0100
0010
0000
,  // measure 57
0011
0000
1000
0000
0100
0010
0001
1000
,  // measure 58
0100
0020
0030
0000
0100
0100
0110
0000
,  // measure 59
0001
0010
0010
1000
0100
0010
0100
0010
,  // measure 60
0001
0000
0001
0000
1000
0100
0010
0001
0010
0100
1000
0000
0000
0000
1000
0000
,  // measure 61
0000
1100
0000
0110
0000
0010
0001
0000
,  // measure 62
0011
1100
0100
0110
,  // measure 63
0010
0001
0000
0000
0100
0100
0010
0100
,  // measure 64
0010
0000
1001
1000
0110
0000
0001
0000
,  // measure 65
0011
0000
0010
0000
0110
0000
0100
1000
,  // measure 66
0100
0010
0001
0001
0000
0000
1001
0000
,  // measure 67
0010
0100
0000
0000
1000
1000
0100
0001
,  // measure 68
0010
0110
0000
1000
,  // measure 69
1100
0100
0110
0010
,  // measure 70
0011
0000
0001
0001
1000
0100
0000
0000
,  // measure 71
0010
0100
0000
0000
0001
0001
0010
0100
,  // measure 72
0010
0100
0100
0000
0000
0000
1100
0000
,  // measure 73
0110
0011
1001
1001
,  // measure 74
0010
0100
0000
0100
0010
0000
1001
0000
,  // measure 75
0000
1000
0010
0000
0100
0100
0010
0001
,  // measure 76
0001
1000
1001
0000
0020
0000
0130
0000
,  // measure 77
1000
0001
0002
0000
0103
0010
1100
0000
,  // measure 78
0110
0011
0001
0000
;

//---------------dance-single - ----------------
#NOTEDATA:;
#CHARTNAME:;
#STEPSTYPE:dance-single;
#DESCRIPTION:;
#CHARTSTYLE:;
#DIFFICULTY:Medium;
#METER:9;
#RADARVALUES:0.405400,0.452319,0.554595,0.028810,0.014405,394.000000,317.000000,77.000000,4.000000,0.000000,0.000000,0.000000,0.000000,0.000000,0.405400,0.452319,0.554595,0.028810,0.014405,394.000000,317.000000,77.000000,4.000000,0.000000,0.000000,0.000000,0.000000,0.000000;
#CREDIT:;
#NOTES:
0000
0000
0000
0000
,
0000
0000
0000
1000
,
0100
0110
0010
0001
,
0000
0000
1000
1001
,
0000
0000
0000
0110
,
0000
0000
0000
0001
,
0001
0010
0100
1001
,
0000
0110
0000
1001
,
0200
0300
0010
0110
,
1000
0000
1000
0000
0001
1000
0001
0000
,
0010
0000
0010
0100
0010
0000
1000
0001
,
1000
0000
0001
0000
0001
0000
0010
0100
,
0010
1000
1000
0110
,
0001
1000
0001
0000
0010
0000
0010
0000
,
0100
1000
0100
0000
0001
0000
1001
0000
,
0100
0100
0001
1100
,
0110
0011
0000
0110
,
1000
1000
0010
0110
,
0001
1001
1001
0010
,
0010
0100
0000
0100
0001
0000
0001
0000
,
1000
0100
0000
0000
1000
0000
1001
0000
,
0010
0000
0010
0000
0110
0000
1000
0100
,
1000
0000
1001
0000
0010
0010
0100
0000
,
0001
0000
1000
0000
1000
0000
0001
0010
,
0001
1001
0000
1100
,
0110
0000
0011
0000
0100
0000
0100
0010
,
0000
0000
0001
0000
0001
1000
0000
1000
,
0010
0100
0000
0010
0000
0001
0000
0000
,
0010
0100
0000
0000
0100
0000
0110
0000
,
0011
0000
1000
0000
1000
0001
0000
0001
,
0000
1001
0100
0100
,
0010
0000
0001
0000
0001
0000
0001
0100
,
1000
0000
0000
0000
0000
1000
0100
0010
0001
0000
0000
0000
1000
0000
0000
0000
,
1001
0001
1001
1000
,
1001
0010
0100
0010
,
0000
1000
0001
0000
0100
0000
0010
0000
,
1000
0010
0110
0001
,
0011
0000
0010
0000
0110
0000
0000
1000
,
0000
1000
0001
0000
0001
0000
0110
0000
,
1000
0001
0000
0000
0100
0000
0110
0000
,
0011
1001
0000
0100
,
0100
0001
1000
0001
0000
0000
0010
0000
,
0010
0100
0010
0000
0010
0000
1001
0000
,
1000
1000
0000
1100
,
0110
0011
0100
0100
,
0010
0001
0001
0100
,
0100
1000
0000
0000
0110
0000
0001
0000
,
1000
0000
1000
0000
0001
1000
0010
0000
,
0100
0002
0003
0000
0010
0000
0110
0000
,
1000
1000
0000
0010
0000
0001
0000
0001
,
1000
1001
0010
0010
,
1001
1000
0001
0001
,
1000
1001
0000
1100
,
0110
0000
0010
0000
0001
0000
0001
1000
,
0001
0000
1000
0000
0010
0010
0000
0100
,
1000
0000
0010
0000
0010
0000
0100
0010
,
0100
1001
0100
0010
,
0011
1000
0100
0001
,
1001
0010
0100
0110
,
0001
0010
0100
0100
,
0001
0000
0000
0000
1000
0100
0010
0001
0000
0000
0001
0000
1000
0000
0000
0000
,
1100
0100
0110
0001
,
0011
1100
0100
0110
,
0010
0001
0000
0000
0100
0000
0100
0010
,
0100
1001
0110
0001
,
0011
0010
0110
0100
,
0100
0010
0001
0000
1000
0000
1001
0000
,
0010
0100
0000
0000
1000
0000
0100
0001
,
0010
0110
0000
1000
,
1100
0100
0110
0010
,
0011
0000
1000
1000
0000
0000
0110
0000
,
0010
0100
0000
0000
0001
0000
0100
0000
,
0100
0110
0000
1100
,
0110
0011
1001
1001
,
0010
0010
1000
1001
,
0000
1000
0010
0000
0100
0000
0010
0000
,
1000
1001
0020
0130
,
1000
0002
0103
1100
,
0110
0011
0001
0000
;

//---------------dance-single - ----------------
#NOTEDATA:;
#CHARTNAME:;
#STEPSTYPE:dance-single;
#DESCRIPTION:;
#CHARTSTYLE:;
#DIFFICULTY:Easy;
#METER:5;
#RADARVALUES:0.307651,0.367509,0.324114,0.028810,0.000000,299.000000,254.000000,45.000000,4.000000,0.000000,0.000000,0.000000,0.000000,0.000000,0.307651,0.367509,0.324114,0.028810,0.000000,299.000000,254.000000,45.000000,4.000000,0.000000,0.000000,0.000000,0.000000,0.000000;
#CREDIT:;
#NOTES:
0000
0000
0000
0000
,
0000
0000
0000
0000
,
0000
0000
0000
0000
,
0000
0000
0000
0000
,
0000
0000
0000
0000
,
0000
0000
0000
0000
,
0000
0000
0000
0000
,
0000
0000
0000
0000
,
0000
0000
0000
0001
,
0001
0010
0100
0010
,
1000
1000
0010
0010
,
0100
0010
0100
1000
,
1000
0010
0001
0110
,
1000
1000
0010
0010
,
0100
0001
0001
1001
,
0100
0100
0001
0011
,
0010
0110
0000
1001
,
0010
0010
0100
0010
,
1000
1000
0001
0001
,
0010
0100
0010
0100
,
0100
1001
0010
0010
,
0100
0010
0100
1000
,
1000
0001
0010
1001
,
0100
0100
0010
0001
,
1000
1001
0000
0010
,
0110
0100
1100
1000
,
0001
0001
0100
0100
,
0000
0010
0010
1000
,
0001
1000
0100
0110
,
0010
0000
0001
1000
,
0001
1001
0100
0100
,
0010
0001
1000
0110
,
0000
0002
0003
1001
,
1000
0010
0100
0000
,
0001
0001
0100
0010
,
0000
1000
0000
0010
,
0010
0010
0000
1000
,
0100
0001
0010
0100
,
0010
0001
1000
1001
,
0000
0000
1001
1001
,
1001
1001
0000
0010
,
0010
0100
0010
1000
,
1000
0010
0001
0110
,
1000
1000
0010
0110
,
1100
1001
0000
0001
,
0010
0010
0100
0010
,
1000
1000
0110
0001
,
1000
1000
0001
0001
,
0010
0010
0100
0010
,
1000
1000
0010
0001
,
0100
0010
0100
0100
,
0000
0001
0001
1000
,
0100
0010
0000
1001
,
0001
1001
1000
0010
,
0010
0100
0000
0001
,
0001
0010
0100
0010
,
1000
1000
0000
0110
,
0001
1000
0100
0100
,
0010
0001
1000
1000
,
0010
0100
0010
1000
,
1000
0002
0003
0010
,
0110
0100
1100
1000
,
0001
0001
0100
0110
,
1000
1000
0001
1000
,
0001
0010
0010
0100
,
0110
0010
1010
1000
,
1001
0010
0100
1001
,
0000
0010
0000
0100
,
0010
0100
0000
0001
,
1001
1000
1100
0100
,
0110
0010
0001
1001
,
0000
1000
0010
0010
,
0100
0010
0000
1000
,
1100
0100
0110
0010
,
0011
0001
1001
1000
,
0010
0100
0000
0001
,
1000
0001
0200
0310
,
0002
1003
0000
0110
,
1100
1001
0001
0000
;

//---------------dance-single - ----------------
#NOTEDATA:;
#CHARTNAME:;
#STEPSTYPE:dance-single;
#DESCRIPTION:;
#CHARTSTYLE:;
#DIFFICULTY:Beginner;
#METER:1;
#RADARVALUES:0.212989,0.281799,0.208874,0.000000,0.000000,207.000000,178.000000,29.000000,0.000000,0.000000,0.000000,0.000000,0.000000,0.000000,0.212989,0.281799,0.208874,0.000000,0.000000,207.000000,178.000000,29.000000,0.000000,0.000000,0.000000,0.000000,0.000000,0.000000;
#CREDIT:;
#NOTES:
0000
0000
0000
0000
,
0000
0000
0000
0000
,
0000
0000
0000
0000
,
0000
0000
0000
0000
,
0000
0000
0000
0000
,
0000
0000
0000
0000
,
0000
0000
0000
0000
,
0000
0000
0000
0000
,
0000
0000
0000
0001
,
0000
0010
0000
0100
,
0000
1000
0000
1000
,
0000
0010
0000
0010
,
0000
0100
0000
0100
,
0100
0000
0001
0000
,
0001
0001
0000
0010
,
0010
0000
0000
1001
,
1001
1001
0000
0110
,
0000
1000
0000
1000
,
0010
0000
0010
0001
,
0000
0001
1000
0000
,
1000
0000
0010
0010
,
0000
0001
0000
0001
,
0010
0000
0010
0100
,
0000
0100
1000
0000
,
1000
1000
0000
0010
,
0010
0010
0000
1000
,
0000
0000
0001
1001
,
0000
0010
0100
0000
,
0100
0110
0000
0001
,
1000
0010
0000
0010
,
0010
0000
1000
0010
,
0000
0100
0001
1001
,
0000
0001
0001
0001
,
1000
0100
0010
0100
,
0000
0001
0000
0001
,
0000
1000
0000
0010
,
0000
0100
0100
0000
,
0001
0000
1000
0000
,
0010
0000
0000
0110
,
0000
1001
0000
0010
,
0010
0010
0010
0000
,
1000
0000
1000
0000
,
0001
0000
0001
0010
,
0000
0010
0000
1001
,
1001
1001
0000
0100
,
0000
0000
0001
0000
,
0000
0010
0110
0000
,
1000
1000
0001
0001
,
0000
0110
0000
1001
,
0000
0010
0010
0000
,
0000
0100
0000
0001
,
0000
1000
1000
0010
,
0000
0010
0000
0100
,
0100
0010
0000
0000
,
0001
1001
0000
0010
,
0000
1000
0001
1000
,
0001
0110
0000
0010
,
0010
0000
1000
1000
,
0000
0001
1000
0000
,
1000
0001
0000
0110
,
0000
0010
0010
0010
,
1000
0000
0001
0000
,
0010
0000
0000
0100
,
0000
0010
0000
0001
,
0001
1001
0000
0100
,
0010
1000
0001
0010
,
0000
0000
0000
0110
,
0000
1001
0000
0010
,
0010
0110
0000
0001
,
0001
1000
1000
0010
,
0010
0001
0001
1001
,
0000
0000
0000
0010
,
0010
0110
0000
1000
,
1000
0100
0100
0010
,
0010
0001
1001
1000
,
0000
0010
0000
0100
,
0100
0110
0000
0001
,
0000
1000
0000
1001
,
1001
1001
0000
0000
;
