#TITLE:A Brighter Day;
#SUBTITLE:-Full Version-;
#ARTIST:NAOKI feat. Aleisha G;
#TITLETRANSLIT:;
#SUBTITLETRANSLIT:;
#ARTISTTRANSLIT:;
#GENRE:;
#CREDIT:;
#BANNER:A Brighter Day -Full Version-.png;
#BACKGROUND:A Brighter Day -Full Version--bg.png;
#LYRICSPATH:;
#CDTITLE:cdtitle.png;
#MUSIC:A Brighter Day -Full Version-.mp3;
#OFFSET:0.000000;
#SAMPLESTART:2.709677;
#SAMPLELENGTH:24.774195;
#SELECTABLE:YES;
#BPMS:0.000000=155.000000
,331.000000=100.000000
,333.000000=155.000000
;
#STOPS:
;
#BGCHANGES:;
#KEYSOUNDS:;
#ATTACKS:;

//---------------dance-single - ----------------
#NOTES:
     dance-single:
     :
     Hard:
     12:
     0.540724,0.608274,0.459778,0.171607,0.322168,1169.000000,1027.000000,142.000000,53.000000,0.000000,0.000000,0.540724,0.608274,0.459778,0.171607,0.322168,1169.000000,1027.000000,142.000000,53.000000,0.000000,0.000000:
// measure 0
0000
0000
0000
0000
,  // measure 1
0000
0000
0000
0000
,  // measure 2
0000
0000
0000
0000
,  // measure 3
0000
0000
0000
0000
,  // measure 4
0000
0000
0000
0000
,  // measure 5
0000
0000
0000
0000
,  // measure 6
0000
0000
0000
0000
,  // measure 7
0000
0000
0000
0000
,  // measure 8
0000
0000
0000
0001
,  // measure 9
0011
0000
0010
0100
1000
0000
1001
0000
,  // measure 10
0000
0010
0010
0100
0010
1000
0000
1000
,  // measure 11
0001
0000
0001
0010
0100
0000
0100
1000
,  // measure 12
0000
1000
0001
0000
1001
0000
0010
0000
,  // measure 13
0010
0100
0000
0100
0001
0000
1000
0010
,  // measure 14
0000
0100
0001
0000
0000
1000
0000
0000
,  // measure 15
0010
0001
0100
0000
0000
1000
0000
0000
,  // measure 16
0010
0100
0001
0000
0000
0000
1000
0000
,  // measure 17
1100
0000
0100
0000
0110
0000
0000
0001
,  // measure 18
0001
0010
0100
0010
0000
0000
1000
1000
,  // measure 19
0010
0100
0010
0000
0000
0001
0001
0010
,  // measure 20
0100
0010
1000
0000
0000
0010
0010
0100
,  // measure 21
0001
1000
0000
0000
0000
0000
0100
0010
,  // measure 22
0001
1000
1000
0100
0000
0000
0010
0010
,  // measure 23
0100
0001
0100
0000
0000
1000
1000
0010
,  // measure 24
0100
0010
0110
0000
0000
1000
1000
0001
,  // measure 25
0010
0110
0000
1001
,  // measure 26
0001
0001
0010
0100
0010
0000
1000
1000
,  // measure 27
0010
0100
0010
0000
0000
0001
0001
0010
,  // measure 28
0100
0010
1000
0000
0000
0100
0100
0010
,  // measure 29
0100
0001
0001
0000
0000
1000
1001
0010
,  // measure 30
0100
0010
0001
0000
0100
0100
0010
0100
,  // measure 31
1000
1001
0000
0110
,  // measure 32
0001
0001
1100
0010
0010
0100
0011
0000
,  // measure 33
0100
0000
0000
1001
0000
0000
0000
0000
0000
1000
0000
1000
,  // measure 34
0100
0000
0100
0010
0000
0010
0001
0000
0001
0010
0000
0010
,  // measure 35
0100
0000
0010
1000
0000
1000
0000
0000
0000
0001
0000
0001
,  // measure 36
0010
0000
0010
0100
0000
0010
0100
0000
1000
0000
1000
0000
,  // measure 37
0001
0000
0001
0010
0000
0010
0000
0010
0000
0100
0000
1000
,  // measure 38
0000
1000
0000
0100
0000
0100
0000
0000
0000
0001
0000
0000
,  // measure 39
0011
0010
0110
2000
,  // measure 40
0000
0000
0000
3001
0000
0000
0001
0000
0001
0010
0000
0010
,  // measure 41
0000
0000
0010
0000
0000
0000
0010
0000
0000
0100
0000
0000
0010
0000
0000
0000
0000
0000
0001
0000
0000
0000
0000
0000
,  // measure 42
1001
0000
0001
0000
0001
0000
0110
0000
0100
0000
0001
0000
,  // measure 43
1001
0000
0010
0000
0010
0000
1100
0000
0001
0000
0010
0000
,  // measure 44
0110
0000
0000
0000
0001
0000
0000
0000
0001
0000
0000
0000
1001
0000
0000
0000
0000
0000
0010
0000
0000
0100
0000
0000
,  // measure 45
0010
1000
1000
0001
0010
0000
1001
0000
,  // measure 46
0000
0100
0100
0010
1000
0001
0010
0010
,  // measure 47
0000
0000
0000
0100
0000
0000
0010
0000
0000
1000
0000
0000
1000
0000
0000
0000
0000
0000
1001
0000
0000
0000
0010
0000
,  // measure 48
0000
0000
0100
0000
0000
0000
0100
0000
0000
0000
0000
0000
0010
0000
0000
0100
0000
0000
0010
0000
0000
0010
0000
0000
,  // measure 49
0000
1010
0000
0010
0100
0000
0002
0000
,  // measure 50
0000
2000
0000
3003
,  // measure 51
0010
1010
1000
1001
,  // measure 52
0010
0010
0100
0010
1000
0000
1000
0010
,  // measure 53
0001
0001
0010
0100
0010
0000
1001
0000
,  // measure 54
0000
0100
0100
0010
1000
0001
0010
0001
,  // measure 55
0010
0000
0100
0010
0100
0000
1001
0000
,  // measure 56
0000
1000
1100
0000
0000
0010
0000
0110
,  // measure 57
0000
0100
0001
0000
1000
0010
0100
0010
,  // measure 58
0100
0010
0100
0000
0110
0000
0001
0000
,  // measure 59
0011
0010
0110
1001
,  // measure 60
0000
1000
1000
0010
0100
0010
0000
0001
,  // measure 61
0001
0010
0100
0010
1000
0000
1001
0000
,  // measure 62
0000
0010
0010
0100
0010
1000
0000
1000
,  // measure 63
0001
0010
0010
1000
1000
0000
0011
0000
,  // measure 64
1000
1100
0000
0021
,  // measure 65
0000
0130
0100
0000
0000
0000
0002
0000
,  // measure 66
0000
0003
1000
1000
0000
0000
1000
0000
,  // measure 67
1100
0000
0000
0100
0000
0000
0101
0000
0000
1002
0000
1000
,  // measure 68
0000
0000
0000
0100
0000
0100
0003
0000
0000
0010
0000
0010
,  // measure 69
0000
0000
1000
0001
1000
0000
0000
0000
0010
0000
0010
0000
,  // measure 70
0001
1000
0001
1000
0000
0000
0100
0000
0100
0000
0000
0000
,  // measure 71
0010
0001
1000
0000
1000
0000
0000
0000
0000
0110
0000
0000
,  // measure 72
0001
0000
0001
0010
0000
0010
0000
0000
0000
1000
0001
1000
,  // measure 73
0001
0000
0000
1000
0000
1000
0000
0000
0000
0110
0000
0000
,  // measure 74
0001
0000
0001
0010
0000
0010
0000
0000
0000
1001
0000
1000
,  // measure 75
0010
0000
0010
0100
0000
0100
0000
0000
0000
0001
0000
0000
,  // measure 76
0011
0000
0010
0100
0010
0100
0010
0000
,  // measure 77
1001
0000
0100
0010
0001
0100
0100
1000
,  // measure 78
0010
0010
0100
0010
1000
0001
1000
0000
,  // measure 79
0110
1010
0000
1001
,  // measure 80
0010
0100
0010
1000
1000
0001
0010
0001
,  // measure 81
0100
0100
0010
0001
1000
0000
0020
0000
,  // measure 82
0000
1000
2030
0000
0000
0000
3002
0003
,  // measure 83
0010
0010
0100
0010
0001
0000
0000
0000
1000
0000
0000
0000
1001
0000
0000
0000
,  // measure 84
1000
0000
1001
0000
0010
0100
0010
0100
,  // measure 85
0001
0001
1100
0010
0010
0100
0001
0010
,  // measure 86
0010
0100
1001
0000
1000
0000
1100
0000
,  // measure 87
0100
0000
0110
0000
0002
0000
0003
0010
,  // measure 88
0010
0100
1000
0100
0100
0010
0001
0001
,  // measure 89
1000
1000
0001
0000
0220
0000
0000
0000
,  // measure 90
0000
0330
1000
1100
,  // measure 91
0100
0001
0000
0010
0020
0000
0031
0002
,  // measure 92
0000
0000
0000
0000
0000
0003
1000
0000
,  // measure 93
1100
0000
0100
0000
0110
0000
0001
0001
,  // measure 94
0010
0100
0010
1000
1000
0001
0010
0200
,  // measure 95
0000
0310
0010
0001
0002
0000
0003
2000
,  // measure 96
0000
3010
0010
0100
0010
0100
0010
0000
,  // measure 97
0010
0001
0001
0000
1001
0000
0000
0010
,  // measure 98
1010
0000
0000
0001
0001
0010
1000
0000
,  // measure 99
2000
0000
3001
0000
0010
0010
0100
0010
,  // measure 100
2000
3000
0001
0011
,  // measure 101
1010
0000
1000
0000
1001
0000
0000
0100
,  // measure 102
0100
0010
0000
1000
0001
0001
0010
0100
,  // measure 103
0010
0100
0001
0000
1001
0000
0000
0100
,  // measure 104
0100
0000
0010
0010
1000
0001
1000
0010
,  // measure 105
0001
0100
0100
0000
1001
0000
0010
1010
,  // measure 106
0000
0000
0200
0000
0000
0000
0300
0001
,  // measure 107
0001
0000
0000
2000
0000
3000
0001
0001
,  // measure 108
0000
0000
1000
1100
,  // measure 109
0100
0110
0020
0000
,  // measure 110
0030
0100
0010
0100
2000
0000
0000
0000
,  // measure 111
3010
0001
0000
0000
2000
0000
0010
0020
,  // measure 112
3000
0030
0100
0000
0220
0000
0000
0330
,  // measure 113
0001
1000
0001
1000
2000
0000
0000
3010
,  // measure 114
0010
0100
0010
0100
1000
0000
1100
0000
,  // measure 115
0100
0000
0110
0000
1001
0000
0010
0010
,  // measure 116
0110
0000
1000
0001
2000
0000
3000
0000
,  // measure 117
1001
0000
0022
0033
0220
0000
0000
0330
,  // measure 118
1000
1000
0010
0100
0020
0000
0030
0010
,  // measure 119
0001
0000
0000
0000
2000
0000
3000
0100
,  // measure 120
0100
0001
1001
0000
2000
0000
3010
0000
,  // measure 121
1010
0000
0110
0000
1002
0000
0003
0010
,  // measure 122
0010
0100
0010
0100
0020
0000
0030
1000
,  // measure 123
1000
0000
0001
0010
2200
0000
3300
0001
,  // measure 124
1001
0000
0000
0100
0120
0000
0030
1000
,  // measure 125
1010
0000
0000
0001
0000
0001
0010
0000
0010
0100
0000
0100
,  // measure 126
0010
0000
0000
0000
1000
0000
0000
0000
1000
0001
0000
0000
0010
0000
0000
0000
0010
0000
1000
0000
0000
0000
1000
0000
,  // measure 127
0001
0000
0010
0001
0100
0000
0100
0010
0100
0000
1000
0000
,  // measure 128
1000
0001
0000
0001
0100
0010
0100
0000
0000
0110
0000
0010
,  // measure 129
0000
0000
0001
0000
0000
0000
0001
0000
0000
0010
0000
0000
0100
0000
0000
0010
0000
0000
1000
0000
0000
1000
0000
0000
,  // measure 130
0010
0000
0000
0001
0000
0000
0001
0000
0000
0100
0000
0000
0010
0000
0000
1000
0000
0000
0100
0000
0000
0000
0100
0000
,  // measure 131
0001
0000
0001
0010
0100
0010
1000
0000
1000
0001
0010
0000
,  // measure 132
0010
0000
0000
0000
0100
0000
0010
0000
0000
0000
1000
0000
0000
0000
1000
0000
0000
0000
0010
0000
0000
0010
0000
0000
,  // measure 133
0001
0000
0000
0000
1000
0000
0000
0000
1000
0000
0000
0000
0001
0000
0000
0100
0000
0000
0010
0000
0000
0000
1000
0000
,  // measure 134
0001
0000
0000
0000
0010
0000
0001
0000
0000
0100
0000
0000
0010
0000
0000
0000
0000
0000
1001
0000
0000
0000
0100
0000
,  // measure 135
0000
0010
0000
1100
0000
0001
0000
0001
0000
0110
0000
0100
,  // measure 136
0000
0001
0000
1001
0000
0010
0000
0010
0000
0011
0000
0100
,  // measure 137
0000
0100
0000
1100
0000
0001
0000
0010
0000
0110
0000
1000
,  // measure 138
0000
0010
0000
1010
0000
0001
0000
0001
0000
0011
0000
1000
,  // measure 139
0000
1000
0000
1001
0000
0100
0000
0010
0000
1100
0000
0010
,  // measure 140
0000
0001
0000
0110
0000
0100
0000
0010
0000
1010
0000
0010
,  // measure 141
0000
0100
0000
0101
0000
1000
0000
1000
0010
0000
0100
0010
,  // measure 142
0001
0000
0000
0000
0001
0000
0100
0000
0000
0000
0000
0000
1001
0000
0000
0000
0000
0000
0010
0000
0000
0010
0000
0000
,  // measure 143
0100
0010
1000
1000
0001
0010
0010
0000
,  // measure 144
0110
0000
0100
0010
2020
3030
0000
0001
,  // measure 145
0001
0010
0100
0010
0100
0100
0010
0001
,  // measure 146
1000
0001
1000
0000
1001
0000
0010
0010
,  // measure 147
0000
0100
0110
0010
,  // measure 148
1010
0000
0001
0000
0100
0010
0100
0010
,  // measure 149
0200
0000
0000
0300
0010
0000
1010
0000
,  // measure 150
1000
0000
1100
0000
1001
0000
0010
0010
,  // measure 151
0100
0001
0000
0110
0000
1000
0001
0010
,  // measure 152
0001
1000
1000
0000
1001
0000
0010
0010
,  // measure 153
0100
0010
1100
0000
1001
0001
0010
0100
,  // measure 154
0010
0100
1000
0000
1001
0100
0000
0010
,  // measure 155
0100
0001
0000
0110
0001
0000
0000
1000
,  // measure 156
0100
0000
0001
0000
0110
0000
0000
1000
,  // measure 157
0100
0000
0001
0011
,  // measure 158
0010
0000
0110
0000
2000
3000
0001
0001
,  // measure 159
0010
0100
0010
1000
1000
0001
0010
0001
,  // measure 160
0010
0000
0110
0000
1001
0000
0000
2000
,  // measure 161
0000
3010
0010
0100
0010
0100
0010
0001
,  // measure 162
1000
1000
0001
0000
1001
0000
0000
0010
,  // measure 163
0100
0000
0000
1000
1000
0010
0010
0100
,  // measure 164
0010
0001
0100
0001
0100
0001
0100
2000
,  // measure 165
0000
3000
1000
1100
,  // measure 166
0100
0000
0110
0000
0011
0000
0000
1000
,  // measure 167
1000
0010
0100
0010
0100
0100
0010
0001
,  // measure 168
1000
0000
0001
1000
1000
0000
0100
0010
,  // measure 169
0100
0010
0001
0001
1000
0100
0010
0100
,  // measure 170
0010
0001
1000
0000
1001
0000
0010
0000
,  // measure 171
0110
0000
0000
2000
0000
3000
0000
0001
,  // measure 172
1001
0000
0000
0020
0000
0030
0000
0100
,  // measure 173
0100
0000
0001
0011
,  // measure 174
0010
0110
2002
3000
,  // measure 175
0100
0000
0100
0000
0010
0000
0013
0000
1000
0000
1000
0010
,  // measure 176
0000
0100
0010
0000
0000
0000
0001
0000
0001
0000
0010
0100
,  // measure 177
0010
0000
0000
1000
0000
1000
0000
0001
0000
0001
0000
0000
,  // measure 178
0010
0001
0100
0000
0000
0000
1001
0000
0000
0010
0000
0010
,  // measure 179
0000
0000
1000
0000
0010
0000
0110
0000
0000
0001
0000
0001
,  // measure 180
1000
0000
1000
0010
0000
0000
0110
0000
0000
0001
0000
0001
,  // measure 181
0010
0100
0000
0000
1000
0000
1000
0001
0000
0000
0001
1000
,  // measure 182
0010
0000
0100
0010
0000
0000
1001
0000
0001
0000
0010
0100
,  // measure 183
0010
0000
1000
0000
1000
0000
0010
0000
0000
0010
0100
0010
,  // measure 184
0100
0000
0000
0000
0001
0000
1001
0000
0000
0000
1000
0000
,  // measure 185
1001
0000
0000
0000
0000
0000
0001
0000
0001
0000
0000
0010
,  // measure 186
0100
0010
0000
0000
0000
0000
1001
0000
0000
0010
0000
0010
,  // measure 187
0100
0000
0000
0000
0000
1000
0000
1000
0001
0010
0000
0010
,  // measure 188
0000
0100
0000
1010
0000
0001
0000
0010
0000
0110
0000
0100
,  // measure 189
0000
0000
0010
0000
0001
0000
0101
0000
0100
0000
1000
0000
,  // measure 190
1001
0000
0000
0000
0000
0000
0100
0000
0000
0010
0000
0000
0100
0000
0000
0010
0000
0000
0000
0000
0000
0000
0000
0000
0002
0000
0000
0000
0000
0000
0000
0000
0000
0000
0000
0000
0010
0000
0000
0000
0000
0000
0000
0000
0010
0000
0000
0000
,  // measure 191
0000
0100
0000
0100
0000
0010
0000
0010
1000
0000
1000
0000
,  // measure 192
0100
0000
0100
0000
0010
0000
0010
0000
0100
0000
0100
0000
,  // measure 193
1000
0000
1000
0010
0000
0010
0100
0000
0100
0000
0010
0000
,  // measure 194
0010
1000
0000
1000
0100
0000
0010
0100
0000
0010
0000
1000
,  // measure 195
0000
1000
0000
0100
0000
0100
0010
0000
0010
1000
0000
1000
,  // measure 196
0100
0000
0100
0010
0000
0100
0010
0000
1000
0000
1000
0000
,  // measure 197
0010
1000
2000
0000
0000
0000
3003
0000
;
