#VERSION:0.83;
#TITLE:405nm(Shu mix);
#SUBTITLE:;
#ARTIST:Shu;
#TITLETRANSLIT:;
#SUBTITLETRANSLIT:;
#ARTISTTRANSLIT:;
#GENRE:;
#ORIGIN:;
#CREDIT:PaperBox440;
#BANNER:405nm(Shu mix).png;
#BACKGROUND:405nm(Shu mix)-bg.png;
#PREVIEWVID:;
#JACKET:405nm(Shu mix)-jacket.png;
#CDIMAGE:;
#DISCIMAGE:;
#LYRICSPATH:;
#CDTITLE:;
#MUSIC:405nm(Shu mix).mp3;
#OFFSET:0.000000;
#SAMPLESTART:22.087912;
#SAMPLELENGTH:12.197802;
#SELECTABLE:YES;
#BPMS:0.000=182.000;
#STOPS:;
#DELAYS:;
#WARPS:;
#TIMESIGNATURES:0.000=4=4;
#TICKCOUNTS:0.000=4;
#COMBOS:0.000=1;
#SPEEDS:0.000=1.000=0.000=0;
#SCROLLS:0.000=1.000;
#FAKES:;
#LABELS:0.000=Song Start;
#BGCHANGES:;
#KEYSOUNDS:;
#ATTACKS:
;

//---------------dance-single - ----------------
#NOTEDATA:;
#CHARTNAME:;
#STEPSTYPE:dance-single;
#DESCRIPTION:;
#CHARTSTYLE:;
#DIFFICULTY:Hard;
#METER:13;
#RADARVALUES:0.677950,0.707685,0.774290,0.116560,0.141537,570.000000,477.000000,93.000000,14.000000,0.000000,0.000000,0.000000,0.000000,0.000000,0.677950,0.707685,0.774290,0.116560,0.141537,570.000000,477.000000,93.000000,14.000000,0.000000,0.000000,0.000000,0.000000,0.000000;
#CREDIT:;
#NOTES:
0000
0000
0000
0000
,
0000
1001
0000
0010
0100
0010
0000
1000
,
1000
0010
0000
0010
0100
0001
0000
0001
,
1000
1000
0001
0010
0001
0100
0100
0010
,
0000
0001
0100
0000
0100
0010
0001
0000
,
0001
1000
1000
0010
0100
0010
0100
0000
,
1000
1000
0001
0000
0011
0100
0010
1000
,
1000
0001
0001
0100
0100
0001
0010
0001
,
1000
1000
0010
0100
0010
0001
0000
0001
,
2000
0010
0001
0001
3000
0010
0100
0000
,
0100
0010
0001
0000
0001
1000
0100
1000
,
0010
0100
0100
0010
0001
0001
1100
0000
,
1000
1000
0001
0010
0001
0000
1001
0000
,
0100
0100
0010
1000
1001
0000
0010
0100
,
0100
0001
0010
0001
0100
0100
1000
0000
,
0110
0000
0001
0010
0001
0100
0000
0100
,
0010
0000
1001
1001
1001
0000
0010
0000
,
1010
1000
0001
0001
0100
0000
0100
0001
,
0010
0000
0001
0000
0100
0000
0100
0000
1000
0000
0000
0000
1000
0000
0000
0010
,
0100
1000
0000
0000
1001
0000
0000
0000
1000
0000
0001
0000
1000
0000
1000
0000
,
0010
0000
0100
0000
0000
0000
0100
0000
0001
0000
1001
0000
0000
0000
0000
0010
,
0100
1000
0000
0000
1001
0000
0010
0000
0100
0000
0020
0000
0000
0000
0000
0000
,
0000
0000
0030
0000
2000
3000
1001
1000
,
0001
0000
0110
1000
1000
0001
0100
1000
,
0000
0110
0010
1000
1010
0001
0000
0100
,
0101
0000
0000
0000
1000
0000
1000
0000
0010
0100
0010
0000
2000
0000
0000
0000
,
0000
0000
3000
0000
0000
0000
0001
0000
1001
0000
0000
0000
0000
0000
0000
0010
,
0100
0000
0000
0000
2000
0000
3000
0000
0001
1000
0001
1000
0000
0000
0100
0000
,
0010
0000
0000
0000
0010
1000
0002
0000
0000
0000
0000
0000
0000
0003
0000
0000
,
1000
0001
0010
0000
0200
0000
0000
0000
0300
0000
0010
0000
0100
0000
0020
0000
,
0000
0000
0030
1000
1001
0000
0000
0100
,
1000
0000
0000
0000
1001
0000
0000
0000
0010
0100
0010
0100
0000
0000
0001
0000
,
0001
0000
0110
0000
1100
0000
0001
0001
,
0000
0000
1001
0000
0100
0000
0110
1000
,
0000
0100
1100
0000
0010
1000
1001
0000
,
0001
0000
0110
0100
0000
1000
1010
0001
,
0000
0000
0100
0000
0110
0000
1000
0000
1000
0000
0001
0000
0011
0000
1000
0100
,
1000
0000
1001
0000
0010
1000
1010
0001
,
0100
0000
0110
0001
1000
1000
0011
0000
,
0010
0100
1001
1000
0001
0001
1100
1000
,
0000
0010
1010
0000
0100
0000
1001
1001
,
0000
1010
0000
1100
0000
0001
0000
0010
,
1000
1010
0000
1100
0000
0001
0010
0001
,
0000
0000
0000
1001
1000
0000
0000
1001
,
0001
0000
0100
0000
0110
0000
1010
1010
,
0000
0001
0001
0010
0100
1000
1000
0001
,
0000
1010
0000
1100
0000
0001
0001
0010
,
0100
1000
0000
1100
0000
0001
0000
1001
,
0000
0100
0010
0100
1000
1000
0002
0000
,
0003
0000
0110
0010
1010
0000
1000
0001
,
0001
0010
0100
0010
1000
1000
0001
0001
,
0100
0010
0100
0000
1000
0100
1000
0100
,
0000
0011
0000
0110
0000
1100
0000
1001
,
0001
0010
0000
0100
0010
0100
0001
0000
,
0001
1000
1000
0010
0100
0001
0001
0000
,
1000
0010
0100
0000
0110
1000
1010
0100
,
0000
1010
0000
1100
0000
0011
2000
0000
,
3000
0000
0000
0000
0001
1000
0001
0000
0010
0000
0100
0000
0100
0000
0000
0000
,
1100
0000
1010
0000
0110
0000
1000
1000
,
0000
0100
0001
0000
0001
0000
0010
0000
0100
0000
0000
0000
0100
0010
0100
0000
,
1000
1010
0110
0101
,
0010
0000
0000
0000
0001
1000
0001
0000
0010
0000
0100
0000
0010
0000
1000
0000
,
1000
0000
0000
0000
0110
0000
0000
0000
1010
0000
0000
0001
1000
0001
0000
0000
,
1001
0000
0010
0100
0110
0000
0001
1000
,
1001
0000
0000
0000
1001
0000
0000
0010
0100
0000
0100
0000
0001
0010
0001
0000
,
1000
1000
0110
0000
1100
0001
0001
0000
,
0000
0000
1000
0000
0000
0000
0000
0000
0001
0000
1001
0000
0000
0000
0000
0001
,
0010
0100
0000
0000
0000
0000
0001
0000
1000
0000
1000
0000
0001
0000
0010
0000
,
0010
0100
0000
0000
0000
0000
0001
0000
2002
0000
0000
0000
3003
0000
0000
0001
,
1000
0000
1001
0000
0010
0100
0020
0000
,
0000
0000
0030
0000
1001
1001
0000
1000
,
1000
0000
0000
0000
0110
0000
0000
0000
0000
0000
1000
0001
1000
0000
0000
0000
,
0001
0000
0001
0000
0000
0000
0100
0010
0100
0000
0000
0000
0010
0000
1000
0000
,
1001
0000
1100
0000
1000
0001
1000
0000
,
0100
0010
0110
1010
,
1001
0000
1100
0000
0001
0001
1000
0000
,
0010
0010
1000
0100
1000
0000
0001
0000
,
0000
0010
0100
1000
0000
0000
1001
0000
0010
0000
0100
0000
0010
0000
0000
0000
,
0100
0000
0001
1000
1000
0000
0100
0001
,
0001
0000
0000
0000
1001
0000
0000
0000
0010
0100
0010
0000
0000
1000
0100
0000
,
0001
0000
0010
0100
0000
0000
1000
0000
1001
0000
0100
0000
0001
0010
0001
0100
,
2000
0000
0000
0000
,
0000
0000
0000
0000
,
0000
0000
0000
0000
,
0000
0000
0000
0000
,
3000
0000
0000
0000
;
