#TITLE:Twelve Days of Christmas ~Akatsuki Ver.~;
#SUBTITLE:;
#ARTIST:Itachi & Kisame;
#TITLETRANSLIT:;
#SUBTITLETRANSLIT:;
#ARTISTTRANSLIT:;
#CREDIT:;
#BANNER:;
#BACKGROUND:;
#LYRICSPATH:;
#CDTITLE:;
#MUSIC:Twelve Days of Christmas Akatsuki Ver..mp3;
#OFFSET:0.000;
#SAMPLESTART:100.000;
#SAMPLELENGTH:12.000;
#SELECTABLE:YES;
#BPMS:0.000=125.300;
#STOPS:;
#BGCHANGES:;

//---------------dance-single - ----------------
#NOTES:
     dance-single:
     :
     Challenge:
     11:
     0.667,0.911,0.433,0.260,0.735: // measure 1
0000
0000
0000
0000
,  // measure 2
0000
0000
0000
0000
,  // measure 3
0000
0000
0000
0000
,  // measure 4
0000
0000
0000
0000
,  // measure 5
0000
0000
0000
0000
,  // measure 6
0000
0000
0000
0000
,  // measure 7
0000
0000
0000
0000
,  // measure 8
0000
0000
0000
0000
0001
0001
0001
0001
,  // measure 9
0001
0001
0001
0001
0001
0001
0001
0001
,  // measure 10
0001
0001
0001
0001
0001
0001
0001
0001
,  // measure 11
0001
0000
0001
0000
0001
0000
1000
0100
0010
0001
0010
0100
0001
0000
1000
1000
,  // measure 12
0100
0100
0010
0010
0001
0001
1000
0100
0010
0001
1000
0100
0010
0001
0000
0000
,  // measure 13
1111
0000
0000
0000
,  // measure 14
0000
0000
0000
0000
0000
0000
0000
0000
1000
0100
1000
0100
0010
0001
0010
0100
,  // measure 15
0001
1000
1000
0100
0001
0100
1100
0000
0001
0100
0010
1000
0100
0001
1010
0000
,  // measure 16
0110
0111
0000
0000
1100
0000
1010
1100
,  // measure 17
1001
0000
0100
0100
0001
0010
1111
0000
0000
0000
0000
0000
0000
0000
0000
0000
,  // measure 18
0000
0000
0000
0000
0000
0000
0000
0000
0000
0000
0000
0000
0000
1000
0100
0010
,  // measure 19
1001
0100
0100
1000
0010
0010
1001
0100
0010
0001
1000
0100
0010
0001
0001
0010
,  // measure 20
0100
0000
1000
0000
0100
0000
1000
0000
1000
0000
0000
0000
1000
0000
0000
0000
2000
0000
0200
0000
0020
0000
0002
0000
0000
0000
3333
0000
0000
0000
2000
0200
,  // measure 21
0020
0002
3333
0000
0000
0000
1001
0000
1000
0000
1000
0000
1001
0000
0001
0000
0001
0000
0001
0000
0110
0000
0010
0000
0010
0000
0010
0000
1100
0000
0100
0000
,  // measure 22
0100
0100
0110
0000
1000
0000
0000
1111
0000
0000
0000
0000
0000
0000
0000
0000
,  // measure 23
0000
0000
0000
0000
,  // measure 24
1000
0100
0010
0001
1000
0100
0010
0001
1000
0100
0010
0001
1000
0100
0010
0001
,  // measure 25
1000
0100
0010
0001
0010
0000
1000
0000
0010
0000
1111
0000
0000
0000
0000
0000
,  // measure 26
1001
1000
0001
1000
0110
0001
1000
0001
1100
0100
0001
0100
1000
1000
0100
0100
,  // measure 27
0010
0010
0001
0001
1001
1000
0100
1000
0010
0001
1000
0100
0010
0001
0100
1000
,  // measure 28
0010
0000
0001
0000
1112
0000
0000
0000
0000
0000
0000
0000
1000
1000
1000
1000
1003
0000
0000
0000
0000
0000
1000
0000
0100
0000
0010
0000
0001
0000
0000
0000
,  // measure 29
0000
0000
0000
0000
,  // measure 30
0000
0000
0000
0000
0000
0000
0000
0000
0000
0000
0000
0000
0000
0000
0000
0000
0000
0000
0000
0000
0000
0000
0000
0000
0000
0000
1000
0000
0100
0000
0010
0000
0001
0000
0000
0000
1001
0000
0000
1000
0000
0000
0100
0000
0000
0010
0000
0000
,  // measure 31
0001
0000
0000
0001
0000
0000
1000
0100
0010
0001
0010
0100
1000
0100
0010
0001
0000
0000
0000
0000
0000
0000
0000
0000
1001
0000
0000
0110
0000
0000
0000
0000
0000
0000
0000
0000
2002
0000
0000
0020
0000
0000
0000
0000
0000
0000
0000
0000
,  // measure 32
0000
0000
3000
0000
0203
0000
0300
0030
1002
0000
0000
0000
0220
0000
0003
0000
,  // measure 33
0000
0000
0000
0000
0000
0000
0330
0000
1000
1000
0110
0110
0001
0001
0110
0110
,  // measure 34
1000
0100
0010
0001
1100
1000
0010
0001
0010
1000
0010
0001
0010
1000
0100
0010
,  // measure 35
0100
1000
1000
0100
0110
0000
0001
1000
0010
0001
0001
0000
0000
0000
0000
0000
,  // measure 36
1100
0000
0000
0000
0000
0000
0000
0000
0000
0000
0000
0000
2000
0000
0000
0200
0000
0000
0020
0000
0000
0000
0000
0000
0001
0000
0030
0000
0001
0000
0301
0000
0000
0000
0000
0000
3000
0000
0000
0000
0000
0000
0000
0000
0000
0000
0000
0000
,  // measure 37
0000
0000
0000
0000
0000
0000
0000
0000
0001
1000
0100
1000
0010
1000
0001
1000
,  // measure 38
0100
1000
0010
0000
1000
0001
0010
0100
1000
0100
0010
0001
0010
0100
1000
0100
,  // measure 39
0010
0001
0010
0100
1000
0100
0010
0001
0001
0001
0100
0100
0010
0000
2000
0000
,  // measure 40
0000
0000
0000
0000
0000
0000
0000
0000
0000
0111
0000
0000
0000
0000
0000
0111
0000
0000
0111
0000
0222
0000
0000
0000
,  // measure 41
0000
0000
0000
0000
0000
0000
0000
0000
0000
0000
0000
0000
0003
0000
0000
0000
0330
0000
0000
0000
0000
0000
0000
0000
3100
0000
0000
1000
0000
0000
0100
0000
0000
0010
0000
0000
0001
0000
0000
1000
0000
0000
0100
0000
0000
0010
0000
0000
,  // measure 42
0001
1000
0100
0010
0001
1000
0100
0010
0001
1000
0100
0010
0001
1000
0100
0010
,  // measure 43
0001
1000
0100
0010
0001
1000
0100
0010
0001
1000
0001
0000
0000
0000
0000
0000
,  // measure 44
1000
0000
0100
0000
1000
0000
0100
0000
1000
0000
0000
0000
0010
0000
0001
0000
0010
0000
0001
0000
0010
0000
0000
0000
1000
0000
0100
0000
1000
0000
0100
0000
1000
0000
0000
0000
0000
0000
0000
1000
0000
0000
0000
0000
0000
0000
0000
0000
,  // measure 45
0001
0000
1001
0000
0000
0000
1110
0000
0000
0010
0001
1000
0100
0010
0001
0010
,  // measure 46
1000
0001
1000
0001
0001
1000
0100
1000
0010
0001
1000
0100
0001
0000
0000
0000
,  // measure 47
0000
0000
0000
0000
0100
0001
1000
0100
0020
0031
0000
0000
0000
0000
0010
0000
,  // measure 48
0000
0000
0000
0000
0000
2000
0000
0000
,  // measure 49
0001
0010
0000
0111
0000
0000
0000
0000
,  // measure 50
0000
0000
3000
0000
0011
1000
0100
1000
1010
1000
0100
0010
0001
0010
0100
1000
,  // measure 51
0100
0010
0001
0010
0100
1000
0100
0010
0001
0010
0000
1000
0001
1000
0001
1000
,  // measure 52
0001
1000
0001
0000
0002
0000
0000
0000
0000
0000
1100
0000
0000
0000
1100
0000
,  // measure 53
0000
0000
1110
0000
0000
0000
0000
0000
0000
0000
0003
0000
1000
1000
0010
0100
,  // measure 54
0100
0000
0000
0000
0000
0000
0001
0001
,  // measure 55
0001
0001
0001
0001
0001
0001
0001
0001
,  // measure 56
0001
0001
0001
0001
0001
0001
0001
0001
,  // measure 57
0001
0001
0001
0001
0001
0001
0001
0001
,  // measure 58
0001
0000
0000
1000
0100
1000
0100
1000
0000
2000
0000
0000
0000
0000
0000
0110
0000
0000
0110
0000
0000
0001
0000
0000
,  // measure 59
3010
0000
1000
0001
0100
0000
0110
1010
,  // measure 60
0011
0000
1001
0000
1000
0000
1001
1000
0100
0010
0101
1000
0010
0001
0020
0000
,  // measure 61
2030
0000
0011
0000
0000
0011
0000
0011
,  // measure 62
0211
0000
0000
0000
0000
0000
0000
0000
0000
0300
0000
0000
3000
0000
1000
1000
,  // measure 63
0010
0010
0100
0100
1000
0001
1000
0001
0010
0001
0100
1000
0100
0001
0010
1000
,  // measure 64
1000
0000
0000
0000
0100
0000
0000
0000
0010
0000
0000
0000
1000
0000
0000
0000
0010
0000
0000
0000
0100
0000
0000
0000
0001
0000
0000
0000
1000
0000
0000
0000
0100
0000
0000
0000
1000
0000
0000
0000
0010
0000
0000
0000
0001
0000
0000
0000
1000
0000
0000
0000
0000
0000
0000
0000
0002
2000
0000
0000
0000
0000
0000
0000
,  // measure 65
0000
0000
0000
0000
0000
0000
0000
0000
0000
3000
0000
0000
0000
0000
0000
0000
1010
0000
0000
0000
0000
0000
0000
0000
0000
0000
0000
0000
0000
0000
0000
0000
1010
0000
0000
0000
0000
0000
0000
0000
0000
0000
0000
0000
0000
0000
0000
0000
1010
0000
0000
0000
0000
0000
0000
0000
1010
0000
0000
0000
0000
0000
0000
0000
,  // measure 66
0000
0003
0000
0000
0000
0000
0000
0000
0000
0000
0000
0000
0000
0000
0000
0000
0000
0000
0000
0000
0000
0000
0000
0000
0000
0000
0000
0000
0000
0000
0000
0000
0000
0000
0000
0000
0000
0000
0000
0000
0000
0000
0000
0000
0000
0000
0000
0000
1000
0000
0000
0000
0000
0000
0000
0000
0000
0000
0000
0000
0000
0000
0000
0000
0000
0000
0000
0000
0000
0000
0000
0000
0100
0000
0000
0000
0000
0000
0000
0000
0000
0000
0000
0000
0000
0000
0000
0000
0000
0000
0000
0000
0000
0000
0000
0000
0010
0000
0000
0000
0000
0000
0000
0000
0000
0000
0000
0000
0000
0000
0000
0000
0000
0000
0000
0000
0000
0000
0000
0000
0000
0000
0000
0000
0000
0000
0000
0000
0000
0000
0000
0000
0000
0000
0000
0000
0000
0000
0000
0000
0000
0000
0000
0000
0001
0000
0000
0000
0000
0000
0000
0000
0000
0000
0000
0000
0000
0000
0000
0000
0000
0000
0000
0000
0000
0000
0000
0000
0010
0000
0000
0000
0000
0000
0000
0000
0000
0000
0000
0000
0000
0000
0000
0000
0000
0000
0000
0000
0000
0000
0000
0000
,  // measure 67
0100
0000
1000
0000
0000
0000
0000
0000
1000
0100
0200
0000
0310
0000
0000
0000
,  // measure 68
1000
0000
0000
0000
0000
0000
0000
0000
0001
0000
0000
0000
0000
0000
0000
0000
0100
0000
0000
0000
0001
0000
0000
0000
0000
0000
0000
0000
1000
0100
1000
0000
,  // measure 69
0000
0000
0000
0000
0010
0001
0010
0000
0000
0000
0000
0000
0100
0010
0100
0000
0000
0000
0000
0000
0001
1000
0001
0000
0000
0000
0000
0000
1000
0000
1000
0000
,  // measure 70
1001
0110
2002
0000
,  // measure 71
0000
0000
0000
0000
3003
0000
1000
0100
0010
0001
0010
1000
0001
1000
0001
1000
,  // measure 72
0100
0010
0100
0010
0100
0001
1000
0001
0001
1000
0001
1000
1000
0010
0100
1000
,  // measure 73
0001
0010
1000
0000
0000
0000
0010
0000
0100
0000
0002
0000
0000
0000
0000
0000
,  // measure 74
2000
0003
0020
3000
0000
0000
0000
0200
,  // measure 75
0000
2000
0000
0000
0000
0000
0000
0000
,  // measure 76
0000
0000
0000
0000
0000
0000
0000
0000
0000
0000
0000
0000
0000
0000
0000
0000
0000
0000
0002
0003
0000
0000
0000
0000
3000
0000
0000
0000
0000
0000
0000
0000
,  // measure 77
0000
0330
0000
0000
0000
0000
0000
0000
0000
0000
0000
0000
0000
0000
0000
0000
0000
0000
0000
0000
0000
0000
0000
0000
0000
0000
0000
0000
0000
0000
0000
0000
,  // measure 78
0000
0000
0000
0000
,  // measure 79
0001
0000
0000
0000
,  // measure 80
0000
0000
0000
0000
0000
0000
0000
1000
,  // measure 81
1000
0000
1000
0000
1000
1000
0000
0100
,  // measure 82
0002
0000
1013
0010
0100
0000
1010
0000
,  // measure 83
0100
0001
0010
0100
0000
1000
0010
0100
,  // measure 84
0000
0001
0010
0100
1000
0010
0100
0000
,  // measure 85
0001
0010
0100
0000
0000
0000
0000
0000
;
