#TITLE:Midna's Desperate Hour;
#SUBTITLE:;
#ARTIST:近藤浩治;
#TITLETRANSLIT:;
#SUBTITLETRANSLIT:;
#ARTISTTRANSLIT:Koji Kondo;
#CREDIT:;
#BANNER:Midnadesperatehourbn.png;
#BACKGROUND:Midnadesperatehourbg.png;
#LYRICSPATH:;
#CDTITLE:;
#MUSIC:12 Midnas Desperate Hour_1.mp3;
#OFFSET:-0.820;
#SAMPLESTART:38.680;
#SAMPLELENGTH:12.000;
#SELECTABLE:YES;
#BPMS:0.000=132.910;
#STOPS:;
#BGCHANGES:;

//---------------dance-single - ----------------
#NOTES:
     dance-single:
     :
     Hard:
     7:
     0.482,0.816,0.364,0.241,0.095:
0000
0000
0000
0000
,
0000
0000
0000
0000
,
0000
0000
0000
0000
,
1000
0000
0010
0100
,
0000
0001
1000
0000
,
0100
0010
0001
0000
0000
0000
0000
0000
,
0000
0000
0000
0000
0000
0000
1000
0010
,
0100
0000
0010
0100
0001
0000
0000
0000
,
0000
0000
0000
0000
,
1000
0000
0100
0010
,
0000
0001
0010
0000
,
0100
1000
0001
0000
0000
0000
0000
0000
,
0000
0000
0000
0000
,
0100
0010
1000
0001
0100
0000
0000
0000
,
0000
0000
0000
0000
,
1001
0000
0000
0000
,
0000
0000
0000
0000
1010
0000
0000
0101
,
0000
0000
1001
0000
0000
1000
0000
0000
,
0100
0000
0000
0000
,
0000
0000
0010
0001
0100
0000
0000
0000
,
0000
0000
0000
0000
,
1001
0000
0100
0010
,
0000
1000
0010
0000
,
0100
0010
1000
0000
0000
0000
0000
0000
,
0000
0000
0000
0000
0000
0000
0100
0010
,
0001
0000
1000
0100
0010
0000
0000
0000
,
0000
0000
0000
0000
,
0001
0000
0100
0010
,
0000
1000
0010
0000
,
1010
1000
0001
0000
0000
0000
0000
0000
,
0000
0000
0000
0000
,
1000
0100
0010
0001
0100
0000
0000
0000
,
0000
0000
0000
0000
0000
0000
0010
1000
,
0002
0000
0000
0000
,
0000
0003
0200
0000
0020
0000
0330
2000
,
0000
0000
0000
0000
,
3002
0000
0000
0000
,
0000
0003
0020
0000
0230
0000
0300
2000
,
0000
0000
0000
0000
0000
3000
0000
0000
,
0000
0000
1000
0001
0100
0000
1000
0001
,
0100
0000
0000
0000
0000
0000
1000
0001
,
0200
0000
0000
0000
0000
0000
0000
0300
,
0000
0000
0001
0100
0010
0000
0001
0100
,
0010
0000
0000
0000
0000
0000
0100
0010
,
1000
0001
0020
0000
0000
0000
0000
0030
,
0001
0001
0010
0100
1000
0100
0010
0010
,
0001
0100
0010
1000
0010
0010
0100
0001
,
0010
0100
1000
1000
0010
0100
0001
0010
,
1100
0100
0010
0001
1000
0001
1001
0001
,
0010
0100
1000
0100
0110
0010
0100
0001
,
0010
0011
0010
0001
0010
1000
0100
1001
,
1000
0010
1000
1001
0001
0011
0010
0100
,
1000
0011
0010
0110
0100
1000
0010
0101
,
0001
1001
0100
0010
0001
1000
0010
0100
,
0001
0000
1000
0000
0100
0000
0010
0000
0001
0000
0100
0010
0100
0000
0001
0000
,
1000
0000
0100
0010
0001
0000
0010
0000
0001
0000
0100
0000
0010
0000
1000
0000
,
0100
0010
0001
0100
0001
0010
0001
0011
,
0010
0100
1000
0110
0010
1010
1000
1000
,
0001
0110
0010
1100
0100
1000
0010
0101
,
0110
1010
1000
0100
0010
0001
0010
0100
,
1000
0000
0010
0000
0100
0000
0001
0000
0010
0000
0001
0000
1000
0000
0100
1000
,
0100
0010
0001
0100
0010
0010
1000
0001
,
0100
0010
1000
0100
0010
0100
1000
0011
,
0100
0001
0100
1000
0010
0100
1000
0100
,
0010
0000
0001
0000
0010
0000
2002
3000
1003
0000
0010
0000
0220
0300
0130
0000
,
0001
0000
0022
0030
0013
0000
0100
0000
0220
0300
0130
0000
1000
0000
1010
0000
,
0100
0001
1000
0010
0100
0001
1000
0100
,
0010
0000
1001
0000
1010
0000
2002
3000
1000
0000
1003
0000
0100
0000
0010
0000
,
0001
1000
0100
0010
0001
1000
0010
1001
,
0001
0100
0001
1001
1000
1100
0100
0010
,
0001
1100
0100
0110
0010
0001
0100
1010
,
1000
1001
0010
0100
1000
0001
0100
0010
,
1000
0000
0001
0000
0010
0000
0100
0000
1000
0000
0100
0010
0001
1000
0100
0000
,
0010
0000
0001
0100
0010
1000
0001
0000
1000
0000
0010
0000
0100
0000
0001
0000
,
0010
0100
1000
0010
1000
0100
1000
1100
,
0100
0010
0001
0110
0100
0101
0001
0100
,
1000
0110
0100
0011
0010
0001
0100
1010
,
0110
0101
0001
0010
0100
1000
0100
0010
,
0001
0000
0100
0000
0010
0000
1000
0000
0100
0000
1000
0000
1000
0000
0100
1000
,
0100
0010
0001
0000
0101
0000
0110
0000
1000
0000
0010
0000
1000
0000
0001
0000
,
0100
0010
1000
0100
0010
0100
0011
1100
,
0202
0000
0003
0301
0010
0100
1000
0100
,
0010
0000
0001
0000
0220
0000
0000
0330
2002
0000
0000
3003
0000
2020
0000
0000
,
0000
0000
0000
0000
0000
3030
1000
0000
0100
0000
0010
0000
0001
0000
0000
2002
,
0000
0000
0000
0000
0000
0000
0000
3003
,
0000
0000
0022
0000
0000
0033
0000
0202
0000
0000
0303
0000
0000
2020
0000
0000
,
0000
3030
1000
0000
0100
0000
0010
0000
0001
0000
1000
0000
0010
0000
0110
0000
,
0000
0000
0001
0010
0100
1000
0010
0000
0100
0000
0010
1000
0100
0010
0001
0000
,
0100
0000
0001
0000
1000
0000
0010
0000
0100
0000
0220
0330
0202
0303
2020
0000
,
0000
0000
0000
0000
0000
0000
0000
3030
,
0000
0000
0000
1000
0100
0010
0001
1000
0000
0010
0000
0100
0001
0010
0100
1000
,
0000
0010
0000
0100
0000
0001
0000
0010
0000
0100
0000
1000
0100
0010
0001
0100
,
0010
1000
0001
0020
0000
0000
0000
0000
0030
0000
0000
0000
0000
0000
0001
0000
,
0001
0010
0100
0100
0100
1000
1000
0010
,
0100
0100
0100
0010
0010
1000
0010
0010
,
0010
0100
0100
1000
0001
0001
0001
1000
,
0100
0010
0001
1000
0100
0010
0001
1000
,
0001
0000
0000
0000
;

//---------------dance-single - ----------------
#NOTES:
     dance-single:
     :
     Medium:
     4:
     0.239,0.462,0.067,0.112,0.000:
0000
0000
0000
0000
,
0000
0000
0000
0000
,
0000
0000
0000
0000
,
1000
0000
0010
0100
,
0000
0001
1000
0000
,
0100
0010
0001
0000
0000
0000
0000
0000
,
0000
0000
0000
0000
0000
0000
1000
0010
,
0100
0000
0010
0100
0001
0000
0000
0000
,
0000
0000
0000
0000
,
1000
0000
0100
0010
,
0000
0001
0010
0000
,
0100
1000
0001
0000
0000
0000
0000
0000
,
0000
0000
0000
0000
,
0100
0010
1000
0001
0100
0000
0000
0000
,
0000
0000
0000
0000
,
1001
0000
0000
0000
,
0000
0000
0000
0000
1010
0000
0000
0101
,
0000
0000
1001
0000
0000
1000
0000
0000
,
0100
0000
0000
0000
,
0000
0000
0010
0001
0100
0000
0000
0000
,
0000
0000
0000
0000
,
1001
0000
0100
0010
,
0000
1000
0010
0000
,
0100
0010
1000
0000
0000
0000
0000
0000
,
0000
0000
0000
0000
0000
0000
0100
0010
,
0001
0000
1000
0100
0010
0000
0000
0000
,
0000
0000
0000
0000
,
0001
0000
0100
0010
,
0000
1000
0010
0000
,
1010
1000
0001
0000
0000
0000
0000
0000
,
0000
0000
0000
0000
,
1000
0100
0010
0001
0100
0000
0000
0000
,
0000
0000
0000
0000
0000
0000
0010
1000
,
0002
0000
0000
0000
,
0000
0003
0200
0000
0020
0000
0330
2000
,
0000
0000
0000
0000
,
3002
0000
0000
0000
,
0000
0003
0020
0000
0230
0000
0300
2000
,
0000
0000
0000
0000
0000
3000
0000
0000
,
0000
0000
1000
0001
0100
0000
1000
0001
,
0100
0000
0000
0000
0000
0000
1000
0001
,
0200
0000
0000
0000
0000
0000
0000
0300
,
0000
0000
0001
0100
0010
0000
0001
0100
,
0010
0000
0000
0000
0000
0000
0100
0010
,
1000
0001
0020
0000
0000
0000
0000
0030
,
0001
0100
0001
0100
0001
0100
0010
1000
,
0010
1000
0010
1000
0100
0010
0100
0010
,
0100
0010
0001
1000
0001
1000
0001
1000
,
0010
0100
0010
0100
0010
0100
0001
0100
,
0001
0100
0001
0100
0010
1000
0010
1000
,
0010
1000
0100
1000
0100
1000
0000
0001
,
0000
0000
0000
0100
0000
0010
0000
0000
,
0000
1000
0000
0001
0000
0000
0000
0010
,
0100
1000
0000
0000
0000
0000
0000
0000
,
0000
0000
0000
0000
0000
0001
0100
0010
,
0000
0100
0010
1000
0000
0000
0000
0000
,
0000
0000
0000
0000
0000
0000
0000
0001
,
0000
0000
0000
0010
0000
0100
0000
0000
,
0000
1000
0000
0100
0000
0000
0000
0010
,
0001
1000
0000
0000
0000
0000
0000
0000
,
0000
0000
0000
0000
0000
0000
0000
0010
,
0100
0001
1000
0010
0000
0000
0000
0000
,
0000
0000
0000
0000
0000
0000
0000
1001
,
0000
0000
0000
0000
,
0000
0000
0000
0101
0000
0000
1010
0000
,
0000
1001
0000
0000
0001
0000
0000
0010
,
0000
0000
0000
0000
,
0000
0100
1000
0010
0000
0000
0000
0000
,
0000
0000
0000
0000
0000
0000
0000
1001
,
0000
0000
0000
0010
0000
0100
0000
0000
,
0000
0001
0000
0100
0000
0000
0000
0010
,
0100
0001
0000
0000
0000
0000
0000
0000
,
0000
0000
0000
0000
0000
0010
0100
1000
,
0000
0001
0010
0100
0000
0000
0000
0000
,
0000
0000
0000
0000
0000
0000
0000
1000
,
0000
0000
0000
0010
0000
0100
0000
0000
,
0000
0001
0000
0100
0000
0000
0000
0101
,
0001
1000
0000
0000
0000
0000
0000
0000
,
0000
0000
0000
0000
0000
0000
0000
0001
,
0010
0100
1000
0010
0000
0000
0000
0000
,
0000
0000
0000
0000
0000
0100
0001
2000
,
0000
0000
0000
0000
,
3000
0020
0000
0200
0000
0330
0002
0000
,
0000
0000
0000
0000
0000
0000
0000
2003
,
0000
0000
0000
0000
,
3000
0200
0000
0320
0000
0030
0002
0000
,
0000
0000
0003
0000
,
0000
0001
1000
0010
0000
0001
1000
0010
,
0000
0000
0000
0000
0000
0001
1000
0020
,
0000
0000
0000
0030
,
0000
1000
0010
0100
0000
1000
0010
0100
,
0000
0000
0000
0000
0000
0010
0100
0001
,
1000
0200
0000
0000
0000
0000
0300
0100
,
1000
0100
1000
0100
0010
0001
1000
0010
,
1000
0010
0100
0001
0010
0100
0010
0100
,
1000
0001
0100
0010
0100
0010
1000
0100
,
1000
0100
0010
0001
1000
0100
0010
0001
,
1000
0000
0000
0000
;

//---------------dance-single - ----------------
#NOTES:
     dance-single:
     :
     Easy:
     2:
     0.191,0.244,0.045,0.101,0.000: // measure 1
0000
0000
0000
0000
,  // measure 2
0000
0000
0000
0000
,  // measure 3
0000
0000
0000
0000
,  // measure 4
1000
0000
0001
1000
,  // measure 5
0000
0001
1000
0000
,  // measure 6
0010
0100
0010
0000
0000
0000
0000
0000
,  // measure 7
0000
0000
0000
0000
0000
0000
1000
0001
,  // measure 8
1000
0000
0001
1000
0001
0000
0000
0000
,  // measure 9
0000
0000
0000
0000
,  // measure 10
0010
0000
0100
0010
,  // measure 11
0000
0001
1000
0000
,  // measure 12
1000
0001
1000
0000
0000
0000
0000
0000
,  // measure 13
0000
0000
0000
0000
,  // measure 14
0100
1000
0100
0000
,  // measure 15
0000
0000
0000
0000
,  // measure 16
1001
0000
0000
0000
,  // measure 17
0000
0000
0000
0000
1001
0000
0000
1001
,  // measure 18
0000
0000
1001
0000
0000
1000
0000
0000
,  // measure 19
0001
0000
0000
0000
,  // measure 20
0000
0000
0010
0100
0010
0000
0000
0000
,  // measure 21
0000
0000
0000
0000
,  // measure 22
0001
0000
1000
0001
,  // measure 23
0000
1000
0010
0000
,  // measure 24
0100
0010
0100
0000
0000
0000
0000
0000
,  // measure 25
0000
0000
0000
0000
0000
0000
0010
0100
,  // measure 26
0010
0000
0100
0010
0100
0000
0000
0000
,  // measure 27
0000
0000
0000
0000
,  // measure 28
0001
0000
0100
0010
,  // measure 29
0000
1000
0010
0000
,  // measure 30
1000
0010
1000
0000
0000
0000
0000
0000
,  // measure 31
0000
0000
0000
0000
,  // measure 32
1000
0010
0100
0000
,  // measure 33
0000
0000
0000
0010
,  // measure 34
2000
0000
0000
3000
,  // measure 35
0000
0000
0002
0003
2000
3000
0000
0002
,  // measure 36
0000
0000
0000
0000
0000
0003
0000
0000
,  // measure 37
0002
0000
0000
0000
0000
0000
0000
0003
,  // measure 38
0000
0000
2000
3000
0200
0300
0000
0020
,  // measure 39
0000
0000
0000
0000
0000
0030
0000
0000
,  // measure 40
0000
0000
1000
0100
1000
0000
1000
0100
,  // measure 41
1000
0000
0000
0000
0000
0000
1000
0001
,  // measure 42
1000
0000
0000
0000
,  // measure 43
0000
0000
0001
0100
0001
0000
0001
0100
,  // measure 44
0001
0000
0000
0100
,  // measure 45
0010
0000
0200
0000
0000
0300
0000
0000
,  // measure 46
0001
0001
0001
0010
,  // measure 47
0010
0010
0100
0100
,  // measure 48
0100
1000
1000
1000
,  // measure 49
0010
0010
0010
0001
,  // measure 50
0001
0001
0010
0010
,  // measure 51
0010
0000
1000
0000
1000
0000
0000
1000
,  // measure 52
0000
0000
0000
0001
0000
1000
0000
0000
,  // measure 53
0000
0001
0000
1000
0000
0000
0000
0010
,  // measure 54
0100
0010
0000
0000
0000
0000
0000
0000
,  // measure 55
0000
0000
0000
0000
0000
1000
0001
1000
,  // measure 56
0000
0001
1000
0001
0000
0000
0000
0000
,  // measure 57
0000
0000
0000
0000
0000
0000
0000
0010
,  // measure 58
0000
0000
0000
0100
0000
0010
0000
0000
,  // measure 59
0000
0001
0000
1000
0000
0000
0000
1000
,  // measure 60
0001
1000
0000
0000
0000
0000
0000
0000
,  // measure 61
0000
0000
0000
0000
0000
0000
0000
0100
,  // measure 62
0000
1000
0000
0100
0000
0000
0000
0000
,  // measure 63
0000
0000
0000
0000
0000
0000
0000
1001
,  // measure 64
0000
0000
0000
0000
,  // measure 65
0000
0000
0000
1001
0000
0000
1001
0000
,  // measure 66
0000
1001
0000
0000
1000
0000
0000
0001
,  // measure 67
0000
0000
0000
0000
,  // measure 68
0000
0010
0100
0010
0000
0000
0000
0000
,  // measure 69
0000
0000
0000
0000
0000
0000
0000
0001
,  // measure 70
0000
0000
0000
1000
0000
0001
0000
0000
,  // measure 71
0000
1000
0000
0010
0000
0000
0000
0100
,  // measure 72
0010
0100
0000
0000
0000
0000
0000
0000
,  // measure 73
0000
0000
0000
0000
0000
0010
0100
0010
,  // measure 74
0000
0100
0010
0100
0000
0000
0000
0000
,  // measure 75
0000
0000
0000
0000
0000
0000
0000
0001
,  // measure 76
0000
0000
0000
0100
0000
0010
0000
0000
,  // measure 77
0000
1000
0000
0010
0000
0000
0000
1000
,  // measure 78
0010
1000
0000
0000
0000
0000
0000
0000
,  // measure 79
0000
0000
0000
0000
0000
0000
0000
1000
,  // measure 80
0000
0010
0000
0100
0000
0000
0000
0000
,  // measure 81
0000
0000
0000
0000
0000
0010
0000
2000
,  // measure 82
0000
0000
0000
0000
0000
3000
0000
0000
,  // measure 83
0000
0002
0003
2000
3000
0000
0002
0000
,  // measure 84
0000
0000
0000
0000
0003
0000
0000
0002
,  // measure 85
0000
0000
0000
0003
,  // measure 86
0000
2000
3000
0200
0300
0000
0020
0000
,  // measure 87
0000
0000
0030
0000
,  // measure 88
0000
1000
0100
1000
0000
1000
0100
1000
,  // measure 89
0000
0000
0000
0000
0000
1000
0001
1000
,  // measure 90
0000
0000
0000
0000
,  // measure 91
0000
0001
0100
0001
0000
0001
0100
0001
,  // measure 92
0000
0000
0000
0000
0000
0100
0000
0010
,  // measure 93
0000
0200
0000
0000
0300
0000
0000
1000
,  // measure 94
0000
0001
0000
1000
0000
0001
0000
1000
,  // measure 95
0000
0001
0000
0100
0000
0010
0000
0100
,  // measure 96
0000
0010
0000
0100
0000
0010
0000
1000
,  // measure 97
0000
0001
0000
1000
0000
0001
0000
0100
;
