#TITLE:Healing Vision;
#SUBTITLE:(Birthstone Mix);
#ARTIST:Birthstone Team;
#TITLETRANSLIT:;
#SUBTITLETRANSLIT:;
#ARTISTTRANSLIT:;
#CREDIT:;
#BANNER:Healing Vision (Birthstone Mix).png;
#BACKGROUND:Healing Vision (Birthstone Mix)-bg.png;
#LYRICSPATH:;
#CDTITLE:3MB.PNG;
#MUSIC:Healing Vision (Birthstone Mix).mp3;
#OFFSET:0.000;
#SAMPLESTART:100.640;
#SAMPLELENGTH:16.000;
#SELECTABLE:YES;
#BPMS:0.000=97.500,42.000=98.000,50.000=98.500,82.000=196.100,146.000=391.998,178.000=389.998,274.000=24.379,276.000=48.759,277.000=392.999,389.000=49.140,390.000=399.998;
#STOPS:;
#BGCHANGES:;

//---------------dance-single - ----------------
#NOTES:
     dance-single:
     :
     Challenge:
     12:
     0.839,1.000,0.261,0.025,0.614:
0000
0000
0000
0000
,
0000
0000
0000
0000
,
0000
0000
0000
0000
0000
0000
0000
0000
0000
0000
0000
0000
0000
0000
0000
0000
1100
0000
0000
0000
0100
0000
0010
0000
0001
1000
0001
0000
1000
0000
0001
0000
,
1000
0000
0000
0000
0100
0000
0010
0000
0100
1000
0100
0000
0001
0000
0010
0000
0001
0000
0000
0000
1000
0000
0001
0000
0010
0100
0010
0000
1000
0000
0001
0000
,
1000
0000
0000
0000
0010
0000
0100
0000
0001
1000
0001
0000
0100
0000
0010
0000
0001
0000
0000
0000
0010
0000
0100
0000
0001
1000
0001
0000
1000
0000
0100
0000
,
0010
0000
0000
0000
1000
0000
0001
0000
1000
0010
1000
0000
0100
0000
0010
0000
0001
0000
0000
0000
1000
0000
0001
0000
0010
0001
0010
0000
0100
0000
1000
0000
,
0001
0000
0000
0000
1000
0000
0010
0000
0100
0001
0100
0000
0010
0000
1000
0000
1010
0000
0000
0000
1000
0000
0010
0000
0100
0000
0001
0000
1000
0000
0010
0000
,
0100
0001
1000
0010
0100
0001
0010
1000
0001
0100
1000
0010
0001
0100
1000
0010
,
0001
0100
1000
0010
0001
0100
1000
0010
0001
1000
0010
0001
0100
0010
1000
0001
,
0100
1000
0010
0001
1000
0001
0010
0100
1000
0100
1000
0010
0001
0100
1000
0010
,
0001
0100
1000
0010
0001
0100
0010
0100
1000
0000
1000
1010
0000
0000
0000
0001
,
0110
0000
1000
0101
0000
0000
0000
0010
1100
0000
1000
0011
0000
0000
0000
0110
,
0100
0000
0100
0000
0100
0000
0100
0000
0100
0000
0100
0000
0100
0000
1000
0001
1000
0000
0100
0000
0010
0000
0100
0000
1000
0000
0010
0000
0100
0000
0001
0000
,
0010
0100
1000
0001
1000
0100
0010
0001
1000
0100
1000
0010
0001
0100
1000
0010
,
0100
0001
0010
0100
1000
0010
0100
0001
0010
0100
1000
0010
0100
0001
0010
1000
,
0100
0001
0010
0001
0100
1000
0010
0001
1000
0010
0100
0001
0010
0100
0001
1000
,
0100
1000
0001
0100
0010
1000
0001
1000
0110
0100
0010
1000
0100
0001
0010
1000
,
0100
1000
0010
0100
0001
0010
0100
1000
0010
0100
0001
0010
0100
1000
0100
0010
,
0001
0100
0010
1000
0001
0100
0001
0010
0100
1000
0100
0010
0001
0100
0010
1000
,
0100
0010
1000
0001
0100
1000
0010
0100
0001
0100
1000
0010
0001
1000
0010
0100
,
0001
0010
1000
0100
0001
0010
0100
0010
0001
0000
0010
0000
0100
0000
1000
0000
,
0001
0010
0100
1000
0100
0010
0001
1000
,
0100
0010
0001
0010
0100
1000
0001
0010
,
0100
1000
0100
0010
0001
1000
0100
0010
,
0001
1000
0100
1000
0010
0001
0010
1000
,
0001
0010
0100
0001
1000
0010
0100
0001
,
1000
0010
1000
0100
0010
1000
0010
0001
,
1000
0100
1000
0010
0100
0001
0100
0010
,
2000
0000
0000
0000
0000
0000
3100
0010
,
0001
0010
1000
0100
1000
0001
1000
0010
,
0100
1000
0010
0001
0100
0010
1000
0010
,
0100
1000
0001
0010
1000
0100
1000
0010
,
0100
0001
0100
0010
1000
0100
0010
0001
,
1000
0010
0100
0001
1000
0010
0001
0100
,
1000
0010
0100
0010
1000
0001
1000
0100
,
0010
0001
0100
0001
0010
0100
0010
1000
,
0101
0110
1001
0100
,
0010
0001
1000
0010
,
0100
0001
1000
0100
,
0010
0001
1000
0010
,
1000
0010
1001
0100
,
0001
0100
1000
0001
,
0100
0001
0010
0100
,
0010
0001
0100
1000
,
0100
0001
1010
0100
,
0010
0001
1000
0010
,
0100
0001
1000
0010
,
0100
0010
1000
0100
,
0001
1000
0110
0001
,
1000
0100
0001
0010
,
1000
0100
1000
0001
,
0100
0010
1000
0100
,
0001
0100
1010
0100
,
0010
0001
0100
0001
,
0010
0001
0100
1000
,
0100
0001
0010
0100
,
1000
0100
0011
0100
,
1000
0010
0100
0001
,
1000
0001
0010
0100
,
0001
1000
0100
0010
,
0100
0011
1000
0100
,
1000
0001
1000
0010
,
0001
0010
1000
0100
,
0010
0001
1000
0001
,
0010
0001
0110
0001
,
0010
0100
1000
0100
,
0010
0001
0100
0001
,
0010
0000
0100
0000
1000
0010
0100
0001
,
0010
0000
0000
0000
0100
0000
0000
0000
0001
0000
0000
0000
1000
0000
0000
0000
0010
0010
0000
0000
0000
0000
0010
0010
0000
0010
0010
0000
0000
0010
0010
0000
,
0010
0010
0000
0000
1001
0000
0000
0000
0000
0000
0000
0000
0010
0000
0000
0000
,
0100
0000
0010
0001
1000
0000
0001
0000
,
0100
0001
1000
0010
,
0100
0000
1000
0001
1000
0000
0010
0000
,
0100
0001
1000
0010
,
0001
0000
0100
0001
0100
0000
0001
0000
,
0010
1000
0010
0100
,
1000
0000
0001
0010
1000
0000
0100
0000
,
0010
0100
0001
1000
,
0001
0000
0100
1000
0010
0000
0001
0000
,
1000
0100
1000
0010
,
0100
0000
0010
0001
1000
0000
0001
0000
,
1000
0100
0010
0100
,
0001
0000
1000
0010
0100
0000
0001
0000
,
0100
0010
0001
1000
,
0010
0000
0100
1000
0001
0000
0010
0000
,
1000
0011
0000
0010
,
0001
0100
1000
0001
,
0100
0010
0001
0100
,
1000
0010
0100
0001
,
1000
0110
1000
0010
,
0001
0010
1000
0001
,
0100
0001
0010
0100
,
1000
0010
1000
0100
,
1000
1010
0100
1000
,
0100
0001
0100
1000
,
0100
0011
1000
0010
,
0100
0001
0100
1000
,
0100
0000
1100
0101
1100
0000
0000
0000
,
0101
0000
1100
0000
,
0101
0000
2002
0000
,
0000
0000
0000
0000
,
0000
3003
0000
0000
;

//---------------dance-single - ----------------
#NOTES:
     dance-single:
     :
     Hard:
     10:
     0.755,1.000,0.286,0.025,0.484:
0000
0000
0000
0000
,
0000
0000
0000
0000
,
0000
0000
0000
0000
0000
0000
0000
0000
1001
0000
0010
0100
1000
1000
0100
0010
,
0001
0000
0001
0100
0010
0010
0001
1000
0100
0000
0001
1000
0010
0100
0100
1000
,
0001
0000
0100
0010
1000
1000
0100
0010
1000
0000
0010
0100
1000
1000
0001
0010
,
0100
0000
0001
1000
0001
0001
0010
0100
1000
0000
0001
1000
0100
0100
0010
0001
,
1000
0000
0001
0100
0010
0010
0100
0001
0010
0000
0001
0100
1000
0000
0001
0100
,
1000
0000
0001
0100
1000
0010
0100
0001
0010
0000
0001
0010
0100
0000
0001
0010
,
0100
0000
0001
1000
0100
1000
0001
0010
1000
0000
0001
1000
0010
0000
0001
1000
,
0010
0000
0100
1000
0001
1000
0100
0010
0001
0000
0001
0100
0010
0000
0001
0100
,
0010
0000
0001
0100
0010
1000
0100
0010
0001
0000
0010
1001
0000
0000
0000
0100
,
1010
0000
0100
0011
0000
0000
0000
1000
0110
0000
0010
0101
0000
0000
0000
1001
,
0100
0000
0010
0000
0100
0000
0010
0000
0100
0000
0010
0000
0100
0000
0001
1000
0001
0000
0010
0000
0100
0000
0000
0000
0001
0000
0100
0000
0010
0000
1000
0000
,
0100
0010
0001
0000
0001
0010
0100
1000
0001
1000
0100
0010
0001
0100
0001
1000
,
0010
1000
0100
0010
0001
1000
0100
1000
0001
0010
0001
0100
0010
1000
0010
0001
,
0010
1000
0100
1000
0010
0000
0100
1000
0001
0100
0010
1000
0100
0000
1000
0001
,
1000
0010
1000
0001
0100
1000
0100
0010
0001
0010
0100
0001
0010
1000
0100
0001
,
0010
0001
0100
0010
1000
0100
0010
0001
0100
0010
1000
0100
0010
0001
0010
0100
,
1000
0100
0001
0010
1000
0001
1000
0100
0010
0001
0010
0100
1000
0100
0010
0001
,
0100
0010
1000
0100
0010
0001
1000
0100
0010
0001
1000
0100
0010
0001
1000
0001
,
0100
0010
0100
1000
0010
0100
1000
0100
0010
0000
0001
0000
0000
0000
0010
0000
,
0000
0001
0000
1000
0000
0010
0000
1000
,
0000
0010
0000
0001
0000
0010
0000
0001
,
0000
0010
0000
1000
0000
0010
0000
0001
,
0000
0010
0000
0001
0000
1000
0000
1100
,
0000
0010
0000
1010
0000
0001
0000
0011
,
0000
0100
0000
0110
0000
0001
0000
0101
,
0000
0010
0000
0011
0000
1000
0000
1010
,
0000
0100
0000
1001
0001
0000
0010
0100
,
1000
0001
0100
0010
0011
0000
0001
0100
,
0010
0001
0100
1000
1010
0000
0001
0100
,
0010
0100
1000
0001
0011
0000
0001
0100
,
0010
1000
0010
0100
0101
0000
0100
1000
,
0001
0100
0010
1000
1100
0000
1000
0010
,
0001
0100
0010
0100
0001
1000
0001
0010
,
0100
1000
0010
1000
0100
0010
0100
1000
,
1010
0011
1001
0010
,
0100
1000
0001
0100
,
0010
1000
0001
0010
,
0100
1000
0001
0100
,
0010
0100
0001
0010
,
1000
0010
0001
1000
,
0010
1000
0100
0010
,
0100
1000
0010
0001
,
0010
1000
0001
0010
,
0100
1000
0001
0010
,
0100
1000
0001
0100
,
0010
0100
0001
0010
,
1000
0010
0001
0010
,
0100
0010
0001
0100
,
0001
0010
0001
0100
,
0010
0100
0001
0010
,
1000
0010
0001
0010
,
0100
1000
0010
1000
,
0100
1000
0010
0001
,
0010
1000
0100
0010
,
0001
0010
0100
1000
,
0001
1000
0010
1000
,
0100
0010
0100
1000
,
0010
0001
0010
0100
,
0001
1000
0100
1000
,
0001
0010
0001
1000
,
0001
0100
0001
0010
,
0100
1000
0001
1000
,
0100
1000
0010
1000
,
0100
0010
0001
0010
,
0100
1000
0010
1000
,
0100
0010
0001
0010
,
0100
0000
1000
0001
0200
0000
0000
0000
,
0000
0000
0000
0000
0000
0000
0000
0300
0100
0000
0000
0000
0000
0000
0000
0000
0000
0000
0000
0000
0000
0000
0000
0000
0100
0000
0000
0000
0000
0000
0000
0000
,
0010
0000
0001
1000
0001
0000
1000
0000
,
0010
1000
0001
0100
,
0001
0000
0010
0100
0010
0000
0001
0000
,
1000
0010
0001
0010
,
1000
0000
0100
1000
0100
0000
1000
0000
,
0001
1000
0010
0001
,
0100
0000
1000
0010
1000
0000
0010
0000
,
0001
0010
1000
0001
,
0100
0000
1000
0001
1000
0000
0100
0000
,
0010
1000
0001
0100
,
1000
0100
0001
1000
,
0001
0010
1000
0010
,
0100
0001
1000
0100
,
0001
0100
1000
0001
,
0100
0010
0001
0010
,
1000
1100
0000
0100
,
1000
0010
1000
0001
,
0010
0001
1000
0010
,
0001
0100
0010
1000
,
0100
0110
0000
0001
,
1000
0100
0001
1000
,
0010
1000
0001
0010
,
0001
1000
0001
0010
,
0001
0101
0000
0001
,
0010
0001
0100
0001
,
1000
1100
0000
0001
,
0010
1000
0010
0001
,
0100
0000
1001
1001
1001
0000
0000
0000
,
1001
0000
1001
0000
,
1001
0000
0220
0000
,
0000
0000
0000
0000
,
0000
0000
0330
0000
;

//---------------dance-single - ----------------
#NOTES:
     dance-single:
     :
     Medium:
     9:
     0.680,1.000,0.093,0.025,0.479:
0000
0000
0000
0000
,
0000
0000
0000
0000
,
0000
0000
0000
0000
0000
0000
0000
0000
0010
0000
1000
0010
0100
0010
0001
0010
,
0100
0000
1000
0001
0010
0001
1000
0001
0100
0000
0010
1000
0001
1000
0100
1000
,
0010
0000
1000
0001
0100
0001
1000
0001
0100
0000
1000
0010
0100
0010
1000
0010
,
0001
0000
1000
0001
0010
0001
1000
0001
0010
0000
0010
0100
0001
0100
1000
0010
,
0100
0000
0010
0001
1000
0100
0001
0010
1000
0000
0010
0010
0010
0000
0010
0010
,
0010
0000
0100
0001
1000
0100
1000
0010
1000
0000
0010
0010
0010
0000
0010
0010
,
0010
0000
0001
1000
0100
1000
0001
1000
0100
0000
0010
0010
0010
0000
0010
0010
,
0010
0000
0001
0100
0010
0100
0001
1000
0010
0000
0010
0001
1000
0000
0010
0001
,
0010
0000
0010
0001
1000
0100
0001
1000
0010
0000
0001
0001
0000
0000
0000
0100
,
0100
0000
1000
1000
0000
0000
0000
0010
0010
0000
0001
0001
0000
0000
0000
1000
,
0001
1000
0001
1000
0001
1000
0001
0010
0110
1000
0001
0000
0010
0001
1000
0100
,
0001
1000
0010
0000
0010
1000
0001
0100
0010
0100
0010
1000
0010
0001
0010
0001
,
1000
0100
0001
1000
0010
1000
0001
0100
0001
1000
0010
0001
1000
0010
1000
0010
,
1000
0010
0001
0010
0001
0000
1000
0100
1000
0100
1000
0100
1000
0000
0100
0001
,
0100
0001
0100
0001
0010
0001
0010
0001
0010
0001
0100
0010
1000
0010
0001
0010
,
1000
0010
0100
0001
1000
0001
1000
0010
1000
0100
1000
0100
1000
0010
1000
0001
,
1000
0001
1000
0010
1000
0100
1000
0100
1000
0010
1000
0001
1000
0001
1000
0010
,
1000
0100
1000
0100
1000
0010
1000
0001
0100
0001
0100
0001
0100
0010
0100
0010
,
0100
1000
0100
1000
0100
0001
0100
0001
0100
0000
1000
0000
0001
0000
0010
0000
,
0001
0000
0001
1000
0010
0100
0010
0000
,
0010
0100
0010
0100
0001
0000
0001
0010
,
0001
0100
0001
0000
0010
1000
0010
0000
,
0010
0100
0010
0000
1000
0000
0011
0000
,
0001
0010
0100
0000
0100
0001
1000
0000
,
1000
0100
0010
0000
0010
0001
1000
0000
,
1000
0010
0100
0000
0100
0010
0001
0000
,
0001
0000
1001
0000
0010
0000
0010
0100
,
1000
0001
0100
0010
0001
0000
0001
0100
,
0010
0001
1000
0010
0100
0000
0001
1000
,
0010
0100
1000
0100
0010
0000
0001
0100
,
0010
1000
0001
0100
0001
0010
0100
1000
,
0001
0100
0010
1000
0001
0010
1000
0010
,
0001
0100
0010
0100
0001
1000
0001
0010
,
0100
0001
0010
1000
0100
0010
0100
1000
,
0110
0110
1001
0100
,
0010
0000
0001
1000
,
0010
0000
0100
1000
,
0001
0000
0100
0001
,
0100
0000
0010
0100
,
1000
0000
1000
0001
,
0010
0000
0100
0010
,
0001
0000
0001
0010
,
1000
0010
1001
0100
,
1000
0000
0100
0010
,
0001
0000
1000
0010
,
0100
0000
0100
0010
,
0001
0000
1000
0001
,
0100
0000
0010
0100
,
1000
0000
0001
1000
,
0100
0000
0010
0100
,
1000
0000
0100
0010
,
0100
0000
0010
0001
,
0010
0000
1000
0010
,
1000
0000
0100
1000
,
0010
0000
0010
1000
,
0001
0000
0010
1000
,
0100
0000
0010
1000
,
0001
0000
1000
0001
,
0100
0000
0100
0001
,
0010
0000
1000
0001
,
0100
0000
0100
0001
,
1000
0000
0010
1000
,
0001
0000
0001
0100
,
0010
0000
1000
0010
,
1000
0000
1000
0001
,
0100
0010
1000
0100
,
0010
0000
2000
0000
,
0000
0000
0000
0000
0000
0000
0000
0000
0000
0000
0000
3000
1010
0000
0000
0000
0000
0000
0000
0000
0000
0000
0000
0000
0000
0000
0000
0000
0000
0000
0000
0000
0000
0000
0000
0000
0100
0000
0000
0000
0000
0000
0000
0000
0000
0000
0000
0000
,
0010
0001
1000
0001
,
0100
0010
0000
0010
,
0100
1000
0001
0100
,
0010
1000
0000
0001
,
1000
0100
1000
0010
,
0001
1000
0001
0000
,
0010
0100
1000
0000
,
0010
0100
0000
0100
,
1000
0000
1000
0001
,
0000
0001
0010
0000
,
0010
1000
0000
1000
,
0100
0000
0100
0001
,
0000
0001
0010
0000
,
0000
0010
1000
0001
,
0000
0010
1000
0100
,
0000
1001
0000
0010
,
1000
0010
0000
0010
,
0001
0100
0000
0010
,
1000
0001
1000
0100
,
1000
0001
0000
0100
,
0010
0001
0000
0100
,
1000
0010
0000
0010
,
0001
1000
0010
0100
,
0010
1100
0000
0100
,
1000
0010
0000
0100
,
0001
0100
0010
1000
,
0100
0001
0100
0001
,
0010
0000
1000
0001
1000
0000
0000
0000
,
0001
0000
1000
0000
,
0001
0000
2002
0000
,
0000
0000
0000
0000
,
0000
0000
3003
0000
;

//---------------dance-single - ----------------
#NOTES:
     dance-single:
     :
     Easy:
     7:
     0.371,0.552,0.050,0.050,0.000: // measure 1
0000
0000
0000
0000
,  // measure 2
0000
0000
0000
0000
,  // measure 3
0000
0000
0000
0000
0110
0000
0001
0010
,  // measure 4
0001
0000
0010
0000
0100
1000
0100
0000
,  // measure 5
0010
0000
0100
1000
0010
0000
0001
0000
,  // measure 6
0100
1000
0100
0000
0001
0000
0010
0100
,  // measure 7
1000
0000
0010
0000
0001
0100
0001
0000
,  // measure 8
1000
0010
0100
0010
,  // measure 9
0001
1000
0001
0100
,  // measure 10
1000
0010
0001
0010
,  // measure 11
1000
0010
0210
0300
,  // measure 12
0002
0003
2000
3000
,  // measure 13
0001
0001
0001
0001
0011
0000
0001
0000
,  // measure 14
0010
0000
1000
0100
1000
0000
0001
0000
,  // measure 15
1000
0000
0100
0010
0001
0000
0010
0000
,  // measure 16
0001
0000
1000
0100
0001
0000
0001
0000
,  // measure 17
0010
0000
1000
0100
0001
0000
0100
0000
,  // measure 18
0001
0000
1000
0100
0010
0000
0100
0000
,  // measure 19
0010
0010
0010
0010
,  // measure 20
0001
1000
0001
1000
,  // measure 21
0010
0000
0100
0010
0001
0000
0000
0000
,  // measure 22
0010
0000
0001
0000
,  // measure 23
0100
0000
0100
0000
,  // measure 24
0010
0000
0010
0000
,  // measure 25
0001
0000
1000
0000
,  // measure 26
0010
0000
1000
0000
,  // measure 27
0100
0000
0100
0000
,  // measure 28
0010
0000
0010
0000
,  // measure 29
0001
0000
1000
0001
,  // measure 30
0001
1000
0100
1000
,  // measure 31
0100
0001
0100
0010
,  // measure 32
0001
1000
0100
1000
,  // measure 33
0100
0010
0001
0010
,  // measure 34
1000
0100
0001
0010
,  // measure 35
0001
1000
0001
0100
,  // measure 36
0001
0010
1000
0001
,  // measure 37
0010
0001
0110
0000
,  // measure 38
1000
0000
0100
0000
,  // measure 39
0010
0000
0010
0000
,  // measure 40
0100
0000
1000
0000
,  // measure 41
0010
0000
0001
0000
,  // measure 42
0010
0000
0100
0000
,  // measure 43
0010
0000
0000
0001
,  // measure 44
0000
0010
0000
1000
,  // measure 45
0001
0000
1010
0000
,  // measure 46
0100
0000
0100
0000
,  // measure 47
0010
0000
0001
0000
,  // measure 48
0100
0000
1000
0000
,  // measure 49
1000
0000
0100
0000
,  // measure 50
0001
0000
1000
0000
,  // measure 51
0010
0000
0100
0000
,  // measure 52
1000
0000
0001
0000
,  // measure 53
1000
0000
1000
0000
,  // measure 54
0100
0000
0010
0000
,  // measure 55
0001
0000
1000
0000
,  // measure 56
0010
0000
0100
0000
,  // measure 57
0001
0000
0010
0000
,  // measure 58
1000
0000
0100
0000
,  // measure 59
0100
0000
0010
0000
,  // measure 60
1000
0000
1000
0000
,  // measure 61
0001
0000
0100
0000
,  // measure 62
1000
0000
0010
0000
,  // measure 63
1000
0000
0100
0000
,  // measure 64
0001
0000
0010
0000
,  // measure 65
0001
0000
0010
0000
,  // measure 66
1000
0000
0100
0100
,  // measure 67
0100
0000
1000
1000
,  // measure 68
1000
0001
0010
1000
,  // measure 69
0100
0001
0200
0000
,  // measure 70
0000
0300
0000
0001
,  // measure 71
1000
0001
0010
0100
,  // measure 72
0010
0001
0000
0001
,  // measure 73
0001
0100
0001
1000
,  // measure 74
0010
1000
0000
0010
,  // measure 75
1000
0100
0010
0010
,  // measure 76
0100
1000
0100
0000
,  // measure 77
0001
1000
0001
0000
,  // measure 78
0000
0100
1000
0100
,  // measure 79
0000
0100
0001
0100
,  // measure 80
0000
1000
0010
0100
,  // measure 81
0000
0001
1000
0010
,  // measure 82
0000
0100
0001
1000
,  // measure 83
0000
0010
0100
1000
,  // measure 84
0000
0010
0100
0001
,  // measure 85
0000
0001
0100
1000
,  // measure 86
0000
1000
0000
0001
,  // measure 87
1000
0100
0000
1000
,  // measure 88
0001
0010
0000
0010
,  // measure 89
0001
0100
1000
0010
,  // measure 90
1000
0001
0000
0100
,  // measure 91
0010
1000
0000
1000
,  // measure 92
0001
0010
0000
1000
,  // measure 93
0100
1000
0100
0010
,  // measure 94
1000
0100
0000
0010
,  // measure 95
1000
0001
0000
0100
,  // measure 96
0010
0001
1000
0100
,  // measure 97
1000
0010
0100
0010
,  // measure 98
0001
0000
0010
0010
0010
0000
0000
0000
,  // measure 99
0010
0000
0010
0000
,  // measure 100
0010
0000
0220
0000
,  // measure 101
0000
0000
0000
0000
,  // measure 102
0330
0000
0000
0000
;
