#TITLE:Time to Pretend;
#SUBTITLE:;
#ARTIST:MGMT;
#TITLETRANSLIT:;
#SUBTITLETRANSLIT:;
#ARTISTTRANSLIT:;
#GENRE:;
#CREDIT:;
#BANNER:[CoCl] #003 Time to Pretend - MGMTbn.png;
#BACKGROUND:[CoCl] #003 Time to Pretend - MGMTbg.png;
#LYRICSPATH:;
#CDTITLE:;
#MUSIC:[CoCl] #003 Time to Pretend - MGMT.ogg;
#OFFSET:0.005;
#SAMPLESTART:52.275;
#SAMPLELENGTH:14.056;
#SELECTABLE:YES;
#BPMS:0.000=101.005
;
#STOPS:
;
#BGCHANGES:;
#KEYSOUNDS:;
#ATTACKS:;

//---------------dance-single - Spork!----------------
#NOTES:
     dance-single:
     :
     Beginner:
     1:
     0.079,0.102,0.036,0.018,0.000,56.000,4.000,2.000,0.000,0.000,0.000,0.079,0.102,0.036,0.018,0.000,56.000,4.000,2.000,0.000,0.000,0.000:
0000
0000
0000
0000
,
0000
0000
0000
0000
,
0000
0000
0000
0000
,
0000
0000
0000
0000
,
0000
0000
0000
0000
,
0000
0000
0000
0000
,
1000
0000
0100
0000
,
0010
0000
0100
0000
,
1000
0000
0000
0000
,
0001
0000
0000
0000
,
0001
0000
0100
0000
,
0010
0000
0100
0000
,
0001
0000
0000
0000
,
1000
0000
0000
0000
,
1000
0000
0001
0000
,
0100
0000
0010
0000
,
1000
0000
0000
0000
,
0001
0000
0000
0000
,
0001
0000
1000
0000
,
0010
0000
0100
0000
,
0001
0000
0000
0000
,
1000
0000
0000
0000
,
0100
0000
0000
0000
,
0100
0000
0000
0000
,
0100
0000
0000
0000
,
0100
0000
0010
0000
,
1001
0000
0000
0000
,
0200
0000
0000
0300
,
0010
0000
0000
0000
,
0010
0000
0000
0000
,
0010
0000
0000
0000
,
0010
0000
0100
0000
,
1001
0000
0000
0000
,
0200
0000
0000
0300
,
0001
0000
0000
0000
,
0010
0000
0000
0000
,
0100
0000
0000
0000
,
1000
0000
0001
0000
,
0100
0000
0000
0000
,
0010
0000
1000
0000
,
0100
0000
0000
0000
,
1000
0000
0100
0000
,
1001
0000
0000
0000
,
0001
0000
0100
0000
,
1001
0000
0100
0000
,
0010
0000
0010
0000
;

//---------------dance-single - Spork!----------------
#NOTES:
     dance-single:
     :
     Easy:
     3:
     0.202,0.225,0.018,0.287,0.000,124.000,2.000,32.000,0.000,0.000,0.000,0.202,0.225,0.018,0.287,0.000,124.000,2.000,32.000,0.000,0.000,0.000:
0000
0000
0000
0000
,
0000
0000
0000
0000
,
0000
0000
0000
0000
,
0000
0000
0000
0000
,
0000
0000
0000
0000
,
0000
0000
0100
0010
,
0002
0000
0013
0001
,
0200
0000
0300
0001
,
0200
0000
0000
0300
,
0020
0000
0000
0030
,
2000
0000
3001
1000
,
0020
0000
0130
0001
,
0020
0000
0000
0030
,
0200
0000
0000
0300
,
2000
0001
0000
3001
,
0200
0000
0310
1000
,
0002
1000
1000
0003
,
2000
0001
0001
3000
,
0020
0000
1030
0001
,
0020
0000
0031
1000
,
0200
0010
0000
1300
,
0020
0100
0000
1030
,
0100
0001
0010
0000
,
0100
1000
0010
0000
,
2000
0000
3002
0000
,
0013
0000
0100
0010
,
1002
0100
1003
0001
,
0200
0010
0301
0100
,
0010
1000
0100
0000
,
0010
0001
0100
0000
,
0002
0000
2003
0000
,
3001
1000
0100
0010
,
2001
0010
3001
1000
,
0020
1000
0130
0010
,
2000
0100
0100
3000
,
0020
0000
0130
0001
,
1000
1000
0001
0001
,
0100
0001
1000
0100
,
2000
3001
0010
0001
,
2000
3010
0100
0100
,
0002
1003
0010
0100
,
0002
0013
0100
0100
,
0020
0000
0130
1000
,
0002
0000
0103
0100
,
0010
1000
0001
0010
,
0100
1000
0001
0100
;

//---------------dance-single - Spork!----------------
#NOTES:
     dance-single:
     :
     Medium:
     4:
     0.235,0.246,0.036,0.251,0.000,152.000,4.000,28.000,0.000,0.000,0.000,0.235,0.246,0.036,0.251,0.000,152.000,4.000,28.000,0.000,0.000,0.000:
0000
0000
0000
0000
,
0000
0000
0000
0000
,
0000
0000
0000
0000
,
0000
0000
0000
0000
0000
0000
0000
0010
,
0000
0010
0000
0000
0100
0000
0000
0010
,
0000
0010
0000
0000
0100
0000
0001
0000
,
2000
0001
3100
1000
,
0002
0010
1003
0001
,
0020
0000
0000
0030
,
0200
0000
0000
0300
,
0002
0100
0013
0001
,
2000
0001
3100
1000
,
0020
0000
0000
0030
,
0200
0000
0000
0300
,
0020
0000
0000
0000
0031
1000
0001
0000
,
0200
0000
0000
0000
1300
0001
1000
0000
,
0020
0000
0000
0030
,
2000
0000
0000
3000
,
0200
0000
0000
0000
0301
0010
0001
0000
,
0020
0000
0000
0000
1030
0001
1000
0000
,
0002
0000
0000
0003
,
0200
0000
0000
0300
,
0001
0010
0200
0000
,
0310
0001
2000
0000
,
3010
1000
0001
0010
,
0100
0010
0000
0001
0000
1000
0000
1001
,
0200
0010
0301
1000
,
0200
0010
1300
0001
,
1000
0010
0200
0000
,
0310
1000
0002
0000
,
0003
1000
0100
0000
1000
0001
1000
0000
,
0010
0000
0100
0000
0001
1000
0000
1001
,
0020
0100
0031
1000
,
0020
0100
1030
0001
,
2000
0100
3001
0000
,
0002
0010
1003
0001
,
1000
0001
1000
0001
1000
0001
1000
0001
,
0010
0100
1000
0001
,
1000
0000
0010
0000
0100
0001
1000
0000
,
0001
0000
0100
0000
0010
1000
0001
0000
,
1000
0000
0100
0000
1000
0001
0010
0000
,
0100
0010
1001
1001
,
2000
0000
3100
0000
0010
0100
1000
0000
,
0002
0000
0103
0000
0010
0100
0001
0000
,
1000
0001
1000
0000
0001
1000
0001
0000
,
1000
0001
1000
0001
;

//---------------dance-single - Spork!----------------
#NOTES:
     dance-single:
     :
     Challenge:
     9:
     0.607,0.640,0.233,0.170,0.528,429.000,26.000,19.000,3.000,0.000,2.000,0.607,0.640,0.233,0.170,0.528,429.000,26.000,19.000,3.000,0.000,2.000: // measure 0
00M0
0000
0000
0000
0000
0000
0000
M000
,  // measure 1
0000
0000
0000
0000
,  // measure 2
0000
0M00
0000
0000
,  // measure 3
0000
0000
0000
0000
0000
0000
1000
0010
0100
0000
0010
0000
1000
0000
0002
0000
,  // measure 4
0000
0003
0002
0000
0000
0003
0001
0010
0100
0000
0010
0000
0001
0000
2000
0000
,  // measure 5
0000
3100
2000
0000
0000
3010
0000
0100
0001
1000
0000
1000
0001
0000
0010
0001
,  // measure 6
0100
0010
0100
0100
0011
1000
0010
0010
,  // measure 7
1100
0001
1000
0010
0100
0001
0010
0100
,  // measure 8
0010
0001
0010
0000
0100
0010
0001
0010
0100
1000
0001
0000
1000
0000
0000
0000
,  // measure 9
0010
1000
0010
0000
0100
0001
1000
0100
1000
0001
1001
0000
1001
0000
0010
0000
,  // measure 10
0001
1000
0001
0001
1010
0100
1000
1000
,  // measure 11
0101
0010
1000
0100
0010
0001
1000
0010
,  // measure 12
0100
0000
0010
0000
1000
0000
0100
0000
0100
1000
0001
0000
0010
0000
0001
0010
,  // measure 13
0001
1000
0010
0100
0010
0000
1000
0100
0010
0001
1001
0000
1001
0000
0100
0001
,  // measure 14
1000
0100
0011
1000
0001
0100
1010
0100
,  // measure 15
1000
0001
0110
0001
1000
0010
1000
0001
,  // measure 16
0010
0001
1000
0100
0010
0000
0100
1000
0001
0100
0010
0000
0010
1000
0010
0100
,  // measure 17
0001
0000
0010
0000
0100
1000
0001
0100
0010
1000
1010
0000
1001
0000
0100
0000
,  // measure 18
0001
0010
1100
0001
1000
0010
0101
0010
,  // measure 19
0001
1000
0110
0001
1000
0100
1000
0001
,  // measure 20
0010
0000
0100
0010
0001
0000
1000
0010
0100
0010
1000
0000
0001
0000
0000
0000
,  // measure 21
0001
0100
0010
0000
1000
0000
0100
1000
0001
0010
0011
0000
1001
0000
0000
0000
,  // measure 22
1000
0000
0001
0000
0100
0001
0100
0000
0010
0000
1000
0010
1000
0000
0001
0000
,  // measure 23
0010
0000
0100
1000
0001
0000
1000
0000
0001
0010
0100
0010
0001
1000
0100
0010
,  // measure 24
0100
0000
1000
0000
0010
1000
0010
0000
0100
0000
0001
1000
0100
0000
0010
0000
,  // measure 25
0001
0100
0001
0100
0010
0000
0010
1000
0001
0010
0001
1000
0001
1000
0001
1000
,  // measure 26
0020
0000
0000
0000
2000
0030
0000
0100
0100
0000
0000
0000
0002
3000
0000
0000
,  // measure 27
0013
0100
0010
0001
0010
0100
0010
0001
1000
0001
1000
0001
0010
0001
0100
0010
,  // measure 28
1000
0000
0100
1000
0100
1000
0001
0100
0001
1000
0100
0010
0001
1000
0001
0010
,  // measure 29
0100
0010
0001
1000
0001
0100
0001
0100
0010
1000
0010
0100
0001
0010
0100
1000
,  // measure 30
0001
0000
0010
0001
0100
0010
1000
0010
0100
0010
0100
0001
0010
0100
1000
0001
,  // measure 31
0100
0000
0010
0100
0001
0100
0010
1000
0001
0000
1000
0001
1000
0001
1000
0001
,  // measure 32
0020
0000
0000
0000
0002
0030
0000
1000
1000
0000
0000
0000
0200
0003
0000
0000
,  // measure 33
0301
0000
1000
0100
0010
0100
1000
0001
0010
0100
1000
0000
0001
0000
1000
0001
,  // measure 34
1000
0000
0010
0000
0100
0000
0000
0001
0010
0000
0000
0000
0001
0000
1000
0000
,  // measure 35
1010
0000
0100
0000
0001
0000
0000
1000
0100
0000
1000
0000
0001
0000
0000
0000
,  // measure 36
1010
1000
0001
0010
0011
0001
1000
0100
,  // measure 37
1001
0000
0010
0000
0101
0000
0010
1000
0100
0000
0010
0000
0100
0000
2000
0000
,  // measure 38
0000
3000
2000
0000
0000
3000
0100
1000
0001
0000
1000
0000
0010
0000
0200
0000
,  // measure 39
0000
0300
0200
0000
0010
0300
0010
1000
0001
0010
0000
0000
0100
0000
0020
0000
,  // measure 40
0000
0030
0020
0000
0001
0030
0001
0100
0010
0000
1000
0000
0001
0000
0010
0000
,  // measure 41
0010
0000
0001
0000
1000
0000
0001
0000
0010
0000
0001
0000
0100
0000
0010
0000
4000
0004
0000
0000
0000
0000
0000
0000
0000
0000
0000
3000
0003
0000
0000
0000
,  // measure 42
0100
0000
0002
0000
0010
0003
0001
1000
0010
0000
0100
0000
0001
0000
0020
0000
,  // measure 43
0130
0010
0001
1000
0010
0000
0100
0000
0110
0000
1001
0000
0100
0000
1010
0000
,  // measure 44
0100
0000
0001
0000
1000
0100
0000
0000
1000
0000
0010
1000
0100
0000
0010
0000
,  // measure 45
0001
1000
0001
0000
0100
0000
0100
0010
1000
0001
1000
0010
1000
0000
0200
0000
,  // measure 46
0000
0300
0000
0000
0000
0000
0000
0000
0000
0000
0000
0000
0000
0000
0000
0000
;

//---------------dance-single - Spork!----------------
#NOTES:
     dance-single:
     :
     Hard:
     6:
     0.353,0.351,0.116,0.349,0.009,224.000,13.000,39.000,0.000,0.000,0.000,0.353,0.351,0.116,0.349,0.009,224.000,13.000,39.000,0.000,0.000,0.000:
0000
0000
0000
0000
,
0000
0000
0000
0000
,
0000
0000
0000
0000
,
0000
0000
0000
0001
1000
0001
0100
0020
,
0000
0030
0020
0000
0000
0030
1000
0000
0001
0000
1000
0000
0010
0000
0200
0000
,
0000
0300
0200
0000
0000
0300
0001
0000
0010
0000
0100
0000
1000
0000
0000
0000
,
0002
0000
0103
0001
1000
0000
0010
1000
,
0002
0000
0013
0000
0100
1000
0010
0000
,
0020
0000
0000
0000
0130
0000
0010
1000
,
0200
0000
0000
0000
0300
1100
0101
0000
,
2000
0000
3100
1000
0001
0000
0010
0001
,
2000
0000
3010
0000
0100
0001
0010
0000
,
0020
0000
0001
0000
0130
0010
0001
0000
,
0200
0000
0001
0000
0300
1100
0101
0000
,
0000
0010
0001
0000
0001
1000
0001
0100
,
0010
1000
0010
0000
0100
0001
1000
0000
,
0200
0000
1000
0000
0310
0001
0100
0000
,
0020
0000
1000
0000
0030
0110
1001
0000
,
0100
0000
1000
0000
0010
1000
0100
0000
,
1000
0000
0001
0000
0010
0001
0100
0000
,
0002
0000
0010
0000
0103
0001
1000
0000
,
2000
0000
0010
0000
3000
1001
0110
0000
,
1000
0100
1000
0100
0010
0001
0000
0001
,
1000
0001
0100
0001
0100
0000
0010
0000
,
0000
0010
0001
0010
0100
1000
0000
0000
,
1000
0010
0000
1000
0000
0001
0000
1100
,
0200
0000
0000
0000
1000
0000
0300
0010
0100
0000
0000
0000
2000
0000
0000
0000
,
3002
0100
1000
0003
,
0001
1000
0001
1000
0010
0100
0000
0100
,
0001
0010
0001
1000
0100
0000
0010
0000
,
0000
0010
1000
0001
0010
0010
0010
0100
,
1000
0100
0010
0001
1000
0010
1000
0001
,
0200
0000
0000
0000
0001
0000
0300
0010
0100
0000
0000
0000
0002
0000
0000
0000
,
2003
0010
0100
3000
,
0110
0001
1000
0000
,
0101
1000
0100
0010
,
0001
1000
0001
0000
1000
0001
1000
0000
,
0001
0000
0010
0000
0100
0000
1000
0002
,
0000
0003
0002
0000
0000
0003
0100
0000
0010
0000
0100
0000
0001
0000
2000
0000
,
0000
3000
2000
0000
0000
3000
0000
0000
0100
0000
0000
0000
0100
0000
0020
0000
,
0001
0030
0020
0000
0000
0030
0001
0000
1000
0000
0001
0000
0100
0000
0020
0000
,
0000
0030
0020
0000
1000
0030
0000
0000
0010
0000
0100
0000
0000
0000
2001
0000
,
0000
3000
0020
0000
0000
0030
1000
0000
0010
0000
0100
0000
0001
0000
2000
0000
,
0000
3000
0002
0000
0000
0003
1000
0000
0100
0000
0010
0000
0000
0000
1002
0000
,
0000
0003
0200
0000
0000
0300
0010
0000
1000
0000
0001
0000
0010
0000
0200
0000
,
0000
0300
0200
0000
0000
0300
1000
0000
0001
0000
0100
0000
0001
0000
0020
0000
,
0000
0030
0000
0000
0000
0000
0000
0000
0000
0000
0000
0000
0000
0000
0000
0000
;
