#TITLE:Hunting Season;
#SUBTITLE:;
#ARTIST:The Epilogues;
#TITLETRANSLIT:;
#SUBTITLETRANSLIT:;
#ARTISTTRANSLIT:;
#GENRE:;
#CREDIT:;
#BANNER:[CoCl] #004 Hunting Season - The Epiloguesbn.png;
#BACKGROUND:[CoCl] #004 Hunting Season - The Epiloguesbg.png;
#LYRICSPATH:;
#CDTITLE:;
#MUSIC:[CoCl] #004 Hunting Season - The Epilogues.ogg;
#OFFSET:0.009;
#SAMPLESTART:51.000;
#SAMPLELENGTH:12.740;
#SELECTABLE:YES;
#BPMS:0.000=150.000
;
#STOPS:
;
#BGCHANGES:;
#KEYSOUNDS:;
#ATTACKS:;

//---------------dance-single - Spork!----------------
#NOTES:
     dance-single:
     :
     Beginner:
     1:
     0.086,0.114,0.009,0.071,0.000,59.000,1.000,8.000,0.000,0.000,0.000,0.086,0.114,0.009,0.071,0.000,59.000,1.000,8.000,0.000,0.000,0.000:
0000
0000
0000
0000
,
0000
0000
0000
0000
,
0000
0000
0000
0000
,
0000
0000
0000
0000
,
0000
0000
0000
0000
,
0000
0000
0000
0000
,
0000
0000
0000
0000
,
0010
0010
0010
0000
,
0100
0000
0000
0000
,
0001
0000
0000
0000
,
1000
0000
0000
0000
,
0100
0000
0000
0000
,
0010
0000
0000
0000
,
0000
0000
0100
0100
,
0000
0000
0000
0000
,
1000
0000
0001
0000
,
2000
3000
0000
0000
,
0000
0000
0000
0000
,
0200
0300
0000
0000
,
0000
0000
0000
0000
,
0002
0003
0000
0000
,
0000
0000
0000
0000
,
2000
3000
0000
0000
,
0000
0000
1000
0000
,
0002
0003
0000
0000
,
0000
0000
0100
0000
,
0200
0300
0000
0000
,
0000
0000
0010
0000
,
0020
0030
0000
0000
,
0000
0000
0000
0000
,
0020
0030
0000
0000
,
0000
0000
0000
0000
,
1000
0000
0100
0000
,
0010
0000
0000
0000
,
0001
0000
1000
0000
,
0010
0000
0000
0000
,
0100
0000
0000
0000
,
0000
0000
0000
0000
,
0100
0000
0000
0000
,
0000
0000
0000
0000
,
0001
0000
0010
0000
,
0100
0000
0000
0000
,
1000
0000
0001
0000
,
0100
0000
0001
0000
,
1000
0000
0000
0000
,
0001
0000
1000
0000
,
0001
0000
0000
0000
,
1000
0000
0001
0000
,
1000
0000
0000
0000
,
0000
0000
0010
0000
,
0010
0000
0000
0000
,
0100
0000
0000
0000
,
0010
0000
0000
0000
,
0000
0000
0000
0000
,
0010
0000
0000
0000
,
0000
0000
0000
0000
,
1000
0000
0000
0000
,
0100
0000
0000
0000
,
0010
0000
0000
0000
,
0100
0000
0000
0000
,
0001
0000
0000
0000
,
0010
0000
0000
0000
,
0100
0000
0000
0000
,
0100
0000
0000
0000
,
1001
0000
0000
0000
;

//---------------dance-single - Spork!----------------
#NOTES:
     dance-single:
     :
     Challenge:
     11:
     0.830,0.965,0.399,0.470,0.794,557.000,45.000,53.000,58.000,0.000,7.000,0.830,0.965,0.399,0.470,0.794,557.000,45.000,53.000,58.000,0.000,7.000:
0000
0000
0000
0000
,
0000
0000
0000
0000
,
0000
0000
0000
0000
,
0000
0000
0000
0000
,
0001
0010
0100
0000
0010
1000
0000
0010
,
0100
0000
0100
0001
0000
0100
1000
0000
,
1000
0010
0100
0000
0010
0001
0000
0010
,
1100
0000
0000
0000
0101
0000
0000
0000
0100
0010
0100
1000
0100
0010
0100
1000
,
0001
0010
0001
0010
0001
0010
0001
0010
0100
0010
0001
0010
0001
0100
0001
0010
,
0100
1000
0100
1000
0100
1000
0100
1000
0010
0100
0010
1000
0010
0100
0010
1000
,
0001
0000
1000
0010
1000
0010
1000
0010
0100
0010
1000
0010
1000
0100
1000
0001
,
0010
0100
0010
0100
0010
0100
0010
0100
1000
0010
1000
0001
1000
0010
1000
0001
,
0010
0000
0001
0100
0001
0100
0001
0100
0010
0100
0001
0100
0001
0010
0001
1000
,
0100
0010
0100
0010
0100
0010
0100
0010
0001
0100
0001
1000
0001
0100
0001
0010
,
0100
0000
0010
0100
0010
0100
0010
0100
1000
0100
0010
0100
0010
0001
0010
0100
,
0010
0000
0001
1000
0001
1000
0001
1000
0010
0000
0100
0000
0001
0000
1000
0000
,
0200
0000
0010
0000
0000
0000
0300
0000
0001
0100
0000
0000
0000
0000
0100
1000
,
0000
0000
0010
0000
M100
000M
01M0
0000
1000
0100
1000
0010
1000
0100
1000
0001
,
0020
0000
0100
0000
0000
0000
0030
0000
0100
0001
0000
0000
0000
0000
0100
1000
,
0000
0000
0010
0000
010M
M000
010M
0000
0010
0100
0010
0001
0010
0100
0010
0001
,
2000
0000
0100
0000
0001
0000
3000
0000
0100
0001
0000
0000
0010
0000
0001
1000
,
0000
0000
1000
0000
001M
M000
0M10
0000
0001
0010
0001
0100
0001
0010
0001
1000
,
0020
0000
0100
0000
1000
0000
0030
0000
0010
0100
0000
0000
0001
0000
0010
0001
,
0000
0000
0001
0000
01M0
M000
010M
0000
0010
0001
1000
0100
0010
0001
1000
0100
,
0020
0000
1000
0000
0001
0000
0030
0000
1000
0001
0000
0000
0100
0000
1000
0100
,
0000
0000
0010
0000
010M
M000
01M0
0000
1000
0100
0010
0001
0010
0100
1000
0001
,
0200
0000
1000
0000
0001
0000
0300
0000
0010
1000
0000
0000
0001
0000
0100
0010
,
0000
0000
0100
0000
M010
000M
0M10
0000
0001
0010
0100
1000
0100
0010
0001
1000
,
0020
0000
0002
0000
0000
0000
0030
0003
0010
1000
0000
0000
0101
0000
0010
0001
,
0000
0000
0100
0000
001M
0M00
M010
0000
0001
0100
0010
1000
0010
0100
0001
1000
,
0200
0000
0002
0000
0000
0000
0300
0003
0100
0010
0000
0000
1100
0000
0001
1000
,
0000
0000
0010
0000
M100
00M0
010M
0000
1000
0010
0100
0001
0100
0010
1000
0001
,
0100
0000
1010
1000
1001
0010
0001
0101
,
0010
0110
1010
0001
1100
0100
0000
1001
,
0011
1000
0101
0001
0011
0100
1000
0110
,
0010
1010
1001
0100
0011
0100
0010
0011
,
2001
0000
0200
3000
2000
0300
0002
3000
2000
0003
0002
3000
0200
0003
0002
0300
,
0010
0003
0011
0000
2100
0000
0002
3000
0010
0003
2001
0000
0020
3000
1000
0030
,
0102
0000
0020
0003
0002
0030
2000
0003
0002
3000
2000
0003
0020
3000
2000
0030
,
0100
3000
0110
0000
1001
0000
0100
0000
0012
0000
0200
0003
0010
0300
0101
0000
,
1001
0000
0011
0010
0110
0001
1000
1100
,
0010
0100
0100
0001
1001
0010
0100
0101
,
0110
1000
1001
0100
1100
0010
1000
1001
,
0100
0010
0010
0100
1010
0100
0001
1100
,
1002
0000
0020
0003
0002
0030
0200
0003
0020
0300
2000
0030
0200
3000
0020
0300
,
2000
0030
0010
0000
3010
0000
1000
0000
0020
0000
0001
0000
0130
0000
0110
0000
,
2001
0000
0020
3000
2000
0030
0002
3000
0203
0000
0010
0000
0300
0000
0010
0000
,
1100
0000
0001
0000
0001
0000
0010
0000
0200
0000
0010
0000
0300
0000
0001
0100
,
2000
00M0
000M
000M
,
0M00
00M0
0M01
0M00
,
302M
M000
100M
000M
,
M230
000M
M010
M000
,
03M4
0M00
M000
M000
,
4M03
00M0
340M
00M0
,
034M
M000
043M
M000
,
430M
0M00
304M
0M00
,
M130
0001
0100
0001
0100
0001
0100
0001
0010
0001
0100
0001
0100
0001
1000
0100
,
0010
0001
0010
0001
0010
0001
0010
0001
0100
0001
0010
0001
0010
0001
0010
0001
,
1000
0010
1000
0010
1000
0010
1000
0010
0100
0010
1000
0010
1000
0010
0100
0001
,
1000
0100
1000
0100
1000
0100
1000
0100
0010
0100
1000
0100
1000
0100
1000
0100
,
0010
0100
0010
0100
0010
0100
0010
0100
0001
0100
0010
0100
0010
0100
1000
0001
,
0100
0010
0100
0010
0100
0010
0100
0010
0001
0010
0100
0010
0100
0010
0100
0001
,
1000
0100
1000
0100
1000
0100
1000
0100
0001
0100
1000
0100
1000
0100
0010
0001
,
1000
0010
1000
0010
1000
0010
1000
0010
0001
0010
1000
0010
1000
0000
0100
0000
,
2002
0000
0000
0000
,
0000
0000
0000
0000
0000
0000
0000
3000
,
M000
0000
0000
0000
,
0000
0000
0000
0000
0000
0000
0000
0003
,
000M
0000
0000
0000
;

//---------------dance-single - Spork!----------------
#NOTES:
     dance-single:
     :
     Easy:
     3:
     0.245,0.241,0.133,0.177,0.000,158.000,15.000,20.000,0.000,0.000,0.000,0.245,0.241,0.133,0.177,0.000,158.000,15.000,20.000,0.000,0.000,0.000:
0000
0000
0000
0000
,
0000
0000
0000
0000
,
0000
0000
0000
0000
,
0000
0000
0000
0000
,
2000
0000
0000
0000
,
0000
0000
3000
0000
,
0002
0000
0000
0000
,
1000
1000
2003
0000
,
3010
1000
0100
0000
,
0100
1000
0010
0010
,
0100
1000
0010
0000
,
0010
1000
0001
0001
,
0100
0001
0010
0000
,
0010
0001
0100
0100
,
1000
0000
1000
0001
,
0100
0000
0010
0000
,
0200
0000
0000
0000
0010
0000
0300
0010
,
0000
0000
1000
0001
,
0020
0000
0000
0000
0100
0000
0030
0100
,
0000
0000
0001
1000
,
0010
1000
0100
0010
,
0001
0100
0010
1000
,
0200
0000
0000
0000
0010
0300
0000
1001
,
0000
0000
0100
0100
,
0002
0000
0000
0000
0010
0000
0003
0100
,
0000
0000
0100
0010
,
2000
0000
0000
0000
0100
0000
3000
0010
,
0000
0000
1000
0001
,
0010
0001
0100
0010
,
1000
0100
0010
0001
,
2000
0000
0000
0000
0001
3000
0000
0110
,
0000
0000
0010
0010
,
1000
0100
1001
0000
,
0010
0001
0100
0100
,
0010
1000
0110
0000
,
0001
1000
0010
0100
,
0010
0010
0010
0010
,
1000
0001
0010
0100
,
0010
0010
0010
0010
,
0001
1000
0100
0000
,
0001
0100
1001
0000
,
0010
1000
0100
0100
,
0010
0001
1001
0000
,
0100
0001
1000
0001
,
0010
0000
0100
0010
,
0001
0000
0001
1000
,
0010
0000
0100
0001
,
0020
0000
0230
0000
,
2300
0000
0000
0000
,
0000
0000
0000
0000
,
3002
0000
0000
0000
,
0203
0000
0000
0000
,
0320
0000
0000
0000
,
1000
0000
0100
0000
,
0001
0000
0001
0000
,
1000
0000
0100
0000
,
1030
0000
0000
0000
1010
0000
0000
1001
,
0000
0000
0100
0000
,
0001
0000
0000
0000
0011
0000
0000
1001
,
0000
0000
1000
0000
,
1020
0000
0000
0000
0100
0030
0000
1001
,
0000
0000
0010
0000
,
0012
0000
0100
0003
,
2010
0000
0100
3000
,
0220
0000
0000
0000
,
0000
0000
0000
0000
,
0030
0000
0000
0000
,
0000
0000
0000
0000
,
0300
0000
0000
0000
;

//---------------dance-single - Spork!----------------
#NOTES:
     dance-single:
     :
     Medium:
     5:
     0.294,0.302,0.062,0.239,0.000,198.000,7.000,27.000,0.000,0.000,0.000,0.294,0.302,0.062,0.239,0.000,198.000,7.000,27.000,0.000,0.000,0.000:
0000
0000
0000
0000
,
0000
0000
0000
0000
,
0000
0000
0000
0000
,
0000
0000
0000
0000
,
0001
0000
2000
0000
0000
0100
0000
0000
,
0001
0000
0000
0100
0000
3000
0010
0000
,
1000
0000
0002
0000
0000
0010
0000
0000
,
1000
1003
2000
0000
,
3001
0010
0100
1000
,
0010
0100
0010
0010
,
1000
0010
0100
0001
,
0010
0100
0010
0010
,
0001
1000
0100
1000
,
0001
0100
0010
0010
,
1000
0100
0010
0100
,
1000
0000
0010
0100
,
0020
0000
0000
0000
0100
0000
0000
1000
,
0030
0000
0010
1000
,
0002
0000
0000
0000
0010
0000
0000
1000
,
0003
0000
0000
0000
0100
0001
0000
0010
,
0000
0100
0000
0010
0000
0001
0000
1000
,
0000
0010
0000
0100
0000
0001
0000
1000
,
0000
0010
2000
0000
0100
0000
0000
0001
,
3000
0000
1001
0100
,
1000
0020
0000
0000
0100
0000
0000
1000
,
0030
0000
1000
0100
,
0010
0002
0000
0000
0100
0000
0000
1000
,
0003
0000
0000
0000
1000
0100
0000
1000
,
0000
0010
0000
0100
0000
0010
0000
1000
,
0000
0001
0000
0010
0000
0100
0000
1000
,
0001
2000
0000
0000
0010
0000
0000
0001
,
3000
0000
0010
0010
,
0001
0000
0100
0000
1010
0000
0000
1000
,
0000
0001
0000
0100
0000
0001
0000
0000
,
0010
0000
0100
0000
1001
0000
0000
0010
,
0000
1000
0000
0100
0000
0000
1000
0010
,
0100
0100
0100
0100
,
0001
0010
0100
1000
,
0010
0000
0010
0000
0010
0000
0010
1000
,
0000
1000
0001
0000
1001
0000
0000
0000
,
1000
0000
0100
0000
0011
0000
0000
1000
,
0000
0001
0000
0100
0000
0100
0010
0000
,
1000
0000
0001
0000
0110
0000
0000
1000
,
0000
0100
0000
0010
0000
0010
0100
0000
,
0020
0000
0031
1000
,
0100
0000
0000
0010
0000
0000
1001
0000
,
0100
0000
0010
1000
,
0001
0000
0000
0010
0000
0000
0100
0010
,
0200
0000
0000
0000
,
0000
0000
0010
0000
,
0320
0000
0000
0000
,
0032
0000
0000
0000
,
2003
0000
3100
0000
,
2000
0000
3002
0000
,
2003
0000
3020
0000
,
0230
0000
0302
0000
,
1003
0000
0100
1000
0002
0000
0000
1000
,
0003
0100
1000
0000
,
0001
0000
0010
0001
2000
0000
0000
0001
,
3000
0010
0100
0000
0010
0000
0000
0000
,
1000
0000
0100
1000
0020
0000
0000
0100
,
0030
0000
0001
0000
1000
0100
0000
0000
,
0020
0000
0130
1000
,
0020
0000
0000
0000
0130
0000
0001
2000
,
0002
0000
0000
0000
,
0000
0000
0000
0000
,
0003
0000
0000
0000
,
0000
0000
0000
0000
,
3000
0000
0000
0000
;

//---------------dance-single - Spork!----------------
#NOTES:
     dance-single:
     :
     Hard:
     8:
     0.481,0.452,0.231,0.213,0.000,330.000,26.000,24.000,0.000,0.000,0.000,0.481,0.452,0.231,0.213,0.000,330.000,26.000,24.000,0.000,0.000,0.000: // measure 0
0000
0000
0000
0000
,  // measure 1
0000
0000
0000
0000
,  // measure 2
0000
0000
0000
0000
,  // measure 3
0000
0000
0000
0000
,  // measure 4
0100
0010
0002
0000
0000
0203
0000
0000
,  // measure 5
0320
0000
0000
2030
0000
0000
3100
0000
,  // measure 6
0010
0100
2000
0000
0000
3010
0000
0000
,  // measure 7
0101
0000
1100
0000
0010
0010
0010
0010
,  // measure 8
1000
0001
0010
0000
0100
0010
0000
0011
,  // measure 9
0000
0100
0010
0010
0001
0100
0010
1000
,  // measure 10
0001
1000
0100
0000
0010
0100
0000
1001
,  // measure 11
0000
0100
1000
1000
0010
0100
0001
0010
,  // measure 12
0100
1000
0010
0000
0010
1000
0100
0010
,  // measure 13
0001
1000
0001
0100
0010
0100
0001
1000
,  // measure 14
0100
0010
0001
0000
1000
0010
0100
0001
,  // measure 15
1000
0000
0001
0010
0100
0000
0100
0000
,  // measure 16
0010
0001
0200
0000
1000
0000
0000
0001
,  // measure 17
0300
0010
0100
0001
2000
0000
0010
3000
,  // measure 18
0100
1000
0020
0000
0001
0000
0000
1000
,  // measure 19
0030
0100
0010
1000
0001
0010
0000
0011
,  // measure 20
0000
1010
0000
0100
0000
0010
0000
1100
,  // measure 21
0000
0101
0000
0010
0100
0100
0100
0100
,  // measure 22
1000
0001
0020
0000
0100
0000
0000
0001
,  // measure 23
0030
0010
0001
0001
1000
0000
0010
0000
,  // measure 24
0100
1000
0200
0000
0010
0000
0000
0001
,  // measure 25
0300
0010
1000
1000
0001
0000
0010
0000
,  // measure 26
0100
0001
0200
0000
0010
0000
0000
1000
,  // measure 27
0300
0100
0010
0010
0001
1000
0000
1010
,  // measure 28
0000
0011
0000
0100
0000
0010
0000
1001
,  // measure 29
0000
0100
0000
0011
0000
1000
0000
0110
,  // measure 30
0001
1000
0200
0000
0010
0000
0000
1000
,  // measure 31
0300
0001
1000
1000
0010
0010
0010
0010
,  // measure 32
1010
0000
0101
0000
0011
0000
0100
0010
,  // measure 33
0000
0001
0100
0000
1000
0100
0000
0001
,  // measure 34
0011
0000
1100
0000
1010
0000
0100
0001
,  // measure 35
0000
1000
0100
0010
0000
0100
0010
0100
,  // measure 36
1000
0001
1000
0001
0100
0010
0100
0010
,  // measure 37
1000
0100
1000
0100
0000
0100
0010
0001
,  // measure 38
0000
1000
0001
1000
0010
0000
0010
0100
,  // measure 39
0001
0010
0100
1000
0010
0010
0100
0001
,  // measure 40
1100
0000
0011
0000
0001
0100
0000
1010
,  // measure 41
0000
0010
1000
1000
0001
0010
0100
1000
,  // measure 42
0101
0000
1010
0000
1000
0100
0000
1001
,  // measure 43
0000
0010
0001
0100
0010
0100
0001
0000
,  // measure 44
0001
0010
0001
0010
0100
0010
0100
0010
,  // measure 45
0001
0000
1000
0001
0100
0010
1000
0100
,  // measure 46
1000
0000
0010
0100
0001
0010
0001
1000
,  // measure 47
0010
0000
0100
0010
1000
0001
0000
0001
,  // measure 48
0010
0010
0010
0010
,  // measure 49
0010
0010
0100
0010
,  // measure 50
0002
0000
0200
0300
,  // measure 51
2003
0000
0001
0000
,  // measure 52
3020
0000
0000
0000
,  // measure 53
2030
0000
3200
0000
,  // measure 54
0302
0000
0023
0000
,  // measure 55
2030
0000
3002
0000
,  // measure 56
0013
0000
0001
0010
0100
1000
0010
0001
,  // measure 57
0000
0010
0100
0010
1000
0100
0010
0001
,  // measure 58
0100
0000
1000
0010
0100
0001
0010
1000
,  // measure 59
0000
0010
0100
0010
0001
0100
0010
1000
,  // measure 60
0100
0000
0100
0010
1000
0001
0100
0010
,  // measure 61
0000
0010
0100
1000
0100
0001
0100
0010
,  // measure 62
0100
0100
0001
0010
0100
1000
1000
0001
,  // measure 63
0000
0100
0010
1000
0100
0010
0001
0010
,  // measure 64
0220
0000
0000
0000
,  // measure 65
0000
0000
0000
0000
,  // measure 66
0300
0000
0000
0000
,  // measure 67
0000
0000
0000
0000
,  // measure 68
0030
0000
0000
0000
;
