#VERSION:0.81;
#TITLE:Don't Stop;
#SUBTITLE:(Color on the Walls);
#ARTIST:Foster the People;
#TITLETRANSLIT:;
#SUBTITLETRANSLIT:;
#ARTISTTRANSLIT:;
#GENRE:Indie Rock;
#ORIGIN:;
#CREDIT:;
#BANNER:[CoCl] #001 Don't Stop (Color on the Walls) - Foster the Peoplebn.png;
#BACKGROUND:[CoCl] #001 Don't Stop (Color on the Walls) - Foster the Peoplebg.png;
#PREVIEWVID:;
#JACKET:;
#CDIMAGE:;
#DISCIMAGE:;
#LYRICSPATH:;
#CDTITLE:;
#MUSIC:[CoCl] #001 Don't Stop (Color on the Walls) - Foster the People.ogg;
#OFFSET:-0.007;
#SAMPLESTART:43.308;
#SAMPLELENGTH:14.156;
#SELECTABLE:YES;
#BPMS:0.000=133.010;
#STOPS:;
#DELAYS:;
#WARPS:;
#TIMESIGNATURES:0.000=4=4;
#TICKCOUNTS:0.000=4;
#COMBOS:0.000=1;
#SPEEDS:0.000=1.000=0.000=0;
#SCROLLS:0.000=1.000;
#FAKES:;
#LABELS:0.000=Song Start;
#BGCHANGES:;
#KEYSOUNDS:;
#ATTACKS:
;

//---------------dance-single - Spork!----------------
#NOTEDATA:;
#CHARTNAME:;
#STEPSTYPE:dance-single;
#DESCRIPTION:Spork!;
#CHARTSTYLE:Pad;
#DIFFICULTY:Beginner;
#METER:1;
#RADARVALUES:0.091,0.101,0.009,0.036,0.000,66.000,1.000,4.000,0.000,0.000,0.000,0.000,0.000,0.091,0.101,0.009,0.036,0.000,66.000,1.000,4.000,0.000,0.000,0.000,0.000,0.000;
#CREDIT:Spork!;
#OFFSET:-0.007;
#BPMS:0.000=133.010
;
#STOPS:;
#DELAYS:;
#WARPS:;
#TIMESIGNATURES:0.000=4=4
;
#TICKCOUNTS:0.000=4
;
#COMBOS:0.000=1
;
#SPEEDS:0.000=1.000=0.000=0
;
#SCROLLS:0.000=1.000
;
#FAKES:;
#LABELS:0.000=Song Start
;
#NOTES:
0000
0000
0000
0000
,
0000
0000
0000
0000
,
0000
0000
0000
0000
,
0000
0000
0000
0000
,
0001
0000
0000
0000
,
0000
0000
0000
0000
,
1000
0000
0000
0000
,
0000
0000
0000
0000
,
0010
0000
0010
0000
,
0100
0000
0100
0000
,
0010
0000
0000
0000
,
0010
0000
0000
0000
,
0100
0000
0100
0000
,
0010
0000
0010
0000
,
0100
0000
0000
0000
,
0100
0000
0000
0000
,
0001
0000
0001
0000
,
1000
0000
1000
0000
,
0001
0000
0000
0000
,
1000
0000
0000
0000
,
1000
0000
1000
0000
,
0001
0000
0001
0000
,
1000
0000
0000
0000
,
0000
0000
0000
0000
,
0001
0000
0010
0000
,
0001
0000
0000
0000
,
1000
0000
0010
0000
,
1000
0000
0000
0000
,
0001
0000
0100
0000
,
0001
0000
0000
0000
,
1000
0000
0100
0000
,
1000
0000
0000
0000
,
0002
0000
0000
0000
,
0003
0000
0000
0000
,
2000
0000
0000
0000
,
3000
0000
0000
0000
,
0020
0000
0000
0000
,
0030
0000
0000
0000
,
0200
0000
0000
0000
,
0300
0000
0000
0000
,
0010
0000
0010
0000
,
0010
0000
0000
0000
,
0100
0000
0100
0000
,
0100
0000
0000
0000
,
0001
0000
0001
0000
,
0001
0000
0000
0000
,
1000
0000
1000
0000
,
1000
0000
0000
0000
,
0001
0000
0010
0000
,
0100
0000
0000
0000
,
1000
0000
0010
0000
,
0100
0000
0000
0000
,
0001
0000
1000
0000
,
0100
0000
0000
0000
,
1000
0000
0001
0000
,
0010
0000
0000
0000
,
1001
0000
0000
0000
;

//---------------dance-single - Spork!----------------
#NOTEDATA:;
#CHARTNAME:;
#STEPSTYPE:dance-single;
#DESCRIPTION:Spork!;
#CHARTSTYLE:Pad;
#DIFFICULTY:Easy;
#METER:3;
#RADARVALUES:0.225,0.209,0.144,0.126,0.000,145.000,16.000,14.000,0.000,0.000,0.000,0.000,0.000,0.225,0.209,0.144,0.126,0.000,145.000,16.000,14.000,0.000,0.000,0.000,0.000,0.000;
#CREDIT:Spork!;
#OFFSET:-0.007;
#BPMS:0.000=133.010
;
#STOPS:;
#DELAYS:;
#WARPS:;
#TIMESIGNATURES:0.000=4=4
;
#TICKCOUNTS:0.000=4
;
#COMBOS:0.000=1
;
#SPEEDS:0.000=1.000=0.000=0
;
#SCROLLS:0.000=1.000
;
#FAKES:;
#LABELS:0.000=Song Start
;
#NOTES:
0000
0000
0000
0000
,
0000
0000
0000
0000
,
0000
0000
0000
0000
,
0000
0000
0000
0000
,
0001
0000
1000
0000
,
0010
0000
0010
1000
,
0100
0000
2000
0000
,
0002
0000
3003
0000
,
0010
0010
0001
0001
,
1000
1000
0010
0010
,
0100
0000
0001
0000
,
1000
0000
0100
0000
,
1000
1000
0001
0001
,
0010
0010
0100
0100
,
0010
0000
0100
0000
,
1000
0000
0001
0000
,
0100
0100
0001
0001
,
1000
1000
0010
0010
,
0100
0000
0010
0000
,
2000
0000
3002
0000
,
1003
1000
0100
0100
,
0010
0010
0001
0001
,
2002
0000
0000
3003
,
0000
1001
0000
1001
0000
0000
0000
0000
,
0010
0001
0010
0001
,
0010
0001
0100
0000
,
0000
0010
1000
0010
,
1000
0010
0100
0000
,
0000
0001
1000
0001
,
1000
0001
0100
0000
,
0000
1000
0001
1000
,
0001
1000
0000
1000
,
0020
0000
0000
0000
,
0030
0000
0200
0000
,
0302
0000
2003
0000
,
0000
0000
3000
1000
,
0020
0000
0000
0000
,
0030
0200
0000
0301
,
1000
0100
0010
0001
,
1000
1000
0001
0001
,
1000
1100
0000
0110
,
0000
0011
0000
1000
,
0001
0101
0000
0110
,
0000
1010
0000
0001
,
1000
1001
0000
0011
,
0000
1010
0000
0100
,
0010
0110
0000
0101
,
0000
1100
0000
1000
,
0001
0100
0001
0100
,
0001
0100
0010
0000
,
1000
0010
1000
0010
,
1000
0010
0100
0000
,
0001
1000
0001
1000
,
0001
1000
0100
0100
,
1000
0001
1000
0001
,
1000
0001
0000
0000
,
2002
0000
0000
0000
,
0000
0000
0000
0000
,
3003
0000
0000
0000
;

//---------------dance-single - Spork!----------------
#NOTEDATA:;
#CHARTNAME:;
#STEPSTYPE:dance-single;
#DESCRIPTION:Spork!;
#CHARTSTYLE:Pad;
#DIFFICULTY:Medium;
#METER:5;
#RADARVALUES:0.328,0.340,0.343,0.144,0.000,201.000,38.000,16.000,0.000,0.000,0.000,0.000,0.000,0.328,0.340,0.343,0.144,0.000,201.000,38.000,16.000,0.000,0.000,0.000,0.000,0.000;
#CREDIT:Spork!;
#OFFSET:-0.007;
#BPMS:0.000=133.010
;
#STOPS:;
#DELAYS:;
#WARPS:;
#TIMESIGNATURES:0.000=4=4
;
#TICKCOUNTS:0.000=4
;
#COMBOS:0.000=1
;
#SPEEDS:0.000=1.000=0.000=0
;
#SCROLLS:0.000=1.000
;
#FAKES:;
#LABELS:0.000=Song Start
;
#NOTES:
0000
0000
0000
0000
,
0000
0000
0000
0000
,
0000
0000
0000
0000
,
0000
0000
0000
0000
,
0001
0100
0020
0000
,
0130
0010
1000
1000
,
0001
0010
0100
0000
,
0010
0000
1001
0000
,
0100
0001
0100
0010
,
1000
0100
1000
0001
,
0010
0000
0100
0000
0100
0010
0100
0000
,
1000
0000
0001
0000
2000
0001
3001
0000
,
0100
0010
0001
0010
,
0100
0000
1000
0000
0001
1000
0001
0000
,
0100
0000
0010
0000
0010
1000
0100
0000
,
1000
0000
0001
0000
2000
0001
3001
0000
,
0100
0000
0011
0000
1100
0000
1000
0001
,
0000
0001
1000
0000
1001
0000
0010
0000
,
0001
0000
0100
0000
0100
0010
1000
0000
,
0100
0000
0010
0000
0002
1000
1003
0000
,
0010
0000
0001
0000
1000
0000
0010
1000
,
0000
1000
0100
0010
0001
0000
1000
0000
,
2002
0000
0000
3003
,
0000
0110
0000
0110
0000
0000
0000
0000
,
1000
0101
1000
0101
,
1000
0101
0010
1000
,
0001
1100
0001
1100
,
0001
1100
0010
0001
,
0100
1001
0100
1001
,
0100
1001
0010
1000
,
0001
0110
0001
0110
,
0001
0110
0000
0010
,
0200
0000
0000
0000
,
0000
0000
0320
0000
,
0032
0000
2003
0000
,
0000
0000
3000
1000
,
0020
0000
0000
0000
,
0000
0230
0000
0301
,
1000
0000
1000
0000
0001
1000
0001
1000
,
0000
0002
0000
0000
0000
0000
1003
0000
,
0100
0000
0001
0010
0001
0000
0001
1000
,
0001
0000
0001
0100
0001
0000
0100
0000
,
0010
0000
1000
0100
1000
0000
1000
0001
,
1000
0000
1000
0010
1000
0000
0010
0000
,
0100
1001
0100
1001
,
0100
0000
1001
0000
2000
0001
3001
0000
,
1000
0110
1000
0110
,
1000
0110
0000
0000
,
1000
0101
0001
1100
,
0010
0000
1001
0000
0001
0000
1000
0001
,
1000
0110
0001
0110
,
0010
0000
1001
0000
0001
0010
0100
1000
,
0000
1001
0010
0101
,
0010
0000
1100
0000
1000
0000
0001
1000
,
0001
1001
0100
1010
,
0100
0011
0100
0010
,
2002
0000
0000
0000
,
0000
0000
0000
0000
,
3003
0000
0000
0000
;

//---------------dance-single - Spork!----------------
#NOTEDATA:;
#CHARTNAME:;
#STEPSTYPE:dance-single;
#DESCRIPTION:Spork!;
#CHARTSTYLE:Pad;
#DIFFICULTY:Challenge;
#METER:9;
#RADARVALUES:0.675,0.694,0.559,0.541,0.243,402.000,62.000,60.000,23.000,0.000,0.000,0.000,0.000,0.675,0.694,0.559,0.541,0.243,402.000,62.000,60.000,23.000,0.000,0.000,0.000,0.000;
#CREDIT:Spork!;
#OFFSET:-0.007;
#BPMS:0.000=133.010
;
#STOPS:;
#DELAYS:;
#WARPS:;
#TIMESIGNATURES:0.000=4=4
;
#TICKCOUNTS:0.000=4
;
#COMBOS:0.000=1
;
#SPEEDS:0.000=1.000=0.000=0
;
#SCROLLS:0.000=1.000
;
#FAKES:;
#LABELS:0.000=Song Start
;
#NOTES:
// measure 0
00M0
0000
M000
0M00
0000
0000
0000
000M
,  // measure 1
0000
000M
0M00
00M0
M000
0000
0M00
0000
,  // measure 2
M000
000M
0000
0000
,  // measure 3
0000
0000
0000
0000
,  // measure 4
10M0
0000
0M10
100M
0100
0000
0100
M010
,  // measure 5
0001
M100
001M
1M00
0M01
0010
010M
0010
,  // measure 6
M001
0000
010M
0010
1M00
0000
0100
0010
,  // measure 7
0001
1000
0001
1001
0010
0010
0010
0010
,  // measure 8
2010
0000
0000
0000
3001
0000
0010
0000
0102
0000
0000
0003
1002
0000
0010
0003
,  // measure 9
0001
0110
0002
0100
2003
0000
3010
0100
,  // measure 10
0001
0010
0100
0001
1000
0010
0002
0000
,  // measure 11
1003
0010
1002
0100
0000
0010
0013
0000
,  // measure 12
0102
0000
0000
0003
0011
0000
0100
0000
2010
0000
0000
3000
2001
0000
0001
3000
,  // measure 13
1000
0020
0100
1030
0011
0010
1002
0000
,  // measure 14
0103
0010
1000
0001
0100
0001
0020
0000
,  // measure 15
0031
0100
2001
0010
0000
0100
3100
0010
,  // measure 16
0001
0010
0001
1000
0010
0000
0010
0000
0010
0000
0000
0010
0000
0010
0000
0000
,  // measure 17
0100
0000
0001
0000
1000
0000
0100
1000
0000
0000
0010
0100
0000
0001
0010
0000
,  // measure 18
1100
0010
1000
0100
1010
0010
2001
0000
,  // measure 19
3010
0100
0010
0100
0001
1000
0000
1000
0100
0000
0100
0000
0010
0100
0000
0000
,  // measure 20
1000
0001
0000
0000
0120
0000
0000
0030
0001
0000
0001
1000
0000
0010
1000
0000
,  // measure 21
0100
0000
0010
0000
0000
0101
0000
0000
0010
0000
0001
1000
0001
1000
0100
0000
,  // measure 22
1200
0000
0000
0300
,  // measure 23
1000
0100
1000
0001
1000
0010
0100
0001
1000
0100
0010
0001
0010
0100
0010
0001
,  // measure 24
1000
0000
0000
0010
1000
0010
2000
0000
0000
0100
0000
0000
3100
0000
0000
0010
0100
0010
0200
0000
0000
1000
0000
0000
,  // measure 25
0300
0000
0000
0001
0010
0001
0020
0000
0000
0001
0000
0000
0031
0000
0000
1001
0000
0000
1001
0000
0000
0100
0000
0000
,  // measure 26
0001
0000
0000
0010
0001
0010
0002
0000
0000
0100
0000
0000
0103
0000
0000
0001
1000
0001
2000
0000
0000
0010
0000
0000
,  // measure 27
3000
0100
0021
0001
0230
1000
0010
0301
,  // measure 28
0100
0000
0000
1000
0100
1000
0002
0000
0000
0100
0000
0000
0103
0000
0000
0010
1000
0010
0200
0000
0000
0001
0000
0000
,  // measure 29
0300
0000
0000
1000
0001
1000
0020
0000
0000
0100
0000
0000
0130
0000
0000
1001
0000
0000
1001
0000
0000
0100
0000
0000
,  // measure 30
0010
0000
0000
0001
0010
0001
2000
0000
0000
0100
0000
0000
3100
0000
0000
0010
0001
0010
0200
0000
0000
1000
0000
0000
,  // measure 31
0300
0000
0000
0001
1000
0001
0020
0000
0000
0100
0000
0000
0130
0000
0000
0010
0000
0000
0001
0000
0000
0100
0000
0000
,  // measure 32
0002
0000
0010
0010
1000
0000
1000
0100
,  // measure 33
0000
0100
0010
0010
2003
0100
0001
0000
,  // measure 34
3020
0000
1000
1000
0230
0000
0010
0010
,  // measure 35
0001
0010
0001
1000
0300
0101
1002
0000
,  // measure 36
2003
0000
0010
0010
0001
0001
0000
0100
,  // measure 37
0000
0000
0100
0000
0001
0000
0001
0000
3010
0000
1000
0000
1002
0000
0000
0003
,  // measure 38
0021
0000
0000
0030
0102
0000
0000
0003
1000
0000
1010
0000
0100
0000
0001
0000
,  // measure 39
0010
0011
0001
1000
0101
1001
1010
0001
,  // measure 40
1100
0000
0100
0001
0010
0000
0010
1000
,  // measure 41
0100
0000
0100
0001
0010
0100
1000
0110
,  // measure 42
0101
0000
0100
0001
0010
0000
0010
1000
,  // measure 43
0100
0000
0100
0001
0010
0011
1001
1010
,  // measure 44
1002
0000
0003
1000
0010
0000
0100
0000
0002
0000
0100
0000
0013
0000
0001
0000
,  // measure 45
2000
0010
3100
1000
0001
1001
1001
0010
,  // measure 46
2000
0000
0000
3010
0100
0000
0100
0000
0002
0000
0000
1003
0100
0000
0100
0000
,  // measure 47
0020
0000
0230
0000
0300
0010
0001
1000
,  // measure 48
0012
0000
0000
0003
1002
0000
0100
0003
2010
0000
0000
3000
2001
0000
0100
3000
,  // measure 49
0021
0000
0001
0030
1020
0000
1000
0030
1001
0000
0010
0000
0001
0000
1000
0000
,  // measure 50
2100
0000
0000
3000
2001
0000
0010
3000
0102
0000
0000
0003
1002
0000
0010
0003
,  // measure 51
1200
0000
1000
0300
0201
0000
0001
0300
1001
0000
0100
0000
1000
0000
0001
0000
,  // measure 52
1000
0000
1000
0010
1000
0000
0001
0000
0010
0000
0010
0001
0010
0000
0001
0000
,  // measure 53
0100
0000
0100
0010
0100
0000
0010
0000
1000
0000
1000
0000
1000
0000
1000
0000
,  // measure 54
0001
0010
1000
0001
0100
1000
0010
0001
,  // measure 55
1000
0100
0010
1000
1010
1001
0011
0110
,  // measure 56
2002
0000
0000
0000
,  // measure 57
3003
0000
0000
0000
;

//---------------dance-single - Spork!----------------
#NOTEDATA:;
#CHARTNAME:;
#STEPSTYPE:dance-single;
#DESCRIPTION:Spork!;
#CHARTSTYLE:Pad;
#DIFFICULTY:Hard;
#METER:7;
#RADARVALUES:0.425,0.445,0.397,0.325,0.000,250.000,44.000,36.000,0.000,0.000,0.000,0.000,0.000,0.425,0.445,0.397,0.325,0.000,250.000,44.000,36.000,0.000,0.000,0.000,0.000,0.000;
#CREDIT:Spork!;
#OFFSET:-0.007;
#BPMS:0.000=133.010
;
#STOPS:;
#DELAYS:;
#WARPS:;
#TIMESIGNATURES:0.000=4=4
;
#TICKCOUNTS:0.000=4
;
#COMBOS:0.000=1
;
#SPEEDS:0.000=1.000=0.000=0
;
#SCROLLS:0.000=1.000
;
#FAKES:;
#LABELS:0.000=Song Start
;
#NOTES:
0000
0000
0000
0000
,
0000
0000
0000
0000
,
0000
0000
0000
0000
,
0000
0000
0000
0000
,
0010
0000
0100
0001
0000
0000
0000
0010
,
0000
0010
0100
0010
0001
0000
1000
0000
,
0001
0100
0020
0030
,
1000
0001
0000
0001
1000
1000
1000
1000
,
0001
0000
0001
0010
0100
0000
0110
0000
,
0010
0000
1001
0000
0200
0000
0310
1000
,
0010
0100
0001
0010
0001
1000
0100
0000
,
1000
0000
0001
0000
0100
1001
1001
0000
,
1000
1001
0010
0101
,
0001
0000
2000
0000
3010
0100
0001
0000
,
0010
0001
0010
0100
1000
0010
1000
0000
,
0001
0000
0100
0000
0010
1001
1001
0000
,
0100
0000
0011
0000
1100
0000
1000
0010
,
0000
0010
0100
0001
1000
0000
0001
0000
,
0010
0001
0100
0000
0010
1000
0100
0000
,
1000
1000
0010
0100
0001
1001
1001
0000
,
0001
0000
0010
0000
1100
0000
0010
0100
,
0001
1000
0010
1000
0001
0000
0010
0000
,
2002
0000
0000
3003
,
0000
0110
0000
1001
0000
0001
1000
0000
,
0010
1001
0100
1001
,
0010
0000
1001
0000
0100
0001
1000
0010
,
0100
1001
0010
1001
,
0100
0000
1001
0000
0010
1000
0001
0010
,
0100
0011
0100
1010
,
0100
0000
0011
0000
1000
0001
0010
0100
,
0010
1100
0010
0101
,
0010
2200
3300
1000
,
0002
0000
0100
0000
,
1000
0000
0023
0000
,
0032
0000
2003
0000
,
0001
0000
0000
3020
,
0230
0000
0001
0000
,
1000
0320
0000
2030
,
3002
0000
0023
0000
0031
0010
0100
1000
,
0000
0020
0000
0000
0000
1030
0001
0000
,
1000
1100
0001
0101
,
1000
0000
1100
0000
0001
0010
0100
2000
,
3002
0003
0011
0000
1000
0000
1010
0000
,
0001
0000
0011
0000
1000
0020
0230
0302
,
2003
3000
0101
0000
0001
0000
1010
0000
,
1000
0000
0011
0000
0001
0100
0010
1000
,
0001
1010
1000
0101
,
0001
0000
2200
0000
3300
1000
0001
0000
,
0001
0010
0200
0000
0310
0001
0200
0000
,
0310
1000
0200
0000
1300
0100
0010
0001
,
1000
0010
0200
0000
0310
1000
0200
0000
,
0310
0001
0200
0000
0301
0010
0100
1000
,
0001
0101
0010
1100
,
0100
0000
2002
0000
3003
1000
0100
0010
,
0001
0100
0001
0001
1000
0100
1000
1000
,
0001
0010
0100
0100
1000
0010
0100
0100
,
2002
0000
0000
0000
,
0000
0000
0000
0000
,
3003
0000
0000
0000
;
