#TITLE:Absurd;
#SUBTITLE:;
#ARTIST:BlenderBlaster;
#TITLETRANSLIT:;
#SUBTITLETRANSLIT:;
#ARTISTTRANSLIT:;
#GENRE:;
#CREDIT:;
#BANNER:[CoCl] #006 Absurd - BlenderBlasterbn.png;
#BACKGROUND:[CoCl] #006 Absurd - BlenderBlasterbg.png;
#LYRICSPATH:;
#CDTITLE:;
#MUSIC:[CoCl] #006 Absurd - BlenderBlaster.ogg;
#OFFSET:0.016;
#SAMPLESTART:42.949;
#SAMPLELENGTH:12.292;
#SELECTABLE:YES;
#BPMS:0.000=95.000
;
#STOPS:
;
#BGCHANGES:;
#KEYSOUNDS:;
#ATTACKS:;

//---------------dance-single - Spork!----------------
#NOTES:
     dance-single:
     :
     Challenge:
     9:
     0.541,0.562,0.507,0.150,0.784,395.000,64.000,19.000,113.000,0.000,0.000,0.541,0.562,0.507,0.150,0.784,395.000,64.000,19.000,113.000,0.000,0.000: // measure 0
0M00
0M00
0M00
0M00
0M00
0000
00M0
00M0
,  // measure 1
0M00
0000
0000
0M00
0000
0000
0M00
0000
0000
0M00
0000
0000
0M00
0000
0000
0000
0000
000M
0000
0000
0000
M000
0000
0000
,  // measure 2
0M10
0000
1000
0000
0000
1000
0001
0000
0000
0000
0000
0010
0000
0000
0001
0000
0000
0001
1M00
0000
0000
0000
0000
0000
,  // measure 3
00M1
0000
1000
0000
0000
1000
0100
0000
0000
0000
0000
0010
0100
0000
0010
0000
0000
M001
0100
0000
0000
00M1
0000
0000
,  // measure 4
1M00
0000
0010
0000
0000
1000
00M1
0000
0000
1000
0000
0000
0M01
0000
0010
0000
0000
0001
10M0
0000
0000
0001
0000
0000
,  // measure 5
M100
0000
0001
0000
0000
0100
001M
0000
0000
0100
0000
0000
001M
0000
1000
0000
0000
0010
M100
0000
0000
0010
0000
0000
,  // measure 6
1M01
0011
1001
1010
0110
0101
0011
0110
,  // measure 7
1000
0000
0000
0000
0010
0000
0000
0000
0010
0000
0000
0000
0001
0000
0000
0000
0100
0000
0000
0000
0100
0000
0000
0000
1000
0000
0000
0000
0010
0000
0000
0000
0100
0000
0000
0000
2002
0000
0000
0000
0000
0000
0000
0000
0000
3003
0000
0000
,  // measure 8
11M0
0000
0000
0000
0000
0000
1000
0000
0000
0001
0000
0000
0100
0000
0000
0010
0100
0010
100M
0000
0000
0100
0000
M000
,  // measure 9
0110
0000
0000
0000
0000
0000
0000
0000
0100
0000
0000
1000
0000
0000
1000
0001
0000
0100
0000
0000
0100
0010
0000
0000
,  // measure 10
M101
0000
0000
0000
0000
0000
0001
0000
0000
1000
0000
0000
0010
0000
0000
0010
0100
0010
100M
0000
0000
0100
0000
0000
,  // measure 11
10M1
0000
0000
0000
0000
0000
0000
0000
0100
0000
0000
1000
0010
0000
0100
0000
0000
M001
0000
0000
0001
10M0
0000
0000
,  // measure 12
110M
0000
0000
0000
0000
0000
0000
0000
0000
0000
0000
0000
1010
0000
0000
0000
0000
0000
0110
0000
0000
0000
0000
0000
1010
0000
0000
0000
0000
0000
0100
0000
0010
0000
1000
0000
002M
0000
0000
0000
0000
0000
0000
0000
0000
0030
0000
0000
,  // measure 13
110M
0000
0000
0010
0000
0000
0000
0000
0001
0000
0000
0001
0000
0000
0100
0010
0000
1000
0000
0000
0001
0010
0000
0000
,  // measure 14
M011
0000
0000
0000
0000
0000
0101
0000
0000
0110
0000
0000
0101
0000
0000
0001
0010
0100
100M
0000
0000
0100
0000
0000
,  // measure 15
M110
0000
0000
0100
0000
0000
0000
0000
1000
0000
0000
0010
1000
0000
0001
0000
0000
100M
0000
0000
1000
01M0
0000
0000
,  // measure 16
1M01
1010
1001
0011
0110
1010
0101
1001
,  // measure 17
1000
0100
0100
0001
0010
0010
1000
0100
1000
0010
0100
0001
,  // measure 18
1M01
0000
0000
0010
0000
0001
0000
0000
0100
0000
0000
0010
0000
0000
1000
0000
0000
0001
00M0
0000
0001
1000
0000
0100
,  // measure 19
000M
0000
0000
0000
0010
0000
0100
0000
0000
0000
0000
0000
0200
0000
0000
0000
0010
0000
0000
0000
0000
0000
1000
0000
0000
0000
0000
0300
1000
0000
0200
0000
0000
0000
1000
0000
0000
0000
0000
0000
1300
0000
0001
0000
0000
0000
0000
0000
,  // measure 20
1M00
0000
0000
0010
0000
1000
0000
0000
0100
0000
0000
0110
0000
0000
0010
0001
0000
1000
0M00
0000
0001
1000
0000
0010
,  // measure 21
010M
0000
0000
0000
0100
0000
0001
0000
0000
0000
0001
0000
1000
0000
0000
0000
1000
0000
0001
0000
0000
0000
0000
0000
1002
0000
0000
0000
0000
0000
0010
0000
0000
0000
0000
0000
2003
0000
0000
0000
0000
0000
0000
0000
0000
3000
0000
0000
,  // measure 22
0M11
0000
0000
0001
0000
0010
0000
0000
0001
0000
0000
0100
0000
0000
0100
1000
0000
0100
00M0
0000
0100
0001
0000
0100
,  // measure 23
M000
0000
0000
0000
0100
0000
0010
0000
0000
0000
0000
0000
0020
0000
0000
0000
0100
0000
0000
0000
0000
0000
1000
0000
0000
0000
0000
0030
1000
0000
0020
0000
0000
0000
1000
0000
0000
0000
0000
0000
1030
0000
0001
0000
0000
0000
0000
0000
,  // measure 24
11M0
0000
0000
1000
0000
0001
1000
0000
0010
0000
0000
0110
0000
0000
0010
1000
0000
0010
0M00
0000
0001
0010
0000
0000
,  // measure 25
1000
0100
0010
0010
1000
0100
0100
0001
1000
0100
0100
0010
,  // measure 26
1010
0000
0000
0000
0000
0020
0000
0000
0000
0000
0000
0000
0000
0000
0000
0000
0000
0000
0M30
0000
0000
0000
0000
0000
,  // measure 27
00M0
0000
0000
0000
,  // measure 28
M000
0000
0000
0000
0000
0020
0000
0000
0000
0230
0000
0000
0002
0300
0000
0000
0003
0020
0M00
0000
0000
0032
0000
0000
,  // measure 29
M200
0003
0000
0000
0000
0000
0000
0000
0000
0000
0000
0000
0000
0000
0300
0000
00M0
0000
0000
0000
0000
000M
0000
0000
,  // measure 30
M001
0000
0010
0000
0000
0001
1M00
0000
0000
0001
0000
0000
1M00
0000
0010
0000
0000
1000
00M1
0000
0000
1000
0000
0000
,  // measure 31
010M
0000
1000
0000
0000
0100
001M
0000
0000
0100
0000
0000
M010
0000
0001
0000
0000
0010
M100
0000
0000
0010
0000
0000
,  // measure 32
1M01
1010
1001
0011
0110
1100
1010
0110
,  // measure 33
0001
0010
0100
0010
0010
1000
0010
0100
0100
2000
0002
3000
,  // measure 34
1M03
0000
0000
0000
0000
0000
011M
0000
0000
0000
0000
0001
0000
00M0
0100
0001
0000
0000
1M00
0000
0010
0100
0000
0010
,  // measure 35
100M
0000
0000
0000
0000
0000
M110
0000
0000
0000
0000
1000
0000
00M0
0100
1000
0000
0000
0M01
0000
0010
0001
0000
0001
,  // measure 36
M000
0000
0000
0000
0000
0000
101M
0000
0000
0000
0000
0100
0000
00M0
0001
1000
0000
0000
1M00
0000
0001
0010
0000
0100
,  // measure 37
100M
0000
0010
0000
0000
0100
M001
0000
0000
0000
0000
0001
0000
00M0
1000
0000
0000
0000
1M00
0000
0010
1000
0000
1000
,  // measure 38
000M
0000
0000
0000
0000
0000
M101
0000
0000
0000
0000
0100
0000
00M0
0100
1000
0000
0000
010M
0000
0010
0001
0000
0001
,  // measure 39
M100
0000
0000
0000
0000
0000
110M
0000
0000
0000
0000
0100
0000
00M0
0001
0100
0000
0000
M100
0000
0001
1000
0000
0010
,  // measure 40
0M00
0000
0000
0000
0000
0000
M011
0000
0000
0000
0000
0010
0000
0M00
0010
0001
0000
0000
10M0
0000
0100
1000
0000
1000
,  // measure 41
001M
0000
1000
0000
0000
0001
1M00
0000
0000
0000
0000
0001
0000
M000
0011
0000
0000
0000
1M01
0000
0000
0000
0000
0000
,  // measure 42
10M1
0101
1001
1010
0110
0011
1100
1001
,  // measure 43
0001
0100
0010
0010
0001
1000
0010
0010
0100
1000
0010
0100
,  // measure 44
00M1
0000
1000
0000
0000
0001
0100
0000
0000
0000
0000
0000
0000
0000
0001
0000
0000
0001
M010
0000
0000
0000
0000
0000
,  // measure 45
00M1
0000
1000
0000
0000
1000
0100
0000
0000
0000
0000
0000
0000
0000
0100
0000
0000
0010
0000
0000
0010
0001
0000
0000
,  // measure 46
0M01
0000
1000
0000
0000
1000
0010
0000
0000
0000
0000
0000
0000
0000
0010
0000
0000
0100
M001
0000
0000
0000
0000
0000
,  // measure 47
00M1
0000
1000
0000
0000
1000
0001
0000
0000
0000
0000
0000
0000
0000
0010
0000
0000
011M
0000
0000
0000
10M1
0000
0000
,  // measure 48
0200
0000
0000
0000
,  // measure 49
0300
0000
0000
0000
;

//---------------dance-single - Spork!----------------
#NOTES:
     dance-single:
     :
     Beginner:
     1:
     0.070,0.074,0.040,0.000,0.000,57.000,5.000,0.000,0.000,0.000,0.000,0.070,0.074,0.040,0.000,0.000,57.000,5.000,0.000,0.000,0.000,0.000: // measure 0
0000
0000
0000
0000
,  // measure 1
0000
0000
0000
0000
,  // measure 2
0010
0000
0000
0000
,  // measure 3
0100
0000
0000
0000
,  // measure 4
0001
0000
0001
0000
,  // measure 5
1000
0000
1000
0000
,  // measure 6
1001
0000
0000
0000
,  // measure 7
0100
0000
0000
0000
,  // measure 8
0001
0000
0000
1000
,  // measure 9
1000
0000
0000
0000
,  // measure 10
0100
0000
0000
0010
,  // measure 11
0010
0000
0000
0000
,  // measure 12
0010
0000
0000
0100
,  // measure 13
0100
0000
0000
0000
,  // measure 14
1000
0000
0000
0001
,  // measure 15
0001
0000
0000
0000
,  // measure 16
1001
0000
0000
0000
,  // measure 17
0100
0000
0000
0000
,  // measure 18
1000
0000
0000
0000
,  // measure 19
0001
0000
0010
0000
,  // measure 20
0001
0000
0000
0000
,  // measure 21
0100
0000
1001
0000
,  // measure 22
0001
0000
0000
0000
,  // measure 23
1000
0000
0100
0000
,  // measure 24
1000
0000
0000
0000
,  // measure 25
0001
0000
0000
0000
,  // measure 26
1000
0000
0000
0000
,  // measure 27
0000
0000
0000
0000
,  // measure 28
0001
0000
0000
0000
,  // measure 29
0000
0000
0000
0000
,  // measure 30
0100
0000
0010
0000
,  // measure 31
0100
0000
0010
0000
,  // measure 32
1001
0000
0000
0000
,  // measure 33
0100
0000
0000
0000
,  // measure 34
0000
1000
0000
0000
,  // measure 35
0000
0001
0000
0000
,  // measure 36
0000
1000
0000
0000
,  // measure 37
0010
0000
0100
0000
,  // measure 38
0000
0001
0000
0000
,  // measure 39
0000
1000
0000
0000
,  // measure 40
0000
0001
0000
0000
,  // measure 41
0100
0000
0010
0000
,  // measure 42
1001
0000
0000
0000
,  // measure 43
0010
0000
0000
0000
,  // measure 44
1000
0000
0000
0000
,  // measure 45
0001
0000
0000
0000
,  // measure 46
1000
0000
0000
0000
,  // measure 47
0001
0000
0000
0000
;

//---------------dance-double - Spork!----------------
#NOTES:
     dance-double:
     [USP] Revival (OLD Chart):
     Hard:
     7:
     0.336,0.330,0.174,0.238,0.154,245.000,22.000,30.000,24.000,0.000,0.000,0.336,0.330,0.174,0.238,0.154,245.000,22.000,30.000,24.000,0.000,0.000:
00000000
00000000
00000000
00000000
,
00000000
00000000
00000000
00000000
,
00010000
00100000
01000000
00000000
00100000
00001000
00010000
00000010
,
00001000
00000100
00000010
00000000
00000100
00010000
00001000
00000000
,
00010100
00001000
00110000
00001000
,
00010010
00001000
01010000
00001000
,
00000010
00000100
00000010
00000001
00000100
00000010
00000100
00000001
,
00001000
00000000
00001000
00000010
00000000
00000010
00010000
00001000
00010000
00002000
00000000
00000000
,
00103000
00000000
00001000
00010000
01000000
10000000
01000000
00100000
,
00020000
00000000
00000000
00000000
00000000
00000000
00000000
00000000
01000000
00030000
00000000
01000000
00000000
00000000
00000000
01001000
00000000
00000000
00000000
00000000
00000000
00010100
00000000
00000000
,
00000100
00000000
00010000
00001000
00000010
00000001
00000010
00000100
,
00002000
00000000
00000000
00000000
00000000
00000000
00000000
00000000
00000001
00003000
00000000
00000001
00001000
00000000
00000000
00000000
00000000
00000000
00000100
00000000
00000000
00001000
00000000
00000000
,
00000010
00000000
00010000
00001000
00000100
00000001
00000100
00000010
,
00002000
00000000
00000000
00000000
00000000
00000000
00000000
00000000
00000100
00003000
00000000
00000100
00000000
00000000
00000000
00010100
00000000
00000000
00000000
00000000
00000000
01001000
00000000
00000000
,
01000000
00000000
00001000
00010000
00100000
10000000
00100000
01000000
,
00020000
00000000
00000000
00000000
00000000
00000000
00000000
00000000
10000000
00030000
00000000
10000000
00010000
00000000
00000000
00000000
00000000
00000000
00010000
00000000
00000000
10000000
00000000
00000000
,
00100000
01000000
00100000
10000000
01000000
00100000
01000000
10000000
,
00010000
00100000
00000000
00100000
00001000
00000000
00001000
00010000
00000000
00010000
00000010
00000000
,
00002000
00000000
00003200
00000000
00000310
00000100
00000010
00000010
,
00000002
00000000
00000103
00000000
00000100
00001000
01000000
00010000
,
00200000
00000000
00320000
00000000
01030000
00010000
00000100
00000010
,
00001000
00000001
00000010
00000010
00000100
00000000
00011000
00000000
,
00020000
00000000
02030000
00000000
03100000
01000000
00100000
00100000
,
20000000
00000000
31000000
00000000
01000000
00010000
00000100
00001000
,
00000020
00000000
00000230
00000000
00000310
00001000
00000001
00000000
,
00M01002
00000000
0M000000
00000000
000M0000
00000000
00M00000
00000000
00000M00
00000000
000M0000
00000000
000000M0
00000000
00M00000
00000000
00000M00
00000000
0M000000
00000000
0000M000
00000003
00M00000
00000000
,
00000000
00000000
00000000
00000000
00000000
00020000
00000000
00000000
00000000
00000000
00000000
00000000
00000000
00000000
00000000
00000000
00000000
00000000
00000000
00030000
00000000
00000000
00000000
00000000
,
00000000
00000000
00000000
00000000
,
00000000
00000000
00000000
00000000
00000000
00002000
00000000
00000000
00000000
00020000
00003000
00000000
00000200
00000000
00030000
00000000
00000000
00002300
00000000
00000000
00000000
00000020
00003000
00000000
,
00020000
00000000
00000030
00000000
00000000
00000000
00000000
00000000
00000000
00000000
00000000
00000000
00000000
00000000
00000000
00030000
00000000
00000000
00000000
00000000
00000000
00000000
00000000
00000000
,
00010000
00001100
00001000
00010010
,
00001000
01010000
00010000
00101000
,
00100000
01000000
00100000
10000000
01000000
00100000
01000000
10000000
,
00010000
00000000
00010000
01000000
00000000
01000000
00001000
00010000
00001000
00020000
00000000
00000000
,
00030100
00000000
00001001
00000000
00000000
00000000
00000010
00000100
,
00001000
00000000
00010100
00000000
00000000
00000000
00001000
00010000
,
00000000
00000000
01100000
00000000
00000000
00000000
00100000
10000000
,
00020000
00000000
00230000
00000000
00302000
00000000
01003000
00010000
,
00100000
00000000
10010000
00000000
00000000
00000000
00100000
01000000
,
00010000
00000000
01001000
00000000
00000000
00000000
00010000
00001000
,
00000000
00000000
00000110
00000000
00000000
00000000
00000100
00001000
,
00000001
00000100
00000110
00000000
00000010
00000000
00000100
00000000
,
00000010
00000100
00000010
00000001
00000100
00000010
00000100
00000001
,
00M02002
00000000
0M000000
00000000
000M0000
00000000
00M00000
00000000
00000M00
00000000
000M0000
00000000
000000M0
00000000
00000M00
00000000
00M00000
00000000
0M000000
00000000
000000M0
00003003
00M00000
00000000
,
00001000
00000010
00000100
00000000
00000010
00010000
00001000
00100000
,
00010000
01000000
00100000
00000000
01000000
00001000
00010000
00010000
,
00001000
00100000
00010000
00000000
00100000
00001000
00010000
00000100
,
00001000
00000010
00010000
00000000
00000100
00010000
00001000
00000000
,
02000000
00000000
00000000
00000000
,
03000000
00000000
00000000
00000000
;

//---------------dance-single - Spork!----------------
#NOTES:
     dance-single:
     :
     Easy:
     4:
     0.224,0.252,0.198,0.198,0.016,148.000,25.000,25.000,7.000,0.000,4.000,0.224,0.252,0.198,0.198,0.016,148.000,25.000,25.000,7.000,0.000,4.000: // measure 0
0000
0000
0000
0000
,  // measure 1
0000
0000
0000
0000
,  // measure 2
0010
0100
0000
0100
,  // measure 3
1000
0010
0000
0100
,  // measure 4
0001
0011
1000
1010
,  // measure 5
0100
1001
0010
1001
,  // measure 6
0004
0000
0000
0000
0000
0000
0000
0003
,  // measure 7
1000
0100
0001
1100
,  // measure 8
0020
0130
0001
2000
,  // measure 9
3200
0310
1000
0010
,  // measure 10
0200
0310
0001
2000
,  // measure 11
3020
0130
1010
0101
,  // measure 12
0200
0310
1000
0002
,  // measure 13
0023
0130
0010
1000
,  // measure 14
0020
0130
1000
0002
,  // measure 15
0203
0310
0101
1010
,  // measure 16
4000
0000
0000
0000
0000
0000
0000
3000
,  // measure 17
0001
0010
1000
0010
,  // measure 18
0002
0103
0010
2000
,  // measure 19
3002
0103
0010
1000
,  // measure 20
0002
0013
0100
2000
,  // measure 21
3002
0103
0110
1001
,  // measure 22
2000
3010
0100
0002
,  // measure 23
2003
3010
1000
0001
,  // measure 24
2000
3100
0010
0002
,  // measure 25
0203
0000
0000
0000
0000
0000
0000
0300
,  // measure 26
1001
0000
0000
0000
0000
0M00
0000
0000
0000
0000
0000
0000
0000
0000
0000
0000
0000
0000
0010
0000
0000
0000
0000
0000
,  // measure 27
0001
0000
0000
0000
,  // measure 28
1000
0000
0000
0000
0000
00M0
0000
0000
0000
000M
0000
0000
0M00
0000
0000
0000
0000
00M0
0001
0000
0000
M000
0000
0000
,  // measure 29
01M0
0000
0000
0000
,  // measure 30
1000
1010
0001
0011
,  // measure 31
0100
1001
0010
1001
,  // measure 32
4000
0000
0000
0000
0000
0000
0000
3000
,  // measure 33
0001
0100
1000
0101
,  // measure 34
0100
0110
0000
0010
,  // measure 35
1000
0011
0000
0010
,  // measure 36
0100
1001
0000
0010
,  // measure 37
0001
0101
0010
1000
,  // measure 38
0001
1010
0000
0100
,  // measure 39
0001
1100
0000
0010
,  // measure 40
0100
1001
0000
0010
,  // measure 41
1000
1100
0001
0010
,  // measure 42
0004
0000
0000
0000
0000
0000
0000
0003
,  // measure 43
1000
0010
0001
0010
,  // measure 44
1000
0100
0000
0100
,  // measure 45
0010
0001
0000
0100
,  // measure 46
0001
0010
0000
0010
,  // measure 47
0100
0000
0000
0000
0000
0000
1000
0000
0000
0000
0000
0000
0000
0000
0000
0000
0000
0001
0000
0000
0000
0002
0000
0000
,  // measure 48
0000
0000
0000
0000
,  // measure 49
0003
0000
0000
0000
;

//---------------dance-single - Spork!----------------
#NOTES:
     dance-single:
     :
     Medium:
     6:
     0.297,0.310,0.214,0.253,0.036,204.000,27.000,32.000,7.000,0.000,0.000,0.297,0.310,0.214,0.253,0.036,204.000,27.000,32.000,7.000,0.000,0.000: // measure 0
0000
0000
0000
0000
,  // measure 1
0000
0000
0000
0000
,  // measure 2
1000
0100
1000
0000
0000
0000
0010
0000
,  // measure 3
0001
0100
0001
0000
0000
0000
0010
0000
,  // measure 4
1000
0101
0001
1100
,  // measure 5
0010
1001
0100
1001
,  // measure 6
0001
0010
0010
0010
0010
0010
0010
0010
,  // measure 7
0002
0203
2300
3010
,  // measure 8
0200
0000
0310
0000
0010
1000
0002
0000
,  // measure 9
2003
3100
1000
0001
,  // measure 10
0020
0000
0130
0000
0010
0001
2000
0000
,  // measure 11
3002
0000
0103
0000
1010
0000
0010
0100
,  // measure 12
0002
0000
0013
0000
0100
0010
0002
0000
,  // measure 13
0203
0310
1000
0001
,  // measure 14
2000
0000
3010
0000
0100
0010
2000
0000
,  // measure 15
3200
0310
0011
1010
,  // measure 16
1000
0100
0100
0100
0100
0100
0100
0100
,  // measure 17
2000
3020
0032
0203
,  // measure 18
0310
0000
1000
0000
0010
0100
0010
1000
,  // measure 19
0001
0000
0000
0000
0000
0000
0000
0000
1000
0000
0000
1000
0000
0000
0000
0100
0000
0000
0000
0000
0000
0100
0000
0000
,  // measure 20
0010
0000
0001
0000
0100
0010
0100
0001
,  // measure 21
1000
0100
0021
0130
,  // measure 22
0100
0000
1000
0000
0010
1000
0001
0000
,  // measure 23
0010
0000
0000
0000
0000
0000
0000
0000
0001
0000
0000
0001
0000
0000
0000
0100
0000
0000
0000
0000
0000
0100
0000
0000
,  // measure 24
0010
1000
0001
1001
,  // measure 25
2000
3200
0302
0013
,  // measure 26
1001
0000
0000
0000
0000
00M0
0000
0000
0000
0000
0000
0000
0000
0000
0000
0000
0000
0000
0011
0000
0000
0000
0000
0000
,  // measure 27
1001
0000
0000
0000
,  // measure 28
0110
0000
0000
0000
0000
000M
0000
0000
0000
M000
0000
0000
00M0
0000
0000
0000
0000
0M00
1010
0000
0000
000M
0000
0000
,  // measure 29
M110
0000
0000
0000
0000
0000
0000
0000
0000
0000
0000
0000
0000
0000
0000
0000
0000
0100
0000
0000
0000
0100
0000
0000
,  // measure 30
0001
1010
1000
0011
,  // measure 31
0100
1001
0010
1001
,  // measure 32
0010
0100
0100
0100
0100
0100
0100
0100
,  // measure 33
0002
0023
2030
3100
,  // measure 34
0010
0000
1010
0000
0000
0000
0100
0100
,  // measure 35
0001
1100
0000
0010
,  // measure 36
1000
0000
0110
0000
0000
0000
0010
1000
,  // measure 37
0001
0000
1001
0000
0010
0000
0010
0001
,  // measure 38
0100
0000
0101
0000
0000
0000
0010
0010
,  // measure 39
1000
0011
0000
0100
,  // measure 40
0001
0000
1001
0000
0000
0000
1000
0100
,  // measure 41
0010
0110
1000
0001
,  // measure 42
0100
0010
0010
0010
0010
0010
0010
0010
,  // measure 43
2000
3200
0320
0032
,  // measure 44
1003
0010
1000
0000
0000
0000
0100
0000
,  // measure 45
0001
0010
0002
0000
0000
0000
1003
0000
,  // measure 46
0001
0100
0001
0000
0000
0000
0010
0000
,  // measure 47
1000
0000
0000
0100
0000
0000
1000
0000
0000
0000
0000
0000
0000
0000
0000
0000
0000
0010
0000
0000
0000
0020
0000
0000
,  // measure 48
0000
0000
0000
0000
,  // measure 49
0030
0000
0000
0000
;

//---------------dance-single - Spork!----------------
#NOTES:
     dance-single:
     :
     Hard:
     8:
     0.390,0.388,0.063,0.238,0.277,307.000,8.000,30.000,6.000,0.000,0.000,0.390,0.388,0.063,0.238,0.277,307.000,8.000,30.000,6.000,0.000,0.000: // measure 0
0000
0000
0000
0000
,  // measure 1
0000
0000
0000
0000
,  // measure 2
0001
0000
0000
0010
0000
0000
0100
0000
0000
0000
0000
0000
0000
0000
0010
0000
0000
0010
0001
0000
0000
0000
0000
0000
,  // measure 3
1000
0000
0000
0010
0000
0000
0100
0000
0000
0000
0000
0000
0000
0000
0000
0000
0000
0001
0000
0000
0000
0001
0000
0000
,  // measure 4
1000
0100
0002
0000
1003
0010
0002
0000
,  // measure 5
0103
0010
0002
0000
1003
0100
0002
0000
,  // measure 6
0013
0100
0100
0100
0100
0100
0100
0100
,  // measure 7
0010
0001
1000
0010
1000
0001
0100
0001
1000
0200
0000
0000
,  // measure 8
0310
0000
0100
1000
0010
0100
2000
0000
,  // measure 9
3200
0000
0000
0000
0000
0000
0300
0000
0001
0000
0000
0001
0000
0000
1000
0001
0000
0000
0000
0000
0001
0100
0000
0000
,  // measure 10
0010
0000
0100
0001
0010
0100
0001
0001
,  // measure 11
0200
0000
0000
0000
0000
0000
0300
0000
1000
0000
0000
1000
0001
0000
0000
0000
0000
0000
0100
0000
0000
0001
0000
0000
,  // measure 12
0010
0000
0100
0010
0001
0100
0020
0000
,  // measure 13
0032
0000
0000
0000
0000
0000
0003
0000
0010
0000
0000
0010
0000
0000
1000
0010
0000
0000
0000
0000
0010
0100
0000
0000
,  // measure 14
0010
0000
0100
0010
1000
0100
0010
0010
,  // measure 15
2000
0000
0000
0000
0000
0000
3000
0000
0010
0000
0000
0010
0001
0000
0000
0000
0000
0000
0010
0000
0000
0100
0000
0000
,  // measure 16
1000
0010
0010
0010
0010
0010
0010
0010
,  // measure 17
1000
0100
0010
0001
0100
0010
1000
0010
0100
0001
0010
0100
,  // measure 18
1000
0000
0010
0000
0010
0001
0100
1000
,  // measure 19
0200
0000
0310
0000
0010
1000
0100
1000
,  // measure 20
0001
0000
0100
0000
0100
1000
0010
0001
,  // measure 21
0020
0130
2001
3010
,  // measure 22
1000
0000
0100
0000
0100
0001
0010
1000
,  // measure 23
0020
0000
0130
0000
0100
1000
0001
0100
,  // measure 24
0001
0000
0010
0000
0010
1000
0001
0000
,  // measure 25
0001
0010
0100
1000
0010
0100
0001
0100
0010
1000
0100
0010
,  // measure 26
M001
0000
0000
0000
0000
2000
0000
0000
0000
0000
0000
0000
0000
0000
0000
0000
0000
0000
301M
0000
0000
0000
0000
0000
,  // measure 27
M100
0000
0000
0000
0000
0000
0000
0000
0000
0000
0000
0000
0000
0000
0001
0000
0000
0001
0000
0000
1000
0001
0000
0000
,  // measure 28
02M0
0000
0000
0000
0000
0000
0000
0000
0000
0000
0002
0000
0300
0000
0000
0000
0000
0000
0023
0000
0000
0000
0000
0000
0200
0000
0000
0030
0000
0000
0000
0000
0000
0300
2000
0000
000M
0000
0000
0000
0000
0000
3020
0000
0000
0000
0000
0000
,  // measure 29
M200
0000
0000
0030
0000
0000
0000
0000
0000
0000
0000
0000
0000
0000
0000
0000
0000
0000
0000
0000
0000
0000
0000
0000
0000
0000
0000
0000
0300
0000
0000
0000
0000
0000
0010
0000
0000
0000
0000
0000
0000
0000
1000
0000
0000
0000
0000
0000
,  // measure 30
0001
0010
2000
0000
3001
0100
2000
0000
,  // measure 31
3010
0100
2000
0000
3001
0010
2000
0000
,  // measure 32
3100
0010
0010
0010
0010
0010
0010
0010
,  // measure 33
0100
1000
0001
0100
0001
1000
0010
1000
0001
0020
0000
0000
,  // measure 34
0130
0000
0011
0000
0010
0001
1000
0010
,  // measure 35
0100
0000
0000
0000
0000
0000
1010
0000
0000
0000
0000
0000
0100
0000
0000
0001
0000
0000
0010
0000
0001
1000
0000
1000
,  // measure 36
0000
0000
1100
0000
0010
1000
0001
0010
,  // measure 37
0100
1000
0010
0000
0010
0100
0001
1000
,  // measure 38
0001
0000
0110
0000
0010
1000
0001
0100
,  // measure 39
0010
0000
0000
0000
0000
0000
1001
0000
0000
0000
0000
0000
0010
0000
0000
1000
0000
0000
0100
0000
1000
0001
0000
0001
,  // measure 40
0000
0000
0011
0000
0100
0001
1000
0010
,  // measure 41
0100
0001
0010
0000
0010
0100
0110
0000
,  // measure 42
0001
0100
0100
0100
0100
0100
0100
0100
,  // measure 43
0010
1000
0100
0010
0001
0100
0001
0010
0100
1000
0010
0100
,  // measure 44
0001
0000
0000
1000
0000
0000
0100
0000
0000
0000
0000
0000
0000
0000
1000
0000
0000
1000
0010
0000
0000
0000
0000
0000
,  // measure 45
1000
0000
0000
0001
0000
0000
0100
0000
0000
0000
0000
0000
0000
0000
0010
0000
0000
0100
0000
0000
0010
1000
0000
0000
,  // measure 46
0001
0000
0000
0010
0000
0000
0100
0000
0000
0000
0000
0000
0000
0000
0010
0000
0000
0010
0001
0000
0000
0000
0000
0000
,  // measure 47
1000
0000
0000
0001
0000
0000
0010
0000
0000
0000
0000
0000
0001
0000
0000
0000
0000
0002
0000
0000
0000
2000
0000
0000
,  // measure 48
0000
0000
0000
0000
,  // measure 49
3003
0000
0000
0000
;
