#TITLE:rough percussionythm;
#SUBTITLE:;
#ARTIST:BEMANI Sound Team "setup VS 謎の勢力";
#TITLETRANSLIT:;
#SUBTITLETRANSLIT:;
#ARTISTTRANSLIT:;
#GENRE:;
#CREDIT:;
#MUSIC:rough percussinythm.mp3;
#BANNER:;
#BACKGROUND:rough percussionythm-bg.png;
#CDTITLE:;
#SAMPLESTART:0.000;
#SAMPLELENGTH:0.000;
#SELECTABLE:YES;
#OFFSET:-0.062;
#BPMS:0.000=175.000;
#STOPS:;
#DISPLAYBPM:175.000;
#BGCHANGES:;
#FGCHANGES:;

//--------------- dance-single - ----------------
#NOTES:
     dance-single:
     :
     Hard:
     17:
     0,0,0,0,0:
0000
0000
0000
0000
,
0001
0100
0001
0000
0000
0001
0010
0000
,
1000
0010
1000
0000
0000
0100
1000
0000
,
0001
0001
1000
0000
0000
0100
0010
0000
,
0001
0000
0000
0000
0000
0000
0100
0010
0100
0000
0001
0000
0010
0001
0010
0001
,
1000
0100
1000
0000
0000
0100
1000
0000
,
0001
0000
0000
0000
1000
0000
0000
0000
0000
0000
0100
0010
0100
0010
0100
0000
,
1001
0000
0000
0110
0000
0000
1001
0000
1000
0100
1000
0100
0011
0000
0000
0000
,
0110
0000
0000
1001
0000
0000
0110
0000
1000
0000
1000
0000
1000
0000
0000
0000
,
0001
0100
0001
0000
0000
0100
0100
0000
,
1000
0010
1000
0000
0000
0010
0010
0000
,
0100
0010
0100
0000
0000
0010
0100
0000
,
1000
0000
0000
0000
0001
1000
0100
1000
1000
0000
0100
0000
0001
0000
0000
0000
,
1000
1000
1000
0000
0000
0001
0001
0000
,
0100
0000
0000
0000
0010
0100
0010
0100
0010
0000
1000
0100
1000
0100
1000
0000
,
1001
0000
0000
0110
0000
0000
1001
0000
0010
0100
0010
0100
1001
0000
1000
0001
,
1000
0000
0000
0100
0000
0000
0010
0001
0010
0000
0100
0000
1000
0000
0000
0000
,
2000
0000
0000
0000
3000
0010
0002
0000
,
0023
0000
0000
0000
0000
0000
0000
0030
0000
0000
1000
0010
1000
0010
1000
0010
,
2000
0000
0000
0000
3000
0001
0100
0001
,
0100
0000
0002
0000
0000
0000
0003
0000
0010
0000
0001
0000
0010
0100
1000
0100
,
0020
0000
0000
0030
0000
0001
0010
0200
,
0000
0000
0000
0000
0300
0000
0000
0000
0000
0000
1000
0010
1000
0010
1000
0000
,
1001
0000
0000
0110
0000
0000
1001
0000
0000
0010
0100
0010
0100
0000
0000
0000
,
1010
0000
0000
0101
0000
0000
1100
0000
1000
0000
0100
0000
1000
0000
0000
0000
,
2000
0000
0000
3000
0200
0000
0000
0300
0010
0001
0000
0001
0010
0000
0100
0000
,
2000
0000
0000
3000
0200
0000
0000
0300
0010
0001
0000
0001
0010
0000
0100
0000
,
2000
0000
0000
3000
0200
0000
0000
0300
0010
0001
0000
0001
0010
0000
0100
0000
,
2000
0000
0000
3000
0200
0000
0000
0300
0010
0000
0001
0000
0010
0000
0001
0000
,
0010
0100
0000
0100
0010
0000
0001
0000
0001
0100
0001
0000
0001
0000
0010
0000
,
1000
0100
0000
0100
1000
0000
0100
0000
0010
0000
0001
0100
0001
0100
0001
0000
,
0110
0000
0000
1001
0000
0000
0110
0000
1000
0100
1000
0100
1000
0000
0000
0000
,
1001
0000
0000
0110
0000
0000
1001
0000
1000
0000
0001
0000
1000
0000
0000
0000
,
1000
0000
0100
0000
0010
0000
0000
0001
0000
0010
0001
0000
0010
0000
0000
0000
,
0000
0000
0001
0100
0001
0000
0010
0000
1000
0010
1000
0010
1000
0010
1000
0010
,
1000
0000
0100
0000
0010
0000
0000
0010
0001
0010
0001
0000
0010
0000
0000
0000
,
1000
0100
0010
0001
0010
0000
0100
0000
1000
0010
1000
0000
0100
1000
0000
1000
,
0100
0000
1000
0000
0100
0000
1000
0010
1000
0010
0000
0000
1000
0100
0010
0001
,
0010
0000
0001
0100
0001
0010
0001
0100
0001
0010
0001
0100
0002
0000
0000
0003
,
0000
0000
0010
0100
1000
0000
0100
0000
1000
0100
0000
0010
0001
0000
0010
0000
,
1000
0001
1000
0001
1000
0001
1000
0001
1000
0001
1000
0001
1000
0001
1000
0000
,
0110
0000
0000
1001
0000
0000
1001
0000
0110
0000
0000
0110
0000
1001
0000
0000
,
1001
0000
0000
0110
0000
0000
0110
0000
1001
0000
0000
1001
0000
0000
0010
0100
,
0010
0000
0000
0000
0000
0000
0100
0000
0000
0000
0000
0000
0000
0000
1000
0000
0100
0000
1000
0000
0000
0000
0000
0000
1000
0000
0000
0000
0000
0000
0000
0000
0000
0100
0000
0000
0000
0000
0000
0000
0000
0000
0010
0000
0000
0000
0000
0000
,
0001
0000
0000
0010
0000
0000
0100
0000
1000
0000
0000
0100
0000
0000
0011
0000
,
0000
0000
0000
0000
0000
0000
1100
0000
0101
0000
0000
1100
0000
0000
0110
0000
,
0000
0000
0000
0000
0000
0000
0110
0000
0000
0000
0110
0000
0100
0010
0100
0000
,
1001
0000
0000
0110
0000
0000
1001
0000
0010
0100
0010
0100
0000
0000
0000
0000
,
0110
0000
0000
0220
0000
0000
0000
0000
0000
0000
0000
0000
0000
0330
0000
0000
,
2000
0000
0000
3000
0200
0000
0000
0300
0010
0001
0000
0001
0010
0000
0100
0000
,
2000
0000
0000
3000
0200
0000
0000
0300
0010
0001
0000
0001
0010
0000
0100
0000
,
2000
0000
0000
3000
0200
0000
0000
0300
0010
0001
0000
0001
0010
0000
0100
0000
,
2000
0000
0000
3000
0200
0000
0000
0300
0010
0000
0001
0000
0010
0000
0001
0000
,
0010
0100
0000
0100
0010
0000
0001
0000
0001
0100
0001
0000
0001
0000
0010
0000
,
1000
0100
0000
0100
1000
0000
0100
0000
0010
0000
0001
0000
0100
0000
0001
0000
,
1000
0100
0000
0000
0001
0010
0000
0000
0010
0001
0010
0001
0010
0001
0010
0001
,
0010
0000
1000
0010
1000
0010
1000
0010
1000
0010
1000
0010
1000
0010
1000
0010
,
2000
0000
0000
3000
0200
0000
0000
0300
0010
0001
0000
0001
0010
0000
0100
0000
,
2000
0000
0000
3000
0200
0000
0000
0300
0010
0001
0000
0001
0010
0000
0100
0000
,
2000
0000
0000
3000
0200
0000
0000
0300
0010
0001
0000
0001
0010
0000
0100
0000
,
2000
0000
0000
3000
0200
0000
0000
0300
0010
0000
0001
0000
0010
0000
0001
0000
,
0010
0100
0000
0100
0010
0000
0001
0000
0001
0100
0001
0000
0001
0000
0010
0000
,
1000
0100
0000
0100
1000
0000
0100
0000
0010
0000
0001
0000
0010
0000
0100
0000
,
1000
0010
1000
0010
1000
0000
0100
1000
0000
0100
1000
0000
0001
0100
0001
0100
,
0001
0000
0010
0001
0000
0010
0001
0000
1001
0000
0110
0000
1001
0000
0001
0000
,
1000
1100
1000
1100
1000
1100
1000
1100
,
1000
1100
1000
1100
0000
1000
0000
0000
,
0010
0110
0010
0110
0010
0110
0010
0110
,
0010
0000
0110
0000
0000
0000
0000
0000
0010
0100
0010
0100
0010
0000
0000
0000
,
0001
0101
0001
0101
0001
0101
0001
0101
,
0001
0000
0101
0000
0000
0000
0000
0000
0100
0000
0010
0000
0100
0010
0100
0010
,
0100
0110
0100
0110
0100
0110
0000
2002
,
0000
0000
0000
0000
0000
0000
0000
3003
,
0001
0100
0001
0000
0000
0001
0010
0000
,
1000
0010
1000
0000
0000
0100
1000
0000
,
0001
0001
1000
0000
0000
0100
0010
0000
,
0001
0000
0000
0000
0000
0000
0100
0010
0100
0000
0001
0000
0010
0001
0010
0001
,
1000
0010
1000
0000
0000
0100
1000
0000
,
0001
0000
0000
0000
1000
0000
0000
0000
0000
0000
0100
0010
0100
0010
0100
0000
,
1001
0000
0000
0110
0000
0000
1001
0000
1000
0100
1000
0100
0011
0000
0000
0000
,
0110
0000
0000
1001
0000
0000
0110
0000
1000
0000
1000
0000
1000
0000
0000
0000
,
0001
0100
0001
0000
0000
0100
0100
0000
,
1000
0010
1000
0000
0000
0010
0010
0000
,
0100
0010
0100
0000
0000
0010
0100
0000
,
1000
0000
0000
0000
0001
1000
0100
1000
0100
0000
0001
0100
0001
0100
0001
0100
,
0001
0001
0001
0000
0000
1000
1000
0000
,
0100
0000
0000
0000
0010
0100
0010
0100
0010
0000
1000
0100
1000
0100
1000
0000
,
1001
0000
0000
0110
0000
0000
1001
0000
0010
0100
0010
0100
1001
0000
1000
0001
,
1000
0000
0000
0100
0000
0000
0010
0001
0010
0000
0100
0000
1000
0000
0000
0000
;
