#TITLE:ゆめのかなたで;
#SUBTITLE:;
#ARTIST:かめりあ;
#TITLETRANSLIT:Yume no kanata de;
#SUBTITLETRANSLIT:;
#ARTISTTRANSLIT:Camellia;
#GENRE:;
#CREDIT:;
#MUSIC:Yume no kanata de.ogg;
#BANNER:Yume no kanata de.png;
#BACKGROUND:;
#CDTITLE:;
#SAMPLESTART:94.428;
#SAMPLELENGTH:15.000;
#SELECTABLE:YES;
#OFFSET:0.134;
#BPMS:0.000=217.000
,116.000=108.500
,132.000=217.000
,188.000=108.500
,220.000=217.000
;
#STOPS:;
#BGCHANGES:;
#FGCHANGES:;

//--------------- dance-single - ----------------
#NOTES:
     dance-single:
     :
     Beginner:
     7:
     0,0,0,0,0:
0000
0000
0000
0000
,
0000
0000
0000
0000
,
0000
0000
0000
0000
,
0000
0000
0000
0000
,
0000
0000
0000
0000
,
0000
0000
0000
0000
,
0000
0000
0000
0000
,
0000
0000
0000
0000
,
0000
0000
0000
0000
,
2002
0000
0000
0000
3003
0000
0000
0002
,
0003
0000
0000
1000
0000
0000
0200
0000
,
0000
0000
0000
0000
0300
0000
0000
0020
,
0030
0000
0000
0001
0000
0000
2000
0000
,
0000
3000
0010
1000
,
0001
1000
0001
1000
,
0000
0001
0000
0002
0000
0000
1003
0000
,
0001
1000
0001
1000
,
0002
0003
2000
3000
,
0002
0003
2000
3000
,
0001
0000
0000
0002
0000
0000
0000
0003
,
2000
0000
3002
0000
,
1003
0000
0010
0000
1000
0000
0000
1000
,
0000
0010
0100
0001
,
0100
0000
0001
0000
0100
0000
0000
0001
,
0000
1000
0100
1000
,
0000
1000
0000
0000
0001
0000
0000
0010
,
0000
0001
1000
1000
,
0100
0000
1000
0000
0100
0000
0000
1000
,
0000
0001
0000
0000
2002
0000
0000
3003
,
0001
1000
0001
0000
1000
0001
1000
0000
,
0001
0010
0001
0000
1000
0100
1000
0000
,
0001
0100
0001
0000
1000
1000
0001
0000
,
0000
0000
0100
0000
0100
0000
0000
0000
0001
0000
0010
0000
0002
0003
1000
0000
,
1000
0100
0010
0100
,
1000
0010
0000
1000
,
1000
0010
0100
0001
,
0001
0000
0100
0000
0000
0000
0002
0003
,
0000
0010
0000
0010
0000
0100
0000
1000
,
0000
0100
0000
1000
0000
0001
0000
0100
,
0000
0010
0000
1000
0000
0100
0000
1000
,
0000
0001
0000
1000
0000
1000
0002
0003
,
0001
1000
0001
1000
,
1000
0001
1000
0001
,
0001
1000
0001
1000
,
1000
0001
1000
0001
,
0001
1000
0001
1000
,
0010
0010
1000
0001
,
2002
3003
0001
0001
0000
0001
1000
1000
,
2002
3003
1000
0100
1000
0010
1000
0100
,
2000
3000
0001
1000
0000
0100
1000
1000
,
0002
0003
1000
0000
1000
0000
0001
0000
1000
0000
0001
0000
2000
0000
3000
0000
,
2002
3003
1000
0001
0000
0001
0000
1000
,
0002
0003
1000
0000
0002
0003
0000
0000
1000
0000
0000
0010
0000
0000
1000
0000
,
2002
0000
3003
0000
0000
1000
0000
0001
0000
0000
0001
0000
1000
0000
0000
2000
,
0000
3000
0000
0002
0000
0003
0000
2000
0000
3000
0000
0020
0000
0000
0030
0000
,
0000
1000
0000
0002
0003
0000
0002
0000
,
0003
1000
0000
2000
0000
0000
3000
0000
,
0000
0001
0000
2000
3000
0000
2000
0000
,
3000
0001
0000
0001
0000
0000
0000
0000
,
2000
3000
0000
0002
0003
0000
2000
3000
,
0002
0000
0000
0003
0002
0003
0000
2000
,
3000
0000
0002
0003
2000
0000
0000
3000
,
2000
3000
0000
0002
0003
0000
2000
3000
,
0000
2002
0000
0000
,
0000
0000
0000
0000
,
0000
3003
2000
0000
,
0000
0000
3000
0020
0030
0000
0000
0010
,
0000
2000
0000
0000
,
3000
0000
0000
0002
0003
0000
0000
0000
,
0002
0000
0000
0003
1000
0000
0000
0000
,
0001
0000
0000
0002
0003
0000
0000
1000
,
0000
0001
0000
0000
,
0002
0000
2003
0000
,
3002
0000
0000
0003
2002
0000
0000
0000
,
3003
0000
0000
0002
0003
0000
0000
0001
,
0000
0000
0200
0000
0000
0000
0300
0002
,
0000
0000
0003
2000
3000
0000
0000
0010
,
0000
0000
0200
0000
0000
0000
0300
0002
,
0000
0000
0003
2000
3000
0000
0000
1000
,
0000
0000
2000
0000
0000
0000
3000
0002
,
0000
0000
0203
0000
,
0000
0000
0000
0300
0020
0000
0000
0000
,
0000
0000
0030
2000
3000
0000
0000
1000
,
0000
0000
2000
0000
0000
0000
3000
0002
,
0000
0000
0003
2000
3000
0000
0000
0001
,
0000
0000
0002
0000
0000
0000
0003
1000
,
0000
1000
0010
1000
,
0100
0000
1000
0001
0000
1000
0000
0001
,
0000
0001
0100
0001
,
0010
0000
0001
0000
0002
0000
0003
2000
,
3000
1000
0001
0001
,
1000
0010
0100
0002
,
0000
0003
2000
0000
,
3002
0000
0003
0000
0000
1000
0000
0000
,
0001
0000
0000
1000
0000
0000
1000
0000
,
0000
0001
0000
0000
1000
0000
0000
0001
,
0000
0000
0001
0000
0000
1000
0000
0000
,
0001
0000
0000
1000
0000
0000
1000
0000
,
0000
0001
0000
0000
1000
0000
0000
0001
,
0000
0000
0001
0000
0000
1000
0000
0000
,
1001
0000
0000
0001
0000
0000
1001
0000
,
1000
0001
2000
3000
;

//--------------- dance-single - ----------------
#NOTES:
     dance-single:
     :
     Easy:
     10:
     0,0,0,0,0:
0000
0000
0000
0000
,
0000
0000
0000
0000
,
0000
0000
0000
0000
,
0000
0000
0000
0000
,
0000
0000
0000
0000
,
0000
0000
0000
0000
,
0000
0000
0000
0000
,
0000
0000
0000
0000
,
0000
0000
0000
0000
,
2002
0000
0000
0000
3003
0000
0000
0001
,
0100
0000
0000
1000
0000
1000
0200
0000
,
0000
0000
0000
0000
0300
0000
0000
0010
,
1000
0000
0000
0001
0000
0001
2000
0000
,
0000
0000
3000
0100
0010
0000
0001
1000
,
0001
0000
0001
0100
0001
0000
0001
0100
,
0000
0001
0010
0002
0000
0000
1003
0010
,
1000
0000
1000
0100
1000
0100
1000
0000
,
1000
0100
0000
0001
0100
1000
0000
0100
,
1000
0100
0000
0010
0001
0010
0001
0000
,
1000
0000
1000
0002
0000
0000
0000
0003
,
2000
0000
3002
0000
,
1003
0100
1000
0000
1000
0020
0030
1000
,
0000
0100
0010
0000
0010
0100
1000
0000
,
0001
0100
0001
0000
0100
0020
0030
1000
,
0000
0001
1000
0000
1000
0010
0100
0001
,
0000
1000
0001
0000
0010
0002
0003
0010
,
0000
0010
0001
0000
1000
0010
1000
0000
,
0100
1000
0100
0000
0100
2000
3000
0001
,
0000
1000
0001
0000
2002
0000
0000
3003
,
0001
0000
1000
0000
0001
0000
0001
0000
1000
0000
0001
0000
1000
0010
1000
0000
,
0001
0000
0010
0000
0001
0000
0001
0000
1000
0000
0100
0000
1000
0100
1000
0000
,
0001
0000
0010
0000
0001
0000
0001
0000
1000
0000
1000
0000
0001
0010
0001
0000
,
0000
1000
0100
1000
0100
1000
0000
0001
0100
0001
0100
0000
0002
0003
1000
0010
,
1000
0100
0010
0100
,
1000
0000
0010
0000
0000
0000
1000
0010
,
1000
0010
0100
0001
,
0001
0000
0100
0000
0000
0000
0001
1000
,
0000
0010
0100
0010
0000
0100
0001
1000
,
0000
0100
1000
0001
0000
0001
1000
0100
,
0000
0010
0100
1000
0000
0100
1000
0001
,
0000
0001
1000
0010
0000
1000
0010
0100
,
0001
1000
0001
1000
,
1001
0001
1000
0001
,
1001
1000
0001
1000
,
1001
0001
1000
0001
,
1001
1000
0001
1000
,
0010
0010
1000
0001
,
2002
0000
3003
0000
0001
0100
0001
0000
0000
0000
0001
0000
1000
0100
1000
0000
,
2002
3003
1000
0100
1000
0010
1000
0100
,
2020
0000
3030
0000
1000
0000
1000
0000
0000
0000
0100
0000
1000
0100
1000
0000
,
0002
0003
1000
0010
1000
0000
0001
0000
1000
0000
0001
0000
1000
0100
1000
0000
,
2002
3003
1000
0001
0000
0001
0000
1000
,
2000
3000
0100
0000
0010
0001
0000
0000
1000
0000
0000
0010
0000
0000
1000
0000
,
2002
0000
3003
0000
0000
1000
0000
0001
0000
1000
0100
0000
1000
0000
0000
2000
,
0000
3000
0000
0002
0000
0003
0000
2000
0000
3000
0000
0020
0000
0000
0030
0000
,
0000
1000
0000
0002
0003
0000
0002
0000
,
0003
1000
0010
2000
0000
0000
3000
0000
,
0000
0001
0000
2000
3000
0000
2000
0000
,
3000
0001
0100
0001
0000
0000
0000
0000
,
1000
0001
0000
0001
1000
0000
0010
1000
,
0002
0000
0000
0003
0001
1000
0000
1000
,
0001
0000
0100
0001
2000
0000
0000
3000
,
1000
0001
0000
0001
0000
0000
1000
0000
,
0000
2002
0000
0000
,
0000
0000
0000
0000
,
0000
3003
2000
0000
,
0000
0000
3000
0001
0100
0000
0000
0001
,
0000
0001
2000
0000
0000
0000
0000
0000
,
3000
0000
0000
0001
1000
0000
0000
1000
,
0002
0000
0000
0003
0001
0000
0000
0000
,
0100
0000
0000
0001
1000
0000
0000
1000
,
0000
1000
0001
0000
0000
0000
0000
0000
,
0002
0000
2003
0000
,
3002
0000
0000
0003
2002
0000
0000
0000
,
3003
0000
0000
0001
0100
0000
0000
0001
,
0000
1000
0020
0000
0000
0000
0030
2000
,
0000
0000
3000
0001
1000
0000
0000
1000
,
0000
0010
0200
0000
0000
0000
0300
0002
,
0000
0000
0003
1000
0010
0000
0000
1000
,
0000
0001
2000
0000
0000
0000
3000
0002
,
0000
0000
0203
0000
,
0000
0000
0000
0300
0020
0000
0000
0000
,
0000
0000
0030
1000
0001
0000
0000
1000
,
0000
0100
2000
0000
0000
0000
3000
0002
,
0000
0000
0003
1000
0001
0000
0000
0001
,
0000
1000
0002
0000
0000
0000
0003
1000
,
0000
0000
1000
0001
1000
0000
1000
0010
,
1000
0000
1000
0001
0000
1000
0000
0001
,
0000
0000
0001
1000
0001
0000
0001
0010
,
0001
0000
0001
1000
0002
0000
0003
1000
,
0010
0000
1000
0001
1000
0000
1000
0001
,
1000
0000
0010
0000
0100
0000
0100
0002
,
0000
0003
2000
0000
,
3002
0000
0003
0000
0000
1000
0000
0000
,
0001
0000
0000
1000
0000
0000
1001
0000
,
0000
0001
0000
0000
1000
0000
0000
0001
,
0000
0000
1001
0000
0000
1000
0000
0000
,
0001
0000
0000
1000
0000
0000
1001
0000
,
0000
0001
0000
0000
1000
0000
0000
0001
,
0000
0000
1001
0000
0000
0110
0000
0000
,
1001
0000
0000
0110
0000
0000
1001
0000
,
1000
0010
1000
0010
2000
0000
3000
0000
;

//--------------- dance-single - ----------------
#NOTES:
     dance-single:
     :
     Medium:
     13:
     0,0,0,0,0:
0000
0000
0000
0000
,
0000
0000
0000
0000
,
0000
0000
0000
0000
,
0000
0000
0000
0000
,
0000
0000
0000
0000
,
0000
0000
0000
0000
,
0000
0000
0000
0000
,
0000
0000
0000
0000
,
0000
0000
0000
0000
,
2002
0000
0000
0000
3003
0000
0000
0001
,
0100
1000
0000
1000
0000
1000
0200
0000
,
0000
0000
0000
0000
0300
0000
0000
0010
,
1000
0001
0000
0100
0000
0010
2000
0000
,
0000
0000
3000
0100
0010
0000
0001
1000
,
0001
0010
0001
0100
0001
0100
0001
1000
,
0000
0001
0010
0002
0000
0000
1003
0010
,
1000
0100
0010
0001
0010
0100
1000
0100
,
0010
0001
0010
0100
1000
0100
0010
0100
,
1000
0100
1000
0010
1000
0100
1000
0010
,
1000
0001
0010
0002
0000
0000
0000
0003
,
2000
0000
3002
0000
,
1003
0100
1000
0100
0010
0200
0300
1000
,
0000
0100
0010
0001
0010
0100
1000
0100
,
1000
0010
1000
0001
1000
0200
0300
1000
,
0000
0100
0010
0100
1000
0100
0010
0100
,
1000
0100
0010
0100
0010
0002
0003
0010
,
0000
0010
0001
0010
0001
0010
0001
0010
,
0100
1000
0100
1000
0100
2000
3000
0001
,
0000
1000
0001
1000
2002
0000
0000
3003
,
0001
0000
1000
0000
0001
0010
0001
0000
1000
0000
0001
0000
1000
0100
1000
0000
,
0001
0000
0010
0000
0001
0100
0001
0000
1000
0000
0100
0000
1000
0010
1000
0000
,
0001
0000
0010
0000
0001
0100
0001
0000
1000
0000
1000
0000
0010
0100
0001
0000
,
1000
0100
1000
0100
1000
0100
0000
0010
0001
0010
0001
0010
0002
0003
1000
0010
,
1000
0100
0010
0100
,
1000
0010
0100
0000
0000
0000
0001
0100
,
0001
0100
0010
1000
,
0001
0010
0100
0000
0000
0000
0100
1000
,
0000
1000
0100
0010
0001
0100
0001
1000
,
0000
0100
1000
0001
0000
0001
1000
0100
,
0010
0001
0010
0100
1000
0100
1000
0001
,
0000
0001
1000
0010
0000
1000
0010
0100
,
0001
1000
0101
0001
,
1001
0010
1010
0100
,
0110
0001
0101
1000
,
0101
0100
0110
0001
,
1001
0000
1000
0001
1000
0001
1000
0100
,
0010
0001
0010
0100
1000
0100
0010
0001
,
2002
0000
3003
0000
0001
0100
1000
0000
1000
0000
1000
0000
1000
0100
0001
0000
,
2002
3003
1000
0100
1000
0010
1000
0100
,
2020
0000
3030
0000
1000
0000
1000
0000
0000
0000
0100
0000
1000
0100
1000
0000
,
0002
0003
0010
0100
1000
0000
0001
0000
1000
0000
0100
0000
1000
0010
1000
0000
,
2002
0000
3003
0000
1000
0100
0010
0000
0000
0000
0001
0000
0000
0000
1000
0000
,
2000
3000
0100
0000
0010
0001
0000
0000
1000
0000
0010
0100
0000
0000
0001
0000
,
2002
0000
3003
0000
0000
1000
1000
0100
0010
0001
0001
0000
0100
0000
0010
2000
,
0000
3000
0000
0002
0000
0003
0000
2000
0000
3000
0000
0020
0000
0000
0030
0000
,
0000
1000
1000
0001
0001
0000
0010
0200
,
0300
1000
0010
2000
0000
0000
3000
0000
,
0000
0001
0001
1000
1000
0000
0100
0010
,
0000
0001
0100
0001
0000
0000
0000
0000
,
1000
0001
0000
0001
1000
0000
0010
1000
,
0001
0000
0010
0000
0001
0000
0010
0000
0001
0000
0010
0000
0001
0000
0000
1000
0000
0000
0000
0000
0000
1000
0000
0000
,
0001
0000
0000
0000
0000
0000
0100
0000
0000
0001
0000
0000
1000
0000
0010
0000
1000
0000
0010
0000
1000
0000
0010
0000
,
1000
0001
0000
0001
0100
0000
1000
0100
,
0000
0001
2002
0000
0000
0000
0000
0000
,
0000
0000
0000
0000
,
0000
3003
2000
0000
,
0000
0000
3000
0001
0100
0001
0000
1000
,
0000
0001
2000
0000
0000
0000
0000
0000
,
3000
0000
0000
0001
0010
0001
0000
0100
,
0001
0100
0001
0100
0001
0100
0001
0000
0000
0000
0000
0000
,
0100
0000
0000
0001
1000
0100
0000
1000
,
0000
1000
0001
0000
0000
0000
0000
0000
,
0002
0000
2003
0000
,
3002
0000
0000
0003
2002
0000
0000
0000
,
3003
0000
0000
0001
0100
0001
0000
0001
,
0000
1000
0020
0000
0000
0000
0030
2000
,
0000
0000
3000
0001
0100
0001
0000
1000
,
0000
0010
0200
0000
0000
0000
0300
0002
,
0000
0000
0003
1000
0010
1000
0000
1000
,
0000
0001
2000
0000
0000
0000
3000
0002
,
0000
0000
0203
0000
,
0000
0000
0000
0300
0020
0000
0000
0000
,
0000
0000
0030
1000
0001
1000
0000
1000
,
0000
0100
2000
0000
0000
0000
3000
0002
,
0000
0000
0003
1000
0001
1000
0000
0100
,
0000
0010
0002
0000
0000
0000
0003
1000
,
0010
0000
1000
0001
1000
0010
1000
0001
,
1000
0010
1000
0001
0000
1000
0010
0100
,
0000
0000
0001
1000
0001
0010
0001
1000
,
0001
0010
0001
1000
0002
0000
0003
1000
,
0010
0000
1000
0001
0010
0100
1000
0001
,
1000
0100
0010
0001
0100
0001
0100
0002
,
0000
0003
2000
0000
,
3002
0000
0003
0000
0000
1000
0000
0000
,
0101
0000
0000
0001
0000
0000
1001
0000
,
0000
0010
0000
0000
1010
0000
0000
0100
,
0000
0000
0110
0000
0000
0001
0000
0000
,
0101
0000
0000
1000
0000
0000
0101
0000
,
0000
0100
0000
0000
0110
0000
0000
0001
,
0000
0000
0101
0000
0000
0011
0000
0000
,
1001
0000
0000
0110
0000
0000
1001
0000
,
1000
0010
1000
0010
2000
0000
3000
0000
;

//--------------- dance-single - ----------------
#NOTES:
     dance-single:
     :
     Hard:
     16:
     0,0,0,0,0:
0000
0000
0000
0000
,
0000
0000
0000
0000
,
0000
0000
0000
0000
,
0000
0000
0000
0000
,
0000
0000
0000
0000
,
0000
0000
0000
0000
,
0000
0000
0000
0000
,
0000
0000
0000
0000
,
0000
0000
0000
0000
,
2002
0000
0000
0000
0000
0000
0000
0000
3003
0000
0000
0000
0000
0000
0001
0010
,
0100
1000
0000
1000
0000
0001
0200
0000
,
0000
0000
0000
0000
0000
0000
0000
0000
0300
0000
0000
0000
0000
0000
0010
0100
,
0001
0100
0000
0100
0000
0010
2000
0000
,
0000
0000
3000
1000
0001
0000
0001
1000
,
0001
0000
0010
0000
0001
0100
0001
0100
0001
0000
0100
0000
0001
0000
0001
0000
,
0010
0100
0010
0002
0000
0000
1003
0010
,
1000
0000
0100
1000
0100
0000
0010
0000
0010
0000
0100
0000
1000
0000
0100
0000
,
0010
0010
0001
0001
0010
0010
0100
0100
,
1000
0010
1000
0010
1000
0010
1000
0010
1000
0010
1000
0010
1000
0010
1000
0010
,
1000
0001
0010
0002
0000
0000
0000
0003
,
2000
0000
3002
0000
,
1003
0100
1000
0100
0010
0200
0300
1000
,
1000
0100
0010
0001
0010
0100
1000
0100
,
1000
0010
1000
0001
1000
0200
0300
1000
,
1000
0100
0010
0100
1000
0100
0010
0100
,
1000
0100
0010
0100
0010
0002
0003
0010
,
0001
0100
1000
0100
0001
0010
0001
0010
,
0100
1000
0100
1000
0100
2000
3000
0001
,
0010
0100
1000
0001
2002
0000
0000
3003
,
0001
0000
1000
0000
0001
0010
0001
0000
1000
0000
0001
0000
1000
0100
1000
0000
,
0001
0000
0010
0000
0001
0100
0001
0000
1000
0000
0100
0000
1000
0010
1000
0000
,
0001
0000
0010
0000
0001
0100
1000
0000
1000
0000
1000
0000
1000
0100
0001
0000
,
0010
0100
1000
0100
1000
0100
1000
0100
0010
0001
0010
0001
0020
0030
0001
0100
,
0001
0010
0100
1000
,
1000
0010
0100
0000
0000
0000
0001
0100
,
0001
0100
0010
1000
,
0001
0010
0100
0000
0000
0000
0100
1000
,
0100
0000
1000
0000
0100
0000
0010
0000
0001
0000
0100
0000
0001
0010
0001
0000
,
0010
0000
0100
0000
1000
0000
1000
0000
0001
0100
0001
0000
1000
0100
1000
0000
,
0100
0000
0010
0000
0001
0000
0001
0000
0010
0100
1000
0000
0100
0010
0001
0000
,
0001
0100
0001
0000
1000
0000
0010
0000
0000
0000
1000
0100
1000
0100
1000
0100
,
1000
1001
0101
1100
,
1001
0110
1010
0101
,
0110
1001
0101
1010
,
0101
1100
0110
1001
,
1001
1000
0100
0010
0100
0010
0001
0010
,
0010
0100
0100
1000
1000
0010
0100
0001
,
2002
0000
3003
0000
0001
0100
1000
0000
1000
0000
1000
0000
1000
0100
0001
0000
,
2002
0000
3003
0000
1000
0010
0001
0000
0001
0000
0001
0000
0001
0010
1000
0000
,
2020
0000
3030
0000
1000
0010
0100
0001
0000
0000
0010
0000
0100
0010
0001
0000
,
0002
0003
0010
0100
1000
0000
0001
0000
1000
0000
0100
0000
1000
0010
1000
0000
,
2002
0000
3003
0000
1000
0100
0010
0010
0000
0001
0001
0000
0100
0100
0010
0000
,
2000
3000
0100
0100
0010
0001
0001
0100
1000
1000
0100
0000
0010
0000
1000
0000
,
2002
0000
0000
0000
3003
0000
0000
0000
0000
0000
1000
0000
1000
0000
0100
0000
0010
0000
0001
0100
0001
0000
0000
0000
0100
0000
0000
0000
0010
0000
2000
0000
,
0000
3000
0000
0002
0000
0003
0000
2000
0000
3000
0000
0020
0000
0000
0030
0000
,
0000
0000
1000
0100
1000
0000
0001
0000
0001
0000
0000
0000
0010
0000
0200
0000
,
0300
1000
0010
2000
0000
0000
3000
0000
,
0000
0000
0001
0010
0001
0000
1000
0000
1000
0000
0000
0000
0100
0000
0010
0000
,
0000
0001
0100
0001
0000
0000
0000
0000
,
1000
0001
0000
0001
1000
0000
0010
1000
,
0001
0000
0010
0000
0001
0000
0010
0000
0001
0000
0010
0000
0001
0000
0000
1000
0000
0000
0000
0000
0000
1000
0000
0000
,
0001
0000
0000
0000
0000
0000
0100
0000
0000
0001
0000
0000
1000
0000
0010
0000
1000
0000
0010
0000
1000
0000
0010
0000
,
1000
0001
0000
0001
0100
0000
1000
0100
,
0000
0001
2002
0000
0000
0000
0000
0000
,
0000
0000
0000
0000
,
0000
3003
2000
0000
,
0000
0000
0000
0000
3000
0000
0001
0010
0001
0000
1000
0000
0000
0000
1000
0000
,
0000
1000
0020
0000
0000
0000
0000
0000
,
0000
0000
0000
0000
0030
0000
1000
0100
1000
0000
0001
0000
0000
0000
0010
0000
,
0001
0100
0001
0100
0001
0100
0001
0000
0000
0000
0000
0000
,
0100
0000
0000
0000
0000
0000
0010
0100
1000
0000
1000
0000
0000
0000
0100
0000
,
0000
0100
0001
0000
0000
0000
0000
0000
,
0002
0000
2003
0000
,
3002
0000
0000
0003
2002
0000
0000
0000
,
3003
0000
0000
0000
0000
0000
1000
0010
0100
0000
0001
0000
0000
0000
0001
0000
,
0000
1000
0020
0000
0000
0000
0030
2000
,
0000
0000
0000
0000
3000
0000
1000
0010
0100
0000
0001
0000
0000
0000
1000
0000
,
0000
0010
0200
0000
0000
0000
0300
0002
,
0000
0000
0000
0000
0003
0000
0001
0010
0100
0000
1000
0000
0000
0000
1000
0000
,
0000
0001
2000
0000
0000
0000
3000
0002
,
0000
0000
0203
0000
,
0000
0000
0000
0300
0020
0000
0000
0000
,
0000
0000
0000
0000
0030
0000
1000
0100
0001
0000
0001
0000
0000
0000
0001
0000
,
0000
0000
0100
0000
2000
0000
0000
0000
0000
0000
0000
0000
3000
0000
0001
0100
,
0001
0100
0001
0100
0001
1000
0001
1000
0001
0000
1000
0000
0000
0000
0100
0000
,
0000
0000
0010
0000
0002
0000
0000
0000
0000
0000
0000
0000
0003
0000
0010
0100
,
1000
0000
0000
0000
1000
0000
0100
0000
1000
0000
0001
0100
0001
0000
1000
0000
,
0100
1000
0010
2000
3000
0001
0010
0100
,
0000
0000
0000
0000
1000
0000
0100
0000
0100
0000
1000
0100
1000
0000
0100
0000
,
0010
0000
0100
0000
0001
0000
0100
0000
0020
0000
0000
0000
0030
0000
0010
0100
,
1000
0000
0000
0000
1000
0000
0001
0000
0001
0000
0100
1000
0100
0000
0001
0000
,
1000
0001
0001
1000
0010
0100
1000
0200
,
0000
0000
0300
0001
0002
0000
0000
0000
,
0023
0000
0000
0030
0000
1001
0000
0000
,
0101
0000
0000
1100
0000
0000
1001
0000
,
0000
0110
0000
0000
1010
0000
0000
0110
,
0000
0000
1001
0000
0000
0101
0000
0000
,
1010
0000
0000
0101
0000
0000
1100
0000
,
0000
0110
0000
0000
1100
0000
0000
0101
,
0000
0000
1010
0000
0000
0011
0000
0000
,
1001
0000
0000
0110
0000
0000
1001
0000
,
1000
1001
0001
1000
2002
0000
3003
0000
;

//--------------- dance-single - ----------------
#NOTES:
     dance-single:
     :
     Challenge:
     18:
     0,0,0,0,0:
0000
0000
0000
0000
,
0000
0000
0000
0000
,
0000
0000
0000
0000
,
0000
0000
0000
0000
,
0000
0000
0000
0000
,
0000
0000
0000
0000
,
0000
0000
0000
0000
,
0000
0000
0000
0000
,
0000
0000
0000
0000
,
2002
0000
0000
0000
0000
0000
0000
0000
3003
0000
0000
0000
0000
0000
0001
0010
,
0100
1000
0000
1000
0000
0001
0200
0000
,
0000
0000
0000
0000
0000
0000
0000
0000
0300
0000
0000
0000
0000
0000
0010
0100
,
0001
0100
0000
0100
0000
0010
2000
0000
,
0000
0000
0000
0000
3000
0000
0100
0010
0001
0000
0000
0000
0001
0100
1000
0100
,
0001
0010
0001
0010
0001
0100
0001
0100
0001
0000
0100
0000
0001
0000
0001
0000
,
0010
0000
0100
0000
0010
0000
0002
0000
0000
0000
0000
0000
0013
0100
1000
0100
,
0010
0000
0100
1000
0100
0000
0010
0001
0010
0000
0100
0010
0100
0000
0100
0000
,
0010
0001
0010
0000
0100
1000
0100
0000
0010
0001
0010
0000
0100
1000
0100
0000
,
0010
0001
0100
0010
0100
1000
0100
0010
0100
0010
1000
0010
0100
0010
0100
1000
,
0100
0001
0001
0001
0010
0010
0100
0100
,
2000
0000
3002
0000
,
1003
0100
1000
0100
0010
0200
0300
1000
,
1000
0100
0010
0001
0100
0001
0010
0001
,
1000
0010
1000
0001
1000
0200
0300
1000
,
1000
0010
0001
0010
1000
0100
0010
0100
,
1000
0100
0010
0100
0010
0002
0003
0100
,
0100
0010
0001
0010
0100
0010
0100
1000
,
0000
0100
0010
1000
0100
2000
3000
0001
,
0001
0000
0010
0000
0100
1000
0100
0000
2002
0000
0000
0000
0000
0000
3003
0000
,
0001
0000
0000
0000
1000
0000
0000
0000
0001
0000
0010
0000
0100
0000
0000
0000
1000
0000
0000
0000
0001
0000
0000
0000
1000
0000
0100
0010
0001
0000
0000
0000
,
0001
0000
0010
0000
0001
0100
0001
0000
1000
0000
0100
0000
1000
0010
1000
0000
,
0001
0000
0010
0000
0001
0100
1000
0000
1000
0000
1000
0000
1000
0100
0001
0000
,
0001
0000
0010
0000
0100
0000
1000
0000
0100
0000
0010
0000
0100
0000
1000
0000
0100
0000
0010
0000
0100
0000
0010
0000
0100
0010
0100
0010
0001
0010
0001
0010
,
0001
0010
0100
1000
,
1000
0010
0100
0000
0000
0000
0001
0010
,
0100
0100
0010
0001
,
0001
0010
0100
0000
0000
0000
0100
1000
,
0100
0000
1000
0000
0100
0000
0010
0000
0001
0010
0100
0000
1000
0100
1000
0000
,
0100
0010
0100
0000
1000
0100
1000
0000
0001
0100
0001
0000
0010
0100
0010
0000
,
0001
0010
0100
0000
1000
0100
1000
0000
0010
0100
1000
0000
0100
0001
0010
0000
,
0001
0100
0001
0000
1000
0100
0010
0000
0000
0000
0001
0010
0001
0010
0100
1000
,
0100
1001
0101
1100
,
1001
0110
1010
0101
,
0110
1001
0101
1010
,
0101
1100
0110
1001
,
1001
1000
0100
0010
0100
0010
0001
0010
,
0010
0100
0100
1000
1000
0010
0100
0001
,
2002
0000
3003
0000
0001
0100
1000
0000
1000
0000
1000
0000
1000
0100
0001
0000
,
2002
0000
3003
0000
1000
0010
0001
0000
0001
0000
0001
0000
0001
0010
1000
0000
,
2020
0000
3030
0000
1000
0100
0010
0010
0000
0000
0010
0000
0100
0010
0001
0000
,
0002
0003
0010
0100
1000
0000
0001
0000
1000
0000
0100
0000
1000
0010
1000
0000
,
2002
0000
0000
0000
3003
0000
0000
0000
1000
0000
0100
0000
0001
0100
0001
0000
0100
0000
1000
0100
1000
0000
0010
0000
0100
0000
0100
0000
0010
0000
0000
0000
,
2000
0000
3000
0000
0100
1000
0100
0000
0010
0000
0001
0100
0001
0000
0100
0000
1000
0000
1000
0000
0100
0000
0000
0000
0010
0000
0000
0000
1000
0000
0000
0000
,
2002
0000
0000
0000
3003
0000
0000
0000
0000
0000
1000
0000
1000
0000
0100
0000
0010
0000
0001
0100
0001
0000
0000
0000
0100
0000
0000
0000
0010
0000
2000
0000
,
0000
3000
0000
0002
0000
0003
0000
2000
0000
3000
0000
0020
0000
0000
0030
0000
,
0000
0000
1000
0100
1000
0000
0001
0000
0001
0000
0000
0000
0010
0000
0200
0000
,
0300
1000
0010
2000
0000
0000
3000
0000
,
0000
0000
0001
0010
0001
0000
1000
0000
1000
0000
0000
0000
0100
0000
0010
0000
,
0000
0001
0100
0001
0000
0000
0000
0000
,
1000
1001
0000
0001
1001
0000
1000
1001
,
0001
0000
0010
0000
0100
0000
1000
0000
0100
0000
0010
0000
0001
0000
0000
1001
0000
0000
0000
0000
0000
1000
0000
0000
,
1001
0000
0000
0000
0000
0000
0001
0000
0000
1001
0000
0000
1000
0000
0100
0000
0010
0000
0001
0000
0010
0000
0100
0000
,
1000
1100
0000
0001
0101
0000
1000
1100
,
0000
0000
0001
0000
1000
0100
0010
0001
1000
0100
0010
0001
1000
0100
0010
0001
,
1000
0100
0010
0001
1000
0010
0100
0001
1000
0010
0100
0001
1000
0010
0100
0001
,
1000
0100
1000
0100
1000
0010
1000
0010
2000
0000
0000
0000
0000
0000
0000
0000
,
0000
0000
0000
0000
3000
0000
0001
0010
0001
0000
1000
0000
0000
0000
1000
0000
,
0000
1000
0020
0000
0000
0000
0000
0000
,
0000
0000
0000
0000
0030
0000
1000
0100
1000
0000
0001
0000
0000
0000
0010
0000
,
0001
0100
0001
0010
0001
0100
0010
0000
0000
0000
0000
0000
,
1000
0000
0000
0000
0000
0000
0010
0100
1000
0000
1000
0000
0000
0000
0100
0000
,
0000
0000
0000
0100
0000
0000
0001
0000
0000
0000
0000
0000
0000
0000
0000
0000
0000
0000
0000
0000
0000
0010
0001
0010
,
0002
0000
2003
0000
,
3020
0000
0000
0030
2002
0000
0000
0000
,
3003
0000
0000
0000
0000
0000
1000
0010
0100
0000
0001
0000
0000
0000
0001
0000
,
0000
0000
1000
0000
0020
0000
0000
0000
0000
0000
0000
0000
0030
0000
1000
0010
,
1000
0010
1000
0010
1000
0100
1000
0100
0010
0000
0001
0000
0000
0000
1000
0000
,
0000
0000
0010
0000
0200
0000
0000
0000
0000
0000
0000
0000
0300
0000
0001
0100
,
0001
0100
0001
0100
0001
0010
0001
0010
0100
0000
1000
0000
0000
0000
1000
0000
,
0000
0000
0001
0000
2000
0000
0000
0000
0000
0000
0000
0000
3000
0000
0001
1000
,
0001
1000
0001
1000
0001
1000
0001
1000
0010
0100
0010
0100
0010
0100
0010
0100
,
0010
0100
0010
0100
0010
0100
0010
0100
0020
0000
0000
0000
0000
0000
0000
0000
,
0000
0000
0000
0000
0030
0000
1000
0100
0001
0000
0001
0000
0000
0000
0001
0000
,
0000
0000
0100
0000
2000
0000
0000
0000
0000
0000
0000
0000
3000
0000
0001
0100
,
1000
0100
0001
0010
0100
1000
0001
1000
0001
0000
1000
0000
0000
0000
0100
0000
,
0000
0000
0010
0000
0002
0000
0000
0000
0000
0000
0000
0000
0003
0000
0010
0100
,
1000
0000
0000
0000
1000
0100
1000
0100
1000
0000
0001
0100
0001
0000
1000
0000
,
0100
1000
0010
2000
3000
0001
0010
0100
,
0000
0000
0000
0000
1000
0100
0010
0001
0100
0000
1000
0100
1000
0000
0100
0000
,
0010
0000
0100
0000
0001
0000
0100
0000
0020
0000
0000
0000
0030
0000
0010
0100
,
1000
0000
0000
0000
1000
0100
0001
0010
0001
0000
0100
1000
0100
0000
0001
0000
,
1000
0001
0001
1000
0010
0100
1000
0200
,
0000
0000
0000
0000
0300
0000
0001
0100
0002
0000
0000
0000
0000
0000
0000
0000
,
0023
0000
0000
0030
0001
1001
0000
1000
,
0101
0000
0001
1100
0000
1000
1001
0000
,
1000
0110
0000
0010
1010
0000
1000
0110
,
0000
0001
1001
0000
1000
0101
0000
0001
,
1010
0000
0100
0101
0000
0001
1100
0000
,
0001
0110
0000
1000
1001
0000
0100
1001
,
0000
0010
1001
0000
0001
1001
0000
0001
,
1001
0000
0010
1001
0000
0100
1001
0000
,
1000
1001
0001
1001
2002
0000
3003
0000
;
