#TITLE:The Kingsroad;
#SUBTITLE:;
#ARTIST:RINZO;
#TITLETRANSLIT:;
#SUBTITLETRANSLIT:;
#ARTISTTRANSLIT:;
#GENRE:;
#CREDIT:;
#MUSIC:The Kingsroad.mp3;
#BANNER:The Kingsroad.png;
#BACKGROUND:;
#CDTITLE:;
#SAMPLESTART:59.443;
#SAMPLELENGTH:15.000;
#SELECTABLE:YES;
#OFFSET:-0.257;
#BPMS:0.000=150.000
,116.000=75.000
,120.000=150.000
,128.000=75.000
,132.000=150.000
,172.000=75.000
,188.000=150.000
;
#STOPS:;
#BGCHANGES:;
#FGCHANGES:;

//--------------- dance-single - ----------------
#NOTES:
     dance-single:
     :
     Beginner:
     4:
     0,0,0,0,0:
0000
0000
0000
0000
,
0000
0000
0000
0000
,
0000
0000
0000
0000
,
0000
0000
0000
0000
,
0000
0000
0000
0000
,
2000
0000
3000
0000
,
2000
0000
3000
0000
,
0002
0000
0003
0000
,
0002
0000
0003
0000
,
1000
1000
0000
1000
,
0001
0000
0001
0000
0000
1000
0000
0000
,
0010
0010
0000
0010
,
0200
0000
0000
0000
0000
0000
0000
0300
0000
0000
0000
0000
0002
0000
0003
0000
,
0010
0000
0001
0001
,
0001
0000
1000
1000
,
1000
0000
1000
0000
,
1000
1000
0001
0001
,
1000
0000
1000
1000
,
1000
0000
0001
0001
,
0001
0000
0000
0001
0000
0000
0000
0000
,
0010
0000
0100
0000
,
1000
1000
0000
0001
,
0001
0001
0000
1000
,
1000
1000
0000
0100
,
0100
0000
0000
0000
0010
0000
0002
0003
,
0200
0000
0000
0300
0000
0000
0000
0000
0100
0000
0000
0000
0000
0000
0000
0000
,
0020
0000
0000
0030
0000
0000
0000
0000
1000
0000
0000
0000
0000
0000
0000
0000
,
0020
0000
0000
0030
0000
0000
0000
0000
0010
0000
0000
0000
0000
0000
0000
0000
,
1000
1000
1000
1000
,
0001
0001
0001
0001
,
1000
0000
0000
0000
0000
0000
0000
0000
0002
0000
0000
0000
0000
0000
0000
0003
,
2000
0000
0000
0000
0000
0000
0000
3000
0000
0000
0000
0000
0000
0000
0000
0000
,
1000
1000
1000
1000
,
0010
0000
1000
0000
,
2002
0000
3003
0000
,
0001
0001
1000
0000
,
0100
1000
1000
0000
,
1000
1000
0001
0000
,
0010
0001
0001
0000
,
2002
3003
1000
1000
,
1000
0000
0001
0001
,
1000
1000
1000
1000
,
0001
0000
1000
0000
,
2002
3003
0001
0000
0001
0000
0001
0000
,
1000
0010
0010
0100
,
0001
0100
0100
0010
,
1000
0100
1000
0100
,
1000
1000
1000
0000
,
0001
0001
0001
0000
,
0010
0010
0010
0000
,
0100
0100
0100
0000
,
1000
0000
0001
0000
,
1000
0001
1000
0000
;

//--------------- dance-single - ----------------
#NOTES:
     dance-single:
     :
     Easy:
     7:
     0,0,0,0,0:
0000
0000
0000
0000
,
0000
0000
0000
0000
,
0000
0000
0000
0000
,
0000
0000
0000
0000
,
0000
0000
0000
0000
,
2000
0000
3000
0000
,
2000
0000
3000
0000
,
0002
0000
0003
0000
,
0002
0000
0003
0000
,
1000
0100
1000
0000
0000
0000
1000
0000
,
0001
0010
0001
0000
0000
1000
0000
0100
,
0000
0000
0010
0000
0000
0010
0001
0000
,
0100
0000
0100
0000
0001
0000
0002
0003
,
0001
0100
0100
1000
,
0100
0000
0100
0000
0001
0010
0001
0000
,
0001
1000
1000
0010
,
1000
0001
1000
0000
0001
0000
0001
0000
,
1000
0010
0010
1000
,
1000
0000
0001
0000
0001
0010
0001
0000
,
0001
0000
0000
0001
0000
0001
0000
0100
,
0010
0100
0100
0001
,
1000
0100
1000
0000
0100
0000
1000
0000
,
0100
0010
0100
0000
1000
0000
1000
0000
,
0100
0010
0100
0000
1000
0000
0001
0000
,
0001
0010
0001
0000
0010
0000
0002
0003
,
0100
0010
0100
0000
0100
0000
0010
0000
,
0010
0100
0010
0000
1000
0000
0100
0000
,
0010
0001
0010
0000
0100
0000
1000
0000
,
1000
0010
1000
0000
1000
0010
1000
0000
,
0001
0000
0000
0000
0100
0000
0000
1000
0000
0000
0100
0000
0001
0000
0001
0000
,
1000
0000
0000
0000
1000
0000
0000
0000
0002
0000
0000
0000
0000
0000
0000
0003
,
2000
0000
0000
0000
0000
0000
0000
3000
0000
0000
0000
0000
0000
0000
0000
0000
,
1000
0000
0000
0000
0100
0000
0000
0001
0000
0000
0100
0000
1000
0000
1000
0000
,
0010
0010
1000
1000
,
2002
0000
3003
0000
,
0001
0010
0001
0000
1000
0000
1000
0000
,
0100
0000
1000
0100
1000
0000
0010
0000
,
0100
0010
0100
0000
0001
0000
1000
0000
,
1000
0000
0001
0010
0001
0000
1000
0000
,
2002
3003
0010
0010
,
1000
0000
1000
0100
1000
0000
0010
0000
,
1000
0100
1000
0000
1000
0010
1000
0000
,
0001
0010
0001
0000
1000
0010
1000
0000
,
2002
0000
3003
0000
0010
0000
0000
0001
0000
0010
0000
0000
0010
0000
0100
0000
,
1000
0000
0010
0100
0010
1000
0100
0010
,
0001
0000
0000
0000
0100
0000
0000
0100
0000
0001
0000
0000
0010
0000
0001
0000
,
1000
0000
0100
0100
1000
0100
0100
1000
,
0001
0010
0001
0000
0100
0000
0001
0000
,
1000
0000
1000
0100
1000
0000
0100
0000
,
0010
0001
0010
0000
0100
0000
1000
0100
,
1000
0100
0100
0100
,
1000
0001
1000
0000
0001
0000
0001
0000
,
1000
0001
1000
0000
;

//--------------- dance-single - ----------------
#NOTES:
     dance-single:
     :
     Medium:
     11:
     0,0,0,0,0:
0000
0000
0000
0000
,
0000
0000
0000
0000
,
0000
0000
0000
0000
,
0000
0000
0000
0000
,
0000
0000
0000
0000
,
2000
0000
3000
0000
,
2000
0000
3000
0000
,
0002
0000
0003
0000
,
0002
0000
0003
0000
,
1000
0000
0100
0000
1000
0000
0000
0100
0000
0100
0010
0000
0001
0000
0100
0000
,
0010
0000
1000
0000
0001
0000
0000
1000
0100
0000
1000
0000
0000
0000
0100
0010
,
0000
0000
0100
0000
0010
0000
0000
0010
0000
0100
0010
0000
0001
0000
1000
0000
,
0100
1000
0010
0100
0001
0010
0002
0003
,
0001
0010
0100
0000
0100
0100
1000
0000
,
0100
0010
0100
0000
0001
0001
0100
0000
,
0010
0100
1000
0000
1000
1000
0010
0000
,
1000
0001
1000
0000
0001
1000
0001
0000
,
1000
0100
0010
0000
0010
0100
1000
0000
,
0010
1000
0001
0000
0001
0010
0001
0000
,
0001
0000
0000
0100
0000
0000
0001
0000
0000
0000
0001
0000
0010
0000
0100
0000
,
0010
0000
0001
0000
0100
0000
0001
0000
0100
0000
0001
1000
0001
0000
0000
0000
,
1000
0000
0100
0000
1000
0000
0000
0100
0000
0010
0000
0000
0100
0000
1000
0000
,
0100
0000
0010
0000
0100
0000
0000
0100
0000
1000
0000
0000
1000
0000
0100
0000
,
0010
0000
0001
0000
0010
0000
0000
0100
0000
0010
0000
0000
0001
0000
0010
0000
,
0001
0000
0010
0000
0100
0000
0000
0010
0000
0100
0000
0010
0002
0000
0003
0000
,
0100
0000
0010
0000
0100
0000
0000
0001
0000
0100
0000
0000
0010
0000
1000
0000
,
0010
0000
0100
0000
0010
0000
0000
0010
0000
1000
0000
0000
0100
0000
0010
0000
,
0100
0000
0010
0000
0001
0000
0000
1000
0000
0100
0000
0000
1000
0000
0100
0000
,
1000
0010
1000
0100
1000
0010
1000
0000
,
0001
0000
0000
1000
0010
0000
0000
1000
0000
0100
0010
0000
0001
0010
0001
0000
,
1000
0000
0000
0100
0000
0000
0010
0000
0002
0000
0000
0000
0000
0000
0000
0003
,
2000
0000
0000
0000
0000
0000
0000
3000
0000
0000
0000
0000
1000
0000
0000
0000
,
1000
0000
0000
0001
0100
0000
0000
0001
0000
0010
0100
0000
1000
0100
1000
0000
,
0010
0100
0010
1000
,
2002
0000
3003
0000
,
0001
0010
0001
0010
0001
0000
1000
0100
,
0010
0000
0001
0010
0100
1000
0100
1000
,
0001
0100
0001
0100
0001
0000
1000
0100
,
1000
0000
0001
0010
0100
0010
0001
0000
,
2002
0000
3003
0001
0010
0000
0010
0100
,
1000
0000
1000
0100
0010
0001
0010
0001
,
0010
0100
1000
0100
1000
0010
1000
0100
,
1000
0100
0001
0100
1000
0010
1000
0000
,
2002
0000
3003
1000
0100
0000
0010
0001
0000
0010
0000
0001
0010
0100
1000
0000
,
1000
0000
0000
0010
0100
0000
0010
0000
1000
0010
1000
0000
0010
0100
0010
0000
,
1000
0000
0000
0010
0100
0000
0001
0100
0000
0001
0000
0001
0010
0001
1000
0000
,
1000
0000
0000
0001
0100
0000
0100
0000
0001
0010
0001
0000
0001
0100
0001
0000
,
1000
0100
1000
0000
0100
0000
0001
0100
,
1000
0000
1000
0100
0010
0001
0010
0100
,
0010
0001
0010
0000
0100
0000
1000
0100
,
1000
0000
0100
0010
0100
1000
0100
0000
,
1000
0001
1000
0000
0001
1000
0001
0000
,
1000
0100
0001
0100
1000
0000
0000
0000
;

//--------------- dance-single - ----------------
#NOTES:
     dance-single:
     :
     Hard:
     15:
     0,0,0,0,0:
0000
0000
0000
0000
,
0000
0000
0000
0000
,
0000
0000
0000
0000
,
0000
0000
0000
0000
,
0000
0000
0000
0000
,
1000
0100
0010
0001
,
1000
0100
0010
0001
,
0001
0100
1000
0100
,
0002
0000
0000
0000
0000
0000
0000
0003
0000
0000
0000
0000
0000
0000
0000
0000
,
1000
0000
1000
0000
0100
0000
0000
0010
0000
0001
0010
0001
0010
0000
0100
1000
,
0010
0000
0010
0000
1000
0000
0100
1000
0100
0000
1000
0000
0000
0000
0100
0010
,
0100
0000
0100
0000
0010
0000
0000
0010
0000
0001
0010
0100
1000
0000
1000
0000
,
0100
1000
0100
1000
0010
0100
0010
0100
0001
0010
0001
0010
0002
0000
0003
0000
,
0001
0000
0010
0000
0100
0000
0000
1000
0100
0000
0100
0000
1000
0000
0100
1000
,
0100
0000
0010
0000
0100
0000
0000
0100
0001
0000
0001
0000
0100
0000
0010
0100
,
0010
0000
0100
0000
1000
0000
0000
0010
1000
0000
1000
0000
0010
0000
1000
0100
,
1000
0000
0001
0010
0001
0010
0001
0010
0001
0100
0001
0100
0001
0000
0000
0000
,
1000
0000
0100
0000
0010
0000
0000
0001
0010
0000
0100
0000
1000
0000
0010
1000
,
0010
0000
1000
0000
0001
0000
0000
0010
0001
0000
0010
0000
0001
0000
0100
0000
,
1001
0000
0000
0110
0000
0000
1001
0000
0000
0000
0001
0000
0010
0100
0010
0100
,
0010
0000
0001
1000
0001
1000
0001
1000
0001
1000
0001
1000
0001
0000
0000
0000
,
1000
0000
0100
0000
1000
0000
0100
0010
0000
0010
0000
0100
0010
0000
0010
0000
,
0100
0000
0010
0000
0010
0000
0100
1000
0000
1000
0000
0010
1000
0000
1000
0000
,
0001
0000
0010
0000
0001
0000
0010
0100
0000
0100
0000
0010
0100
0000
0100
0000
,
0010
0000
0100
0000
0100
0000
0010
0001
0000
0001
0000
0100
0002
0000
0003
0000
,
0100
0000
0010
0000
0100
0000
0010
0100
0000
0001
0000
0100
0010
0000
1000
0000
,
0010
0000
0100
0000
0010
0000
0100
0010
0000
1000
0000
0100
0010
0000
0001
0000
,
0010
0000
0100
0000
1000
0000
0100
1000
0000
1000
0000
0010
0100
0000
0001
0000
,
1000
0010
1000
0010
1000
0000
0001
0000
1000
0100
1000
0100
1000
0000
0000
0000
,
0001
0000
0000
0000
0000
0000
1000
0100
0010
0000
0000
0000
0000
0000
0010
0000
0000
0000
0010
0000
0100
0000
0000
1000
0100
0000
0100
0000
1000
0000
0000
0000
,
0001
0000
0000
0010
0100
0000
1000
0000
0001
0010
0001
0010
0001
0010
0001
0010
,
0001
0100
0001
0100
0001
0100
0001
0100
0001
0000
0000
0000
1000
0000
0000
0000
,
1000
0000
0000
0000
0000
0000
0001
0010
0100
0000
0000
0000
0000
0000
0100
0000
0000
0000
0100
0000
0010
0000
0000
0001
0100
0000
0100
0000
0001
0000
0000
0000
,
0010
0100
0010
0001
,
2002
0000
3003
0000
,
0001
0010
0100
1000
1000
0000
1000
0100
,
0010
0000
0001
0010
0100
1000
0100
1000
,
0001
0010
0001
0010
0001
0000
1000
0100
,
1000
0000
0000
0000
0001
0000
0010
0000
0100
0000
0100
0010
0001
0000
0000
0000
,
2002
0000
3003
0001
0010
0000
0010
0100
,
1000
0000
1000
0100
0010
0001
0010
0001
,
0010
0100
1000
0100
1000
0010
1000
0100
,
1000
0000
0100
0000
0001
0000
0100
0000
1000
0100
1000
0100
1000
0000
0000
0000
,
2002
0000
0000
0000
3003
0000
1000
0000
0100
0000
0000
0000
0010
0000
0001
0000
0000
0000
0010
0000
0000
0000
0001
0000
0010
0000
0100
0000
1000
0100
1000
0100
,
1000
0000
0000
0000
0000
0000
0010
0000
0100
0000
0000
0000
0001
0000
0000
0000
0001
0010
0100
1000
0100
0010
0001
0010
0001
0010
0001
0010
0100
0000
0000
0000
,
1000
0000
0000
0000
0000
0000
0010
0000
1000
0000
0000
0000
0001
0000
0100
0000
0000
0000
0001
0000
0000
0000
0001
0000
0010
0000
0001
0000
1000
0010
1000
0010
,
1000
0000
0000
0000
0000
0000
0001
0000
0100
0000
0000
0000
0100
0000
0000
0000
0001
0010
0001
0010
0001
0010
0001
0100
0001
0100
0001
0100
0001
0000
0000
0000
,
1000
1100
1000
1010
1000
0000
0001
0010
,
0001
0000
1000
0100
0010
0001
0010
0010
,
0001
0011
0001
0101
0001
0000
1000
0100
,
1000
0000
0000
0000
0001
0000
0010
0000
0100
1000
0100
1000
0100
0000
0000
0000
,
1000
0000
1001
0000
0001
0010
0001
0010
0001
0000
1001
0000
1000
0010
1000
0010
,
1000
0010
1000
0100
0010
0001
0010
0001
0010
0000
0000
0000
0000
0000
0000
0000
;
