#VERSION:0.83;
#TITLE:Shuffle cats;
#SUBTITLE:;
#ARTIST:BEMANI Sound Team "猫叉Master";
#TITLETRANSLIT:;
#SUBTITLETRANSLIT:;
#ARTISTTRANSLIT:BEMANI Sound Team "Nekomata Master";
#GENRE:;
#ORIGIN:;
#CREDIT:;
#BANNER:Shuffle cats-banner.png;
#BACKGROUND:Shuffle cats-bg.png;
#PREVIEWVID:;
#JACKET:Shuffle cats-jacket.png;
#CDIMAGE:;
#DISCIMAGE:;
#LYRICSPATH:;
#CDTITLE:;
#MUSIC:Shuffle cats.mp3;
#OFFSET:-2.050000;
#SAMPLESTART:73.000000;
#SAMPLELENGTH:15.000000;
#SELECTABLE:YES;
#BPMS:0.000=110.000;
#STOPS:;
#DELAYS:;
#WARPS:;
#TIMESIGNATURES:0.000=4=4;
#TICKCOUNTS:0.000=4;
#COMBOS:0.000=1;
#SPEEDS:0.000=1.000=0.000=0;
#SCROLLS:0.000=1.000;
#FAKES:;
#LABELS:0.000=Song Start;
#BGCHANGES:;
#KEYSOUNDS:;
#ATTACKS:
;

//---------------dance-single - ----------------
#NOTEDATA:;
#CHARTNAME:;
#STEPSTYPE:dance-single;
#DESCRIPTION:;
#CHARTSTYLE:;
#DIFFICULTY:Beginner;
#METER:4;
#RADARVALUES:0.128975,0.168752,0.025313,0.042188,0.050626,107.000000,104.000000,3.000000,5.000000,0.000000,0.000000,0.000000,0.000000,0.000000,0.128975,0.168752,0.025313,0.042188,0.050626,107.000000,104.000000,3.000000,5.000000,0.000000,0.000000,0.000000,0.000000,0.000000;
#CREDIT:;
#NOTES:
0000
0000
0000
0000
,
1000
0000
1000
0000
,
0001
0001
0100
0100
,
1000
0000
1000
0000
,
2002
0000
3003
0000
,
0020
0000
0030
0000
,
1000
0000
1000
0000
,
0001
0000
0001
0000
,
1000
0000
1000
0000
,
0100
0000
0100
0000
,
0001
0000
0001
0000
,
0010
0000
0001
0001
,
0100
0000
0100
0000
,
0001
0000
0100
0000
,
0010
0000
0001
0000
,
1000
0000
1000
1000
,
1000
0000
0000
0000
,
0001
0000
0000
0000
,
1000
0000
0000
0000
,
1000
1000
1000
1000
,
0100
0000
0000
0000
,
0010
0000
0000
0000
,
0100
0000
0000
0000
,
0010
0000
0000
0000
,
1001
0000
0000
0000
0000
0000
0000
0000
0000
0000
0000
0100
0000
0000
0000
0000
0000
0000
0000
0000
0000
0000
0000
0010
,
0000
0000
0000
0000
0000
0000
0000
0000
0000
0000
0000
1000
0000
0000
0000
0000
0000
0000
1000
0000
0000
0000
0000
0000
,
1000
0000
0000
0000
0000
0000
0000
0000
0000
0000
0000
0001
0000
0000
0000
0000
0000
0000
0000
0000
0000
0000
0000
0010
,
0000
0000
0000
0000
0000
0000
0000
0000
0000
0000
0000
1000
0000
0000
0000
0000
0000
0000
1000
0000
0000
0000
0000
0000
,
1000
0000
0000
0000
0000
0000
0000
0000
0000
0000
0000
0001
0000
0000
0000
0000
0000
0000
0000
0000
0000
0000
0000
0010
,
0000
0000
0000
0000
0000
0000
0000
0000
0000
0000
0000
0001
0000
0000
0000
0000
0000
0000
0001
0000
0000
0000
0000
0000
,
0100
0000
0000
0000
0000
0000
0000
0000
0000
0000
0000
0100
0000
0000
0000
0000
0000
0000
0000
0000
0000
0000
0000
0010
,
0000
0000
0000
0000
0000
0000
0000
0000
0000
0000
0000
0010
0000
0000
0000
0000
0000
0000
0010
0000
0000
0000
0000
0000
,
0010
0000
1000
0000
,
0100
0100
0100
0100
,
0001
0000
0001
0001
,
0001
0000
1000
0000
,
1000
0000
1000
0000
,
0100
0100
0100
0100
,
0000
1000
0000
1000
,
0010
0000
0100
0000
,
0001
0001
0001
0001
,
0100
0000
0100
0000
,
1000
1000
1000
1000
,
0010
0000
0010
0000
,
0001
0001
0001
0001
,
1000
0000
1000
0000
,
0100
0000
0000
0000
,
0000
0000
0000
2002
0000
0000
0000
0000
,
0000
0000
0000
0000
,
0000
0000
0000
0000
,
3003
0000
0000
0000
;

//---------------dance-single - ----------------
#NOTEDATA:;
#CHARTNAME:;
#STEPSTYPE:dance-single;
#DESCRIPTION:;
#CHARTSTYLE:;
#DIFFICULTY:Easy;
#METER:7;
#RADARVALUES:0.200092,0.232034,0.042188,0.033750,0.105470,166.000000,161.000000,5.000000,4.000000,0.000000,0.000000,0.000000,0.000000,0.000000,0.200092,0.232034,0.042188,0.033750,0.105470,166.000000,161.000000,5.000000,4.000000,0.000000,0.000000,0.000000,0.000000,0.000000;
#CREDIT:;
#NOTES:
0000
0000
0000
0000
,
1000
0000
0000
0000
0000
1000
0000
0000
0000
0000
0000
0000
0001
0000
0000
0000
0000
0001
0000
0000
0000
0000
0000
0000
,
1000
0100
0010
0001
,
0001
0000
0000
0000
0000
0001
0000
0000
0000
0000
0000
0000
1000
0000
0000
0000
0000
1000
0000
0000
0000
0000
0000
0000
,
1001
0000
0000
0000
0000
0000
0000
0000
0000
0000
0000
0220
0000
0000
0000
0000
0000
0000
0000
0000
0000
0000
0000
0330
,
0000
0000
0000
0000
,
1000
0000
1000
0000
0001
0010
0001
0000
,
0010
0000
0010
0000
0100
0010
0100
0000
,
1000
0000
1000
0000
0001
1000
0001
0000
,
1000
0000
1000
0000
0001
0010
0001
0000
,
1000
1000
1000
1000
,
0001
0001
0001
0001
,
1000
0000
1000
0000
0001
0010
0001
0000
,
1000
0000
1000
0000
0001
0010
0001
0000
,
1000
1000
1000
1000
,
0001
0001
0001
0001
,
1000
1000
0000
0000
,
0001
0001
0000
0000
,
0100
0100
0000
0000
,
0010
0010
0000
0000
,
1000
0100
1000
0000
0000
0000
0000
0000
,
0100
0010
0100
0000
0000
0000
0000
0000
,
0001
0010
0001
0000
0000
0000
0000
0000
,
1000
0000
1000
0100
1000
0000
0000
0000
,
1000
0000
0000
0000
0000
0000
0000
0000
0000
0000
0000
1000
0000
0000
0000
0000
0000
0000
0000
0000
0000
0000
0000
0100
,
0000
0000
0000
0000
0000
0000
0000
0000
0000
0000
0000
0010
0000
0000
0000
0000
0000
0000
0100
0000
0000
0000
0000
0000
,
0001
0000
0000
0000
0000
0000
0000
0000
0000
0000
0000
0010
0000
0000
0000
0000
0000
0000
0000
0000
0000
0000
0000
0100
,
0000
0000
0000
0000
0000
0000
0000
0000
0000
0000
0000
1000
0000
0000
0000
0000
0000
0000
1000
0000
0000
0000
0000
0000
,
0010
0000
0000
0000
0000
0000
0000
0000
0000
0000
0000
1000
0000
0000
0000
0000
0000
0000
0000
0000
0000
0000
0000
0100
,
0000
0000
0000
0000
0000
0000
0000
0000
0000
0000
0000
0001
0000
0000
0000
0000
0000
0000
0001
0000
0000
0000
0000
0000
,
1000
0000
0000
0000
0000
0000
0000
0000
0000
0000
0000
0010
0000
0000
0000
0000
0000
0000
0000
0000
0000
0000
0000
0100
,
0000
0000
0000
0000
0000
0000
0000
0000
0000
0000
0000
1001
0000
0000
0000
0000
0000
0000
1001
0000
0000
0000
0000
0000
,
0010
0100
0010
0100
,
0010
0000
1000
0000
1000
0100
1000
0000
,
0001
0100
0001
0100
,
0001
1000
0001
1000
,
1000
0100
1000
0100
,
1000
0000
0100
0000
0001
0100
0001
0000
,
1000
1000
1000
1000
,
0001
0000
0000
0001
0000
0000
0000
0000
1000
0000
0000
1000
0000
0000
0000
0000
,
0001
0010
0100
1000
,
1000
0000
0000
1000
0000
0000
0000
0000
0001
0000
0000
0001
0000
0000
0000
0000
,
1000
0100
0010
0001
,
0100
0000
0000
0100
0000
0000
0000
0000
0010
0000
0000
0010
0000
0000
0000
0000
,
0100
0010
0100
0010
,
1000
0000
0000
0100
0000
0000
0000
0000
1000
0000
0000
0100
0000
0000
0000
0000
,
0001
0000
0000
0000
,
0000
0000
0000
2002
0000
0000
0000
0000
,
0000
0000
0000
0000
,
0000
0000
0000
0000
,
3003
0000
0000
0000
;

//---------------dance-single - ----------------
#NOTEDATA:;
#CHARTNAME:;
#STEPSTYPE:dance-single;
#DESCRIPTION:;
#CHARTSTYLE:;
#DIFFICULTY:Medium;
#METER:9;
#RADARVALUES:0.310986,0.379692,0.236253,0.202503,0.189846,258.000000,230.000000,28.000000,24.000000,0.000000,0.000000,0.000000,0.000000,0.000000,0.310986,0.379692,0.236253,0.202503,0.189846,258.000000,230.000000,28.000000,24.000000,0.000000,0.000000,0.000000,0.000000,0.000000;
#CREDIT:;
#NOTES:
0000
0000
0000
0000
,
0001
0000
0000
0000
0000
0110
0000
0000
0000
0000
0000
0000
1000
0000
0000
0000
0000
0110
0000
0000
0000
0000
0000
0000
,
0000
0000
0100
0000
1000
0000
0100
0000
1000
0000
0100
0000
1000
0000
0000
0000
0000
0001
0000
0000
0000
1000
0000
0000
,
0010
0000
0000
0000
0000
1001
0000
0000
0000
0000
0000
0000
0100
0000
0000
0000
0000
1001
0000
0000
0000
0000
0000
0000
,
0001
0000
0000
0000
0000
0000
0000
0000
0000
0000
0000
2002
0000
0000
0000
0000
0000
3003
0000
0000
0000
0000
0000
0000
,
0000
0001
0100
0001
0100
0001
0100
0001
,
0000
0100
1000
0100
0000
0100
1000
0100
,
0000
0100
1000
0100
0000
0100
1000
0100
,
0000
0001
0000
1000
0000
1000
0000
0100
,
0010
0001
0000
0100
0001
1000
0001
1000
,
0000
0001
0000
1000
0000
0010
0000
0100
,
0001
0010
0100
1000
1000
0100
0010
0001
,
0000
0010
0000
0001
0000
0010
0000
1000
,
0001
0100
0000
0010
0001
0001
1000
1000
,
1000
0100
0001
0100
1000
0100
1000
0100
,
1000
0100
0001
0100
0010
0100
0010
0001
,
0001
0010
1001
0000
0000
0000
0000
0000
,
0100
1000
0110
0000
0000
0000
0000
0000
,
1000
0001
1010
0000
0000
0000
0000
1000
,
1000
0100
1000
0100
1000
0100
1000
0100
,
1000
0010
1000
0000
0000
0000
0000
0000
,
1000
0001
1100
0000
0000
0000
0000
0000
,
0010
0110
0010
0000
0000
0000
0000
0001
,
0001
0010
0001
0010
0001
0010
0100
0010
,
0002
0000
0000
0000
0000
0000
0003
0000
0000
0000
0000
2000
0000
0000
0000
0000
0000
3000
0000
0000
0000
0000
0000
0002
,
0000
0000
0000
0000
0000
0003
0000
0000
0000
0000
0000
1001
0000
0000
0000
0000
0000
0000
0010
0000
0000
0000
0000
0000
,
0220
0000
0000
0000
0000
0000
0330
0000
0000
0000
0000
0002
0000
0000
0000
0000
0000
0003
0000
0000
0000
0000
0000
0020
,
0000
0000
0000
0000
0000
0030
0000
0000
0000
0000
0000
0110
0000
0000
0000
0000
0000
0000
0001
0000
0000
0000
0000
0000
,
2002
0000
0000
0000
0000
3000
0003
0000
0000
0000
0000
0002
0000
0000
0000
0000
0000
0003
0000
0000
0000
0000
0000
0200
,
0000
0000
0000
0000
0000
0300
0000
0000
0000
0000
0000
0110
0000
0000
0000
0000
0000
0000
0010
0000
0000
0000
0000
0000
,
0220
0000
0000
0000
0000
0330
0000
0000
0000
0000
0000
0220
0000
0000
0000
0000
0000
0330
0000
0000
0000
0000
0000
0220
,
0000
0000
0000
0000
0000
0330
0000
0000
0000
0000
0000
1000
0000
0000
0000
0000
0000
0000
0001
0000
0000
0000
0000
0000
,
0001
0100
1000
0100
0001
0100
1000
0100
,
0001
0000
1000
0000
1000
0100
1000
0000
,
0000
1000
0100
1000
0100
1000
0001
0200
,
0000
0000
0000
0300
0000
0000
0000
0000
0000
1000
0000
0100
1000
0000
0000
0000
0000
0000
0001
0000
0000
0000
0000
0000
,
1000
0100
0001
0100
1000
0100
0001
0100
,
1000
0000
0001
0000
0001
0100
0001
0000
,
0000
0100
0001
0100
0001
0100
0001
0000
,
0100
0000
0000
0000
0000
1001
0000
0000
0000
0000
0000
0000
0010
0000
0000
0000
0000
1001
0000
0000
0000
0000
0000
0000
,
0001
0000
0010
0000
0001
0000
0010
0000
0001
0000
0010
0000
0001
0000
0000
0000
0000
0001
0000
0000
0000
1000
0000
0000
,
0010
0000
0000
0000
0000
1001
0000
0000
0000
0000
0000
0000
0100
0000
0000
0000
0000
1001
0000
0000
0000
0000
0000
0000
,
1000
0000
0100
0000
1000
0000
0100
0000
1000
0000
0100
0000
2000
0000
0000
3000
0000
0000
0002
0000
0000
0003
0000
0000
,
0100
0000
0000
0000
0000
1001
0000
0000
0000
0000
0000
0000
0010
0000
0000
0000
0000
1001
0000
0000
0000
0000
0000
0000
,
0010
0000
0100
0000
0010
0000
0100
0000
0010
0000
0100
0000
0001
0000
0000
0000
0000
0001
0000
0000
0000
1000
0000
0000
,
0001
0000
0000
0000
0000
0101
0000
0000
0000
0000
0000
0000
1000
0000
0000
0000
0000
1100
0000
0000
0000
0000
0000
0000
,
0110
0000
0000
0000
,
0000
0000
0000
2002
0000
0000
0000
0000
,
0000
0000
0000
0000
,
0000
0000
0000
0000
,
3003
0000
0000
0000
;

//---------------dance-single - ----------------
#NOTEDATA:;
#CHARTNAME:;
#STEPSTYPE:dance-single;
#DESCRIPTION:;
#CHARTSTYLE:;
#DIFFICULTY:Hard;
#METER:12;
#RADARVALUES:0.382103,0.442974,0.489381,0.236253,0.244691,317.000000,259.000000,58.000000,28.000000,0.000000,0.000000,0.000000,0.000000,0.000000,0.382103,0.442974,0.489381,0.236253,0.244691,317.000000,259.000000,58.000000,28.000000,0.000000,0.000000,0.000000,0.000000,0.000000;
#CREDIT:;
#OFFSET:-2.050000;
#BPMS:0.000000=110.000000
;
#STOPS:;
#DELAYS:;
#WARPS:;
#TIMESIGNATURES:0.000000=4=4
;
#TICKCOUNTS:0.000000=3
,4.500000=4
;
#COMBOS:0.000000=1
;
#SPEEDS:0.000000=1.000000=0.000000=0
;
#SCROLLS:0.000000=1.000000
;
#FAKES:;
#LABELS:0.000000=Song Start
;
#NOTES:
// measure 0
0000
0000
0000
0000
,  // measure 1
1001
0000
0000
0000
0000
0110
0000
0000
0000
0000
0000
0000
1001
0000
0000
0000
0000
0110
0000
0000
0000
0000
0000
0000
,  // measure 2
0000
0000
0100
0000
0010
0000
0100
0000
0001
0000
0010
0000
0001
0000
0000
0000
0000
1000
0000
0000
0000
1000
0000
0000
,  // measure 3
0110
0000
0000
0000
0000
1001
0000
0000
0000
0000
0000
0000
0110
0000
0000
0000
0000
1001
0000
0000
0000
0000
0000
0000
,  // measure 4
1001
0000
0000
0000
0000
0000
0000
0000
0000
0000
0000
2002
0000
0000
0000
0000
0000
3003
0000
0000
0000
0000
0000
0000
,  // measure 5
0000
0000
0001
0100
0000
0000
0001
0000
0000
0100
0000
0000
0001
0000
0000
0100
0000
0000
0001
0000
0000
0100
0000
0000
,  // measure 6
0001
0100
1000
0100
0001
0100
1000
0100
,  // measure 7
0001
0100
1000
0100
0001
0100
1000
0100
,  // measure 8
0001
0000
0000
0001
0000
0000
1000
0000
0000
1000
0000
0000
0001
0000
0000
1000
0000
0100
0000
0000
1000
0100
0000
0000
,  // measure 9
1000
0000
0000
0001
0000
0100
0000
0000
0001
0100
0000
0000
0001
0000
0000
1000
0000
0000
0001
0000
0000
1000
0000
0000
,  // measure 10
0001
0000
0000
0001
0000
0000
1000
0000
0000
1000
0000
0000
0100
0000
0000
0010
0000
0100
0000
0000
0010
0100
0000
0000
,  // measure 11
0001
0010
0100
1000
1000
0100
0010
0001
,  // measure 12
0001
0000
0000
0100
0000
0000
1000
0000
0000
0100
0000
0000
0001
0000
0000
0100
0000
1000
0000
0000
1000
0100
0000
0000
,  // measure 13
0001
0000
0000
0100
0000
0010
0000
0000
0100
0010
0000
0000
0001
0000
0000
0001
0000
0000
1000
0000
0000
1000
0000
0000
,  // measure 14
1000
0000
0000
0100
0000
0000
0001
0000
0000
0100
0000
0000
1000
0000
0000
0100
0000
1000
0000
0000
0100
1000
0000
0000
,  // measure 15
1000
1000
0001
0001
0100
0100
1000
1000
,  // measure 16
1001
0110
1001
0000
0000
0000
0000
0000
,  // measure 17
0110
1001
0110
0000
0000
0000
0000
0000
,  // measure 18
1100
0101
1100
0000
0000
0000
0000
1000
,  // measure 19
1000
0100
0001
0100
1000
0100
0001
0100
,  // measure 20
1000
1000
1000
0000
0000
0000
0000
0000
,  // measure 21
1100
0011
1100
0000
0000
0000
0000
0000
,  // measure 22
0110
0110
0110
0000
0000
0000
0000
0001
,  // measure 23
0001
0010
0100
0010
0001
0010
0100
0010
,  // measure 24
0002
0000
0000
0000
0000
0000
0003
0000
0000
0000
0000
2000
0000
0000
0000
0000
0000
3000
0000
0000
0000
0000
0000
0002
,  // measure 25
0000
0000
0000
0000
0000
0003
0000
0000
0000
0000
0000
1001
0000
0000
0000
0000
0000
0000
0110
0000
0000
0000
0000
0000
,  // measure 26
0220
0000
0000
0000
0000
0000
0330
0000
0000
0000
0000
2002
0000
0000
0000
0000
0000
3003
0000
0000
0000
0000
0000
0220
,  // measure 27
0000
0000
0000
0000
0000
0330
0000
0000
0000
0000
0000
0110
0000
0000
0000
0000
0000
0000
1001
0000
0000
0000
0000
0000
,  // measure 28
2002
0000
0000
0000
0000
0000
3003
0000
0000
0000
0000
0022
0000
0000
0000
0000
0000
0033
0000
0000
0000
0000
0000
2200
,  // measure 29
0000
0000
0000
0000
0000
3300
0000
0000
0000
0000
0000
1010
0000
0000
0000
0000
0000
0000
0101
0000
0000
0000
0000
0000
,  // measure 30
2002
0000
0000
0000
0000
3003
0000
0000
0000
0000
0000
0220
0000
0000
0000
0000
0000
0330
0000
0000
0000
0000
0000
2002
,  // measure 31
0000
0000
0000
0000
0000
3003
0000
0000
0000
0000
0000
1000
0000
0000
0000
0000
0000
0000
0001
0000
0000
0000
0000
0000
,  // measure 32
0001
0100
1000
0100
0001
0100
1000
0100
,  // measure 33
0001
0100
1000
0100
1000
0100
1000
0100
,  // measure 34
0000
0100
0001
0100
1000
0100
0001
0200
,  // measure 35
0000
0000
0000
0300
0000
0000
0000
0000
0000
1000
0000
0100
1000
0000
0000
0000
0000
0000
0001
0000
0000
0000
0000
0000
,  // measure 36
1000
0100
0001
0100
1000
0100
0001
0100
,  // measure 37
1000
0100
0001
0100
0001
0100
0001
0100
,  // measure 38
0000
0100
0001
0100
1000
0100
0001
0000
,  // measure 39
0110
0000
0000
0000
0000
1001
0000
0000
0000
0000
0000
0000
0110
0000
0000
0000
0000
1001
0000
0000
0000
0000
0000
0000
,  // measure 40
0000
0000
0001
0000
0010
0000
0001
0000
0100
0000
1000
0000
0100
0000
0000
0000
0000
0001
0000
0000
0000
0001
0000
0000
,  // measure 41
0110
0000
0000
0000
0000
1001
0000
0000
0000
0000
0000
0000
0110
0000
0000
0000
0000
1001
0000
0000
0000
0000
0000
0000
,  // measure 42
0000
0000
1000
0000
0100
0000
1000
0000
0010
0000
0001
0000
0020
0000
0000
0030
0000
0000
0002
0000
0000
0003
0000
0000
,  // measure 43
0110
0000
0000
0000
0000
1001
0000
0000
0000
0000
0000
0000
0110
0000
0000
0000
0000
1001
0000
0000
0000
0000
0000
0000
,  // measure 44
0010
0000
0100
0000
0010
0000
1000
0000
0100
0000
1000
0000
0001
0000
0000
0000
0000
0001
0000
0000
0000
1000
0000
0000
,  // measure 45
1001
0000
0000
0000
0000
0101
0000
0000
0000
0000
0000
0000
1001
0000
0000
0000
0000
1100
0000
0000
0000
0000
0000
0000
,  // measure 46
0110
0000
0000
0000
,  // measure 47
0000
0000
0000
2002
0000
0000
0000
0000
,  // measure 48
0000
0000
0000
0000
,  // measure 49
0000
0000
0000
0000
,  // measure 50
3003
0000
0000
0000
;
