#TITLE:Please Welcome Mr.C;
#SUBTITLE:;
#ARTIST:C-Show;
#TITLETRANSLIT:;
#SUBTITLETRANSLIT:;
#ARTISTTRANSLIT:;
#GENRE:;
#CREDIT:;
#MUSIC:Please Welcome Mr.C.mp3;
#BANNER:;
#BACKGROUND:Please Welcome Mr.C-bg.png;
#CDTITLE:;
#SAMPLESTART:0.000;
#SAMPLELENGTH:0.000;
#SELECTABLE:YES;
#OFFSET:-0.253;
#BPMS:0.000=230.000
,196.000=115.000
,228.000=230.000
;
#STOPS:;
#BGCHANGES:;
#FGCHANGES:;

//--------------- dance-single - ----------------
#NOTES:
     dance-single:
     :
     Hard:
     14:
     0,0,0,0,0:
0000
0000
0000
0000
,
1001
0000
0000
0000
,
0000
0000
0000
0000
,
0110
0000
0000
0000
,
0000
0000
0000
0000
,
0011
0000
0000
0000
,
1100
0000
0000
0000
,
0101
0000
0000
0000
,
1010
0000
0000
0000
,
1000
0100
1000
0100
,
1000
0000
0000
0000
0100
0000
0000
0000
1000
0000
0000
0000
0100
0000
0000
0010
,
0001
0001
0100
0001
,
0100
0000
0000
0000
0001
0000
0000
0000
0100
0000
0000
0000
0001
0000
0000
0100
,
1000
0000
0000
1000
0100
0000
0000
0010
0001
0000
0000
0000
0000
0000
0000
0000
,
0001
0010
0001
1000
0100
1000
0001
0010
0001
0100
1000
0100
,
0010
0000
0000
0000
,
0000
0000
0000
0001
,
0001
0000
0000
0001
0010
0000
0000
0010
0100
0000
0000
0100
1000
0000
0000
1000
,
0100
0000
0000
0000
0000
0000
0000
0000
0010
0000
0000
0000
0000
0000
0000
0000
0000
0000
0000
0000
0010
0000
0000
0000
0000
0000
0000
0000
0000
0000
0000
0000
0000
0010
0000
0000
0100
0000
0000
0000
0000
0000
0000
0000
0000
1000
0000
0000
,
0000
0000
0000
1000
0100
0000
0000
0100
0010
0000
0000
0010
0100
0000
0000
0100
,
0010
0000
0000
0010
0001
0000
0000
0001
0010
0000
0000
0100
0010
0000
0000
1000
,
0100
0000
0000
0010
0001
0000
0000
0100
0010
0000
0000
0010
1000
0000
0000
0001
,
0100
0000
0000
0000
0000
0000
0000
0000
0100
0000
0000
0000
0000
0000
0000
0000
0000
0000
0000
0000
0100
0000
0000
0000
0000
0000
0000
0000
0000
0000
0000
0000
0000
0001
0000
0000
0010
0000
0000
0000
0000
0000
0000
0000
0000
0001
0000
0000
,
0010
0000
0000
0100
0010
0000
0000
0100
1000
0000
0000
1000
0100
0000
0000
0000
,
0001
0000
0000
1000
0000
0000
0000
0010
0100
0000
0000
0010
0100
0000
0000
0010
,
1000
0000
0000
0010
1000
0000
0000
0010
1000
0000
0000
0010
1000
0000
0000
0010
,
1000
0000
0000
0000
0000
0000
0000
0000
1000
0000
0000
0000
0000
0000
0000
0000
0000
0000
0000
0000
1000
0000
0000
0000
0000
0000
0000
0000
0000
0000
0000
0000
0000
0001
0000
0000
0010
0000
0000
0000
0000
0000
0000
0000
0000
0001
0000
0000
,
0100
0000
0000
0001
0100
0000
0000
0001
0100
0000
0000
0001
0100
0000
0000
0001
,
0100
0000
0000
0000
0000
0000
0000
0000
0001
0000
0000
0000
0000
0000
0000
0000
0000
0000
0000
0000
0010
0000
0000
0000
0000
0000
0000
0000
0000
0000
0000
0000
0000
1000
0000
0000
0010
0000
0000
0000
0000
0000
0000
0000
0000
0010
0000
0000
,
1000
0000
0000
1000
0010
0000
0000
0001
0100
0000
0000
0100
0001
0000
0000
0010
,
0100
0000
0000
0000
0000
0000
0000
0000
0100
0000
0000
0000
0000
0000
0000
0000
0000
0000
0000
0000
0100
0000
0000
0000
0000
0000
0000
0000
0000
0000
0000
0000
0000
0100
0000
0000
0010
0000
0000
0000
0000
0000
0000
0000
0000
0001
0000
0000
,
0000
0000
0000
0000
,
1000
0000
0000
0000
0001
0000
0000
0001
1000
0000
0000
0001
1000
0000
0000
0000
,
2000
0000
0000
0000
0000
0000
0000
3000
0200
0000
0000
0000
0000
0000
0000
0300
,
0002
0000
0000
0003
0020
0000
0000
0030
0200
0000
0000
0300
2000
0000
0000
3000
,
0200
0000
0000
0300
0000
0000
0000
0000
0000
0000
0000
0000
0000
0000
0000
0000
,
0000
0000
0000
1001
,
2000
0000
0000
0000
0000
0000
0000
3000
0002
0000
0000
0000
0000
0000
0000
0003
,
0020
0000
0000
0030
0200
0000
0000
0300
0002
0000
0000
0003
0020
0000
0000
0030
,
0200
0000
0000
0300
0000
0000
0000
0000
0000
0000
0000
0000
0000
0000
0000
0000
,
0000
0000
0000
0000
,
2000
0000
0000
0000
0000
0000
0000
3000
0020
0000
0000
0000
0000
0000
0000
0030
,
0002
0000
0000
0003
0200
0000
0000
0300
2000
0000
0000
3000
0002
0000
0000
0003
,
0020
0000
0000
0030
0000
0000
0000
0000
0000
0000
0000
0000
0000
0000
0000
0000
,
0000
0000
0000
0000
,
2000
0000
0000
0000
0000
0000
0000
3000
0200
0000
0000
0000
0000
0000
0000
0300
,
0002
0000
0000
0003
0020
0000
0000
0030
0200
0000
0000
0300
2000
0000
0000
3000
,
0011
0000
1100
0000
,
0101
0000
1010
0000
,
2002
0000
0000
0000
0000
0000
0000
0000
0000
3003
0000
0000
0000
0000
0000
0000
0001
0000
0000
0000
0000
0000
0010
0000
0000
0000
0000
0000
0100
0000
0010
0000
0000
0000
0010
0000
0100
0000
0000
0000
0000
0000
2000
0000
0000
0000
0000
0000
,
0000
0000
0000
0000
0000
3000
0000
0000
0100
0000
0000
0010
0000
0000
0100
1000
0000
0100
0010
0001
0010
0001
0010
0001
,
0010
0000
0100
0010
0000
0100
2000
0000
0000
0000
0000
3000
0000
0000
0000
1000
0000
0100
0000
0000
0002
0000
0000
0003
,
0000
0000
0000
0010
0000
1000
0000
0000
0000
0000
0000
1000
0000
0000
0100
0000
0000
0010
0001
0000
0001
0010
0000
0000
,
1001
0000
0000
0200
0000
0000
0000
0000
0301
0000
0000
0010
0000
0000
0100
1000
0000
1000
0100
0000
0000
0200
0000
0000
,
0000
0000
0300
0000
0000
0000
0000
0000
0100
0000
0000
1000
0000
0000
0001
0100
0000
0100
0001
0000
0001
0100
0000
0000
,
0002
0000
0000
0000
0003
2000
0000
0000
0000
3000
0000
0000
0020
0000
0000
0000
0030
0200
0000
0300
0001
0010
0000
0000
,
0100
0000
0000
0000
0000
0010
0000
0000
0000
0000
0000
0000
1001
0000
0000
0000
0000
0000
1001
0000
0000
0000
0000
0000
,
2002
0000
0000
0000
,
0000
0000
0000
0000
,
0000
0000
0000
0000
,
0000
0000
0000
0000
,
0000
0000
0000
0000
,
0000
0000
0000
0000
,
0000
0000
0000
3003
,
1100
0000
0101
0000
,
1010
0000
0101
0000
,
0001
0010
0100
1000
,
0200
0000
0000
0000
0000
0000
0000
0000
0000
0000
0000
0000
0000
0000
0000
0300
,
0000
0000
0000
0000
,
1000
0000
0000
1000
0100
0000
0000
0010
0001
0000
0000
0001
0100
0000
0000
1000
,
0010
0001
0010
0100
1000
0010
1000
0010
1000
0001
0100
0001
,
0100
0000
0000
0000
,
0000
0000
0000
1000
0100
0000
0000
0001
0010
0000
0000
1000
0100
0000
0000
0001
,
0010
0000
0000
0001
0100
0000
0000
0001
0010
0000
0000
0001
0100
0000
0000
0001
,
0010
0000
0000
1000
0100
0000
0000
1000
0010
0000
0000
1000
0100
0000
0000
1000
,
0010
0000
0000
0100
0010
0000
0000
0100
1000
0000
0000
0100
0010
0000
0000
0100
,
1000
0000
0000
1000
0100
0000
0000
0010
0001
0000
0000
0001
0010
0000
0000
0100
,
1000
0000
0000
0100
0010
0000
0000
0010
0001
0000
0000
0001
0010
0000
0000
0100
,
0010
0000
0000
0001
0010
0000
0000
0100
0010
0000
0000
0001
0010
0000
0000
0100
,
0010
0000
0000
0100
1000
0000
0000
0010
0100
0000
0000
1000
0100
0000
0000
0010
,
0100
0000
0000
1000
0000
0000
0000
1000
0001
0000
0000
0001
1000
0000
0000
0100
,
0010
0000
0000
0001
0010
0000
0000
0100
1000
0000
0000
1000
0100
0000
0000
0010
,
0001
0000
0000
1000
0100
0000
0000
0010
0001
0000
0000
0001
0010
0000
0000
0100
,
1000
0000
0000
0001
0100
0000
0000
1000
0010
0000
0000
0001
0100
0000
0000
1000
,
0010
0000
0000
0100
0010
0000
0000
0010
1000
0000
0000
0010
0100
0000
0000
0100
,
0001
0000
0000
0001
0010
0000
0000
0010
0100
0000
0000
0100
1000
0000
0000
1000
,
0100
0000
0000
0100
0010
0000
0000
0010
0001
0000
0000
0001
0010
0000
0000
0010
,
0100
0000
0000
0000
,
0000
0000
1001
1001
,
1001
0000
0000
0010
0100
0000
0000
0110
0000
0000
0000
1001
0000
0000
0000
0110
,
0000
0000
0000
0110
0000
0000
0000
0001
0010
0000
0000
0010
0100
0000
0000
0100
,
1000
0000
0000
1000
0100
0000
0000
0100
0000
0000
0000
0101
0000
0000
0000
1010
,
0000
0000
0000
0101
0000
0000
0000
0001
0010
0000
0000
1000
0010
0000
0000
0000
,
1001
0000
0000
0001
,
1001
0000
0000
0010
,
0110
0000
0000
0000
,
0000
0000
0000
0000
,
1001
0000
0000
0000
;
