#TITLE:On Take SUN;
#SUBTITLE:;
#ARTIST:Sampling Masters MEGA;
#TITLETRANSLIT:;
#SUBTITLETRANSLIT:;
#ARTISTTRANSLIT:;
#GENRE:;
#CREDIT:;
#MUSIC:On Take SUN.mp3;
#BANNER:;
#BACKGROUND:On Take SUN-bg.png;
#CDTITLE:;
#SAMPLESTART:35.400;
#SAMPLELENGTH:15.000;
#SELECTABLE:YES;
#OFFSET:-0.360;
#BPMS:0.000=220.000
,63.000=440.000
,64.500=220.000
,127.000=440.000
,128.500=220.000
,185.000=440.000
,198.000=220.000
,315.000=440.000
,328.000=220.000
;
#STOPS:64.000=0.200
,128.000=0.200
,198.000=0.125
,213.000=0.150
,213.500=0.150
,226.000=0.800
,328.000=0.125
;
#DISPLAYBPM:220.000;
#BGCHANGES:;
#FGCHANGES:;

//--------------- dance-single - ----------------
#NOTES:
     dance-single:
     :
     Hard:
     15:
     0,0,0,0,0:
0000
0000
0000
0000
,
0000
0000
0000
0000
,
0000
0000
0000
0000
,
0000
0000
0000
0000
,
0000
0000
0000
0000
,
0000
0000
0000
0000
,
0000
0000
0000
0000
,
0000
0000
0000
0000
,
0001
0000
1000
1000
0000
0100
0000
0010
,
0000
0001
0000
0010
0000
0100
0000
1000
,
1000
1000
0000
0100
0000
0010
0000
0100
,
0000
0010
0000
0001
0000
0001
0100
0001
,
0100
0001
0000
0010
0000
0100
0000
1000
,
0000
0100
0000
1000
0000
0100
0000
1000
,
0010
1000
0000
0001
0000
0010
0000
0001
,
0000
0100
0000
0010
0000
1000
2002
0000
,
3003
0000
0010
0000
0000
0100
0010
0010
,
0100
0100
0001
0010
0001
0010
0001
0000
,
0001
0000
0010
0100
0010
0100
0010
0100
,
0010
0001
1000
0001
1000
0001
1000
0001
,
1000
0001
1000
0000
0000
0100
1000
0100
,
1000
0100
0010
0001
0100
0001
0100
0000
,
0100
0000
0000
0000
0001
0000
1000
0100
0010
0000
0001
0000
0010
0000
0001
0000
,
0010
0000
0001
0000
0010
0000
0001
0000
0010
0000
0100
0000
1000
0100
1000
0100
,
1000
0100
1000
0000
0010
0000
0000
0000
0000
0000
0010
0000
1000
0000
0010
0000
,
1000
0010
0100
0001
0100
0001
0100
0000
,
0001
0000
0001
0001
0010
0010
0100
0100
,
1000
1000
0100
0100
0010
0010
0001
0001
,
0010
0001
1000
0000
0000
1000
0010
1000
,
0010
1000
0100
0010
0100
0010
0100
0000
,
0100
0000
0000
0000
0100
0000
1000
0100
0010
0000
0010
0000
0100
0000
1000
0000
,
0100
1000
0100
1000
0100
1000
2002
0000
,
3003
0000
1000
0000
0100
1000
0000
0010
,
0100
0000
0001
0010
0000
0001
0010
0100
,
1000
0000
0100
0000
1000
0100
0000
0010
,
0100
0000
0010
0001
0000
1000
0100
0010
,
0001
0000
0001
0000
0010
0001
0000
0100
,
0010
0000
1000
0100
0000
1000
0100
0010
,
0001
0000
0001
0001
0010
0010
0100
0100
,
0010
0010
0001
0001
0000
0100
0100
0000
,
0001
0000
0001
0000
0010
0001
0000
0100
,
0010
0000
1000
0100
0000
1000
0100
0010
,
0001
0000
0010
0000
0001
0010
0000
0100
,
0010
0000
0100
1000
0000
0001
0010
0100
,
1000
0000
0000
1001
0000
1001
0000
1001
0000
1001
0000
0110
,
0000
0110
0000
0110
0000
0101
0000
1010
0000
0101
0000
1010
,
0000
0011
0000
0202
0000
0000
0000
0000
0000
0000
0000
0000
,
0000
0000
0000
0000
,
0000
0000
0000
0000
,
0000
0000
0000
0000
0303
0000
0000
0001
,
0000
0010
0000
0100
0000
1000
0000
0100
,
0000
0000
0010
0000
0000
0000
0001
0010
0001
0010
0001
0000
0000
0000
0010
0000
,
0000
0100
0000
1000
0000
0100
0000
1000
,
0000
0100
0010
0001
0000
0010
0000
0001
,
0000
0010
0000
0100
0000
1000
0000
0100
,
0000
0000
0000
0001
0000
0000
0010
0000
0000
0001
0000
0000
1001
0000
0000
0000
0011
0000
0000
0000
1100
0000
0000
0000
,
0011
0000
0101
0000
1010
0000
1001
0000
0000
1000
0000
0000
,
0000
1000
0100
0010
0010
0100
1000
1000
,
0100
0100
1000
0000
1000
0000
0010
0100
,
0010
0100
0010
0100
0010
0100
0001
1000
,
0001
1000
0001
1000
0001
1000
0001
0000
,
0000
0001
0010
0001
0010
0001
0010
0001
,
0100
0000
0100
0000
0100
0000
0000
0000
0001
0000
0000
0000
0010
0000
0001
0010
,
0100
1000
0100
1000
0100
1000
0001
0100
,
0001
0100
0001
0100
0002
0003
0001
0000
,
0010
0001
0000
0100
0010
0000
1000
0100
,
0000
1000
0100
0010
0001
0000
1000
0000
,
0100
1000
0000
0010
0100
0000
0001
0010
,
0000
0001
0010
0100
1000
0000
0010
0000
,
0100
0010
0000
0010
0100
0000
0100
0010
,
0000
1000
0100
0010
0001
0000
0100
0100
,
0010
0010
0100
0100
1000
1000
0001
0001
,
0000
0001
0001
0000
0001
0000
1000
0000
,
0100
1000
0000
0010
0100
0000
0001
0010
,
0000
0001
0010
0100
1000
0000
0001
0000
,
0010
0001
0000
0100
0010
0000
1000
0100
,
0000
0000
0000
1000
0000
0000
0100
0000
0000
0010
0000
0000
0001
0000
0000
0000
0000
0000
0110
0000
0000
0000
0110
0000
,
0000
0110
0000
0110
0000
1001
0000
1001
0000
1001
0000
0101
,
0000
1010
0000
0101
0000
1010
0000
0011
0000
0202
0000
0000
,
0000
0000
0000
0000
,
0000
0000
0000
0000
,
0000
0000
0000
0000
,
0303
0000
1000
1000
0100
0100
0010
0010
,
0100
0100
1000
1000
0010
0010
1000
1000
,
1010
0000
0010
0010
0100
0100
0010
0010
,
1000
1000
0100
0100
0010
0010
0001
0001
,
1001
0000
0100
0100
0010
0010
0100
0100
,
0001
0001
0010
0010
0100
0100
1000
1000
,
1001
0000
0001
0001
0010
0010
0100
0100
,
1000
1000
0100
0100
0010
0010
0001
0001
,
0100
0100
0001
0001
1000
0100
0000
0010
,
0001
0010
0100
0100
1000
0100
0000
0010
,
0001
0100
0010
0010
0100
0010
0000
1000
,
1000
0100
0010
0010
0100
1000
0000
0010
,
0010
0100
0001
0001
1000
0100
0000
0100
,
0100
0010
0100
0100
1000
0010
0000
1000
,
1000
0100
0010
0010
0100
1000
0000
0001
,
1000
0001
1001
0000
1001
0000
1000
0001
,
1000
0001
1000
0100
1000
1000
0000
0001
,
0100
0010
1000
0100
0010
0001
0000
1000
,
0100
0000
1000
0000
0001
0000
0010
0100
1000
0000
0100
0010
0000
0000
0000
0001
,
0010
0000
0010
0001
0100
0001
1000
0000
0001
0000
0001
0000
0000
0000
0001
0000
,
0100
0001
0100
1000
0100
0001
0000
0001
,
0100
0001
0010
0100
0010
0001
0000
0100
,
1000
0000
0100
0000
0001
0000
0001
1000
0100
0010
0000
0000
0000
0000
0000
0010
,
0001
0010
0100
1000
0000
0001
0100
0000
1000
0000
1000
0000
0000
0000
0010
0000
,
0100
0010
1000
1000
1100
0001
0001
0101
,
0010
0000
0000
0010
0000
0000
0110
0000
0000
0000
1001
0000
0000
0000
0101
0000
0000
0000
0001
0000
1000
0000
0100
0000
,
1000
0000
0010
0000
0100
0000
0001
0000
0000
0010
0000
0000
0100
0000
0000
0000
1000
0000
0000
0000
0000
0000
0001
0000
,
0010
0100
1001
0000
0000
0000
0000
0000
;
