#TITLE:かつて描いた夢は、今も色褪せぬまま。;
#SUBTITLE:;
#ARTIST:BEMANI Sound Team "El Dorado";
#TITLETRANSLIT:Katsute egaita yume wa, ima mo iroasenu mama;
#SUBTITLETRANSLIT:;
#ARTISTTRANSLIT:;
#GENRE:;
#CREDIT:;
#MUSIC:Katsute egaita yume wa, ima mo iroasenu mama.mp3;
#BANNER:;
#BACKGROUND:Katsute egaita yume wa, ima mo iroasenu mama-bg.png;
#CDTITLE:;
#SAMPLESTART:48.700;
#SAMPLELENGTH:12.000;
#SELECTABLE:YES;
#OFFSET:-0.330;
#BPMS:0.000=150.000;
#STOPS:;
#BGCHANGES:;
#FGCHANGES:;

//--------------- dance-single - ----------------
#NOTES:
     dance-single:
     :
     Hard:
     17:
     1.005695,1.141521,0.786178,0.107206,1.429414,788,700,88,12,0,0,1.005695,1.141521,0.786178,0.107206,1.429414,788,700,88,12,0,0:
0000
0000
0000
0000
1000
0010
1000
1010
0000
1010
0000
0011
0000
0011
0000
0001
,
0010
0001
0010
0000
0100
0010
0100
0110
0000
0110
0000
1001
0000
1001
0000
1000
,
0100
1000
0100
0000
0001
0100
0001
0101
0000
0101
0000
1100
0000
1100
0000
0010
,
0100
0010
0100
0000
1000
0010
1000
1010
0000
1010
0000
0011
0000
0011
0000
0001
,
0010
0001
0010
0000
0001
0010
0001
0100
0001
0010
0001
0100
0001
0010
0001
0100
,
0001
0010
0001
0100
0001
0010
0100
1000
0100
0010
0001
0010
0100
1000
0100
0010
,
0001
0010
0100
1000
0100
1000
0100
1000
0100
0010
0001
0010
0001
0010
0001
0010
,
0100
0010
0100
0010
0100
0010
0100
0010
0001
1000
0001
1000
0001
1000
0001
1000
,
0001
1000
0001
1000
0001
0000
0010
0000
0100
0000
1000
0000
0100
0000
0010
0000
,
0001
0000
0010
0100
0010
0000
0100
0000
1000
0000
0100
0000
0010
0000
0001
0000
,
0010
0100
1000
0000
1010
0000
0000
1010
0000
0000
1010
0000
1000
0000
0100
0000
,
0010
0000
0001
0100
0001
0000
0000
0001
0000
0000
0001
0000
0000
0001
0000
1000
,
0100
0010
0001
0010
0011
0000
0000
0101
0000
0000
0101
0000
0001
0000
0010
0000
,
0001
0000
0010
0001
0010
0000
0000
0101
0000
0000
1100
0000
1000
0000
0100
0000
,
0010
0000
0001
0010
0100
1000
0100
1000
0100
0000
0010
0000
0001
0100
0001
0100
,
0001
0000
0110
0000
1000
0100
0010
0001
0010
0100
1000
0100
0020
0000
0000
0030
,
0000
0000
0000
0000
0001
0000
0010
0100
0000
1000
0000
0100
0000
0010
0001
0000
,
0100
0000
0100
0000
0001
0000
0010
0100
0000
1000
0000
0100
0000
0010
0001
0000
,
0100
0000
0100
0000
0001
0000
0010
0100
0000
1000
0000
0100
0000
0010
0001
0000
,
0001
0000
0001
0000
0010
0000
0000
0000
0100
0000
0000
1000
0000
0010
0000
1000
,
0010
0000
1000
0000
0100
0000
0010
0001
0000
0010
0000
0100
0000
1000
0100
0000
,
0100
0000
0100
0000
0010
0000
0001
0100
0000
0001
0000
0100
0000
0001
0100
0000
,
0001
0000
0001
0000
1001
0000
0000
1001
0000
0000
1001
0000
1001
0000
1000
0100
,
0010
0001
0010
0100
1000
0100
1000
0100
1000
0100
0010
0001
0010
0001
0010
0001
,
0010
0001
0010
0001
0110
0000
0000
0110
0000
0000
0110
0000
0110
1000
0100
1000
,
0010
1000
0100
1000
0010
1000
0100
1000
0010
1000
0100
1000
0010
1000
0100
1000
,
0010
0000
0000
1000
0000
0000
0100
0000
0000
0000
0000
0000
1100
0000
0000
0000
0000
0000
0000
0000
0000
0101
0000
0000
0000
0000
0000
0000
0000
0000
1100
0000
0000
0000
0000
0000
0011
0000
0000
0000
0000
0000
0001
0000
0010
0000
0001
0000
,
0010
0001
0010
0001
0000
0000
0001
0010
0001
0010
0001
0010
0001
0010
0001
0010
0001
0010
0001
0010
0001
0010
0001
0010
,
0001
0010
0001
0000
0000
0000
2002
0000
0000
0000
0000
0000
0000
0000
0000
0000
0000
0000
0000
0000
0000
0000
0000
0000
,
3003
0000
0000
0000
1001
0000
0000
0110
0000
0110
0000
0110
0000
0001
0010
0100
,
1000
0100
0010
0001
0010
0000
0100
1000
0100
1000
0100
1000
0100
0000
0010
0000
,
0001
0000
1000
0010
1000
0010
0001
0100
0001
0100
0001
0100
0001
0000
0001
0000
,
0010
0000
0001
0010
0001
0010
0100
1000
0100
0010
0001
0010
0100
1000
0100
0010
,
0001
0000
0001
0010
0001
0000
0000
0101
0000
1100
0000
0101
0000
1100
0010
0000
,
0001
0010
0001
0010
0001
0010
0100
0010
0001
0010
0001
0010
0100
0000
1000
0000
,
0100
0000
1000
0100
1000
0100
0010
0100
1000
0100
0010
0100
1000
0100
0010
0100
,
1000
0100
1000
0100
1000
0000
0000
1001
0000
1001
0000
1001
0000
0100
0010
0100
,
0010
0100
0010
0100
0000
0000
1010
0000
0000
0011
0000
0000
1010
0000
0000
0000
,
0011
0000
0000
0000
0001
0010
0100
0010
0100
0010
0100
0010
0100
0000
0010
0000
,
0100
0000
0010
0100
1000
0100
1000
0100
1000
0100
1000
0100
1000
0000
0100
0000
,
1000
0000
0100
0000
0010
0000
0000
0001
0000
0001
0000
0001
0000
0001
0010
0000
,
0100
0000
1000
0000
0100
0010
0001
0010
0000
0101
0000
0101
0000
1100
0010
0000
,
0001
0000
0010
0000
0002
0000
0000
0000
0003
0000
0010
0001
0010
0100
1000
0100
,
1000
0100
1000
0100
0010
0000
0000
0001
0000
0000
0010
0000
0001
0000
0010
0000
,
0001
0000
0010
0000
0001
0010
0100
1000
0100
0010
0001
0010
0100
1000
0100
0010
,
0100
1000
0100
0010
0001
0010
0100
1000
0100
0010
0100
0010
0100
0010
0100
1000
,
0100
1000
0100
1000
0100
0010
0001
0100
0001
0100
0001
0100
0001
0100
0001
0100
,
0001
0100
0001
0100
0001
0000
0000
0100
0000
0000
0200
0000
0000
0000
0000
0300
,
0000
0000
0000
0000
1001
0000
0000
1001
0000
0000
1001
0000
0000
0110
0000
0000
,
0110
0000
0110
0000
1001
0000
0000
1001
0000
0000
1001
0000
0000
0110
0000
0000
,
0110
0000
0110
0000
1100
0000
0000
0101
0000
0000
1100
0000
0000
0011
0000
0000
,
0101
0000
0101
0000
2000
0000
3000
0200
0000
0300
0010
0000
0001
0000
0000
0001
,
0000
0000
0001
0000
0011
0000
0000
1100
0000
0000
0101
0000
0000
1100
0000
0000
,
1010
0000
1010
0000
0110
0000
0000
1001
0000
0000
0110
0000
0000
1001
0000
0000
,
0110
0000
1001
0000
1000
0000
0000
0100
0000
0000
0010
0000
0000
0001
0000
0000
,
0010
0000
0001
0000
0001
0000
0000
0001
0000
0000
0001
0000
0000
0001
0000
0000
,
0001
0000
0010
0000
0200
0000
0000
0000
0300
0000
1000
0010
1000
0010
1000
0010
,
1000
0010
1000
0010
1000
0010
1000
0010
1000
0010
1000
0010
1000
0010
1000
0010
,
1000
0000
0000
0010
0000
0000
1000
0000
0000
0020
0000
0000
0000
0000
0000
0000
0000
0000
0030
0000
0000
0000
0000
0000
0001
0000
0100
0000
0001
0000
0100
0000
0001
0000
0100
0000
0001
0000
0100
0000
0001
0000
0100
0000
0001
0000
0100
0000
,
0001
0000
0100
0000
0001
0000
0100
0000
0001
0000
0100
0000
0001
0000
0000
0000
0000
0000
0000
0000
0000
0001
0000
0000
0000
0000
0000
0000
0000
0000
0001
0000
0000
0000
0000
0000
0000
0000
0000
0000
0000
0000
0011
0000
0000
0000
0000
0000
,
0000
0000
0000
0000
0001
0000
0010
0001
0010
0001
0010
0001
0010
0001
0010
0001
,
0010
0001
0010
0001
0010
0000
0000
0010
0000
0000
0100
0000
1000
0000
0000
0000
,
0000
0000
0000
0000
1000
0001
1000
0001
1000
0001
1000
0001
1000
0001
1000
0001
,
1000
0001
1000
0001
1000
0001
1000
0001
1000
0001
1000
0001
1000
0001
1000
0001
,
1000
0001
1000
0001
0100
0010
0100
0010
0100
0010
0100
0010
0100
0010
0100
0010
,
0100
0010
0100
0010
0200
0000
0000
0000
0000
0000
0000
0000
0000
0000
0000
0300
,
0000
0000
0000
2002
0000
0000
0000
0000
,
0000
3003
0000
0000
;
