#VERSION:0.83;
#TITLE:The a la Menthe;
#SUBTITLE:Phoon Too Much For Zblock;
#ARTIST:La Caution;
#TITLETRANSLIT:;
#SUBTITLETRANSLIT:;
#ARTISTTRANSLIT:;
#GENRE:;
#CREDIT:notgreater;
#MUSIC:The a la Menthe (Phoon) - La Caution.ogg;
#BANNER:The a la menthe-bn.png;
#BACKGROUND:The a la menthe-bg.png;
#CDTITLE:;
#SAMPLESTART:16.969697;
#SAMPLELENGTH:12.121212;
#SELECTABLE:YES;
#OFFSET:0.000000;
#BPMS:0.000000=198.000000;
#STOPS:310.000000=0.303030
,311.000000=0.303030
,312.000000=0.303030
,313.000000=0.303030
;
#SPEEDS:0.000000=1.000000=0.000000=0,
62.000000=0.000000=0.000000=0,
62.020833=1.000000=2.000000=0,
314.000000=0.000000=0.000000=0,
314.020833=1.000000=2.000000=0
;
#SCROLLS:0.000000=1.000000;
#TICKCOUNTS:0.000000=4;
#TIMESIGNATURES:0.000000=4=4;
#LABELS:0.000000=Song Start;
#COMBOS:0.000000=1;
#BGCHANGES:-0.200000=The a la menthe.mp4=1.000000=1=0=1===CrossFade==,
99999.000000=-nosongbg-=1.000000=0=0=0=StretchNoLoop====
;
#FGCHANGES:;

//--------------- dance-single - notgreater ----------------
#NOTEDATA:;
#STEPSTYPE:dance-single;
#DESCRIPTION:notgreater;
#DIFFICULTY:Beginner;
#METER:2;
#RADARVALUES:0,0,0,0,0;
#NOTES:
0000
0000
0000
0000
,
0000
0000
0000
0000
,
0000
0000
0000
0000
,
0000
0000
0000
0000
,
0000
0000
0000
0000
,
0000
0000
0000
0000
,
0000
0000
0000
0000
,
0000
0000
0000
0000
,
0001
0000
1000
0000
,
0001
0000
1000
0000
,
0001
0000
1000
0000
,
0001
0000
1000
0000
,
0001
0001
0000
0000
,
0010
0010
0000
0000
,
0100
0100
0000
0000
,
1000
1000
1000
0000
,
0001
0000
0100
0000
,
0001
0000
0010
0000
,
0001
0000
0001
0000
0001
0000
0000
1000
,
0000
0000
0000
0000
0001
0000
0000
0100
,
0000
0000
0001
0000
0001
0000
0000
0100
,
0000
0010
0010
0000
,
1000
0000
1000
0000
1000
0000
0000
0001
,
0000
0000
0100
0000
,
0001
0000
0100
0000
,
0001
0000
0010
0000
,
0001
0000
0001
0000
0001
0000
0000
1000
,
0000
0000
0000
0000
0001
0000
0000
0100
,
0000
0000
0001
0000
0001
0000
0000
0100
,
0000
0010
0010
0000
,
1000
0000
1000
0000
1000
0000
0000
0001
,
0000
0000
0100
0000
,
0001
0000
0010
0000
,
0001
0001
0001
0000
,
0100
0000
0010
0000
,
1000
1000
1000
0000
,
0001
0000
0100
0000
,
0001
0001
0001
0000
,
0100
0000
0010
0000
,
1000
1000
1000
0000
,
0001
0000
0010
0000
,
0001
0001
0001
0000
,
0100
0000
0010
0000
,
1000
1000
1000
0000
,
0001
0001
0000
0000
,
0010
0010
0000
0000
,
0100
0100
0000
0000
,
1000
1000
0000
0000
,
0001
0000
0100
0000
,
0001
0000
0010
0000
,
0001
0000
0001
0000
0001
0000
0000
1000
,
0000
0000
0000
0000
0001
0000
0000
0100
,
0000
0000
0001
0000
0001
0000
0000
0100
,
0000
0010
0010
0000
,
1000
0000
1000
0000
1000
0000
0000
0001
,
0000
0000
0100
0000
,
0001
0000
0100
0000
,
0001
0000
0010
0000
,
0001
0000
0001
0000
0001
0000
0000
1000
,
0000
0000
0000
0000
0001
0000
0000
0100
,
0000
0000
0001
0000
0001
0000
0000
0100
,
0000
0010
0010
0000
,
1000
0000
1000
0000
1000
0000
0000
0001
,
0000
0000
0100
0000
,
0001
0000
0100
0000
,
0020
0000
0000
0030
0000
0000
1000
0000
,
0000
0010
0000
0000
,
0200
0000
0300
0001
,
0000
1000
1000
0000
,
0020
0000
0030
0000
,
1000
0000
0100
0000
,
0020
0000
0030
0000
,
0001
0001
0000
0000
,
1000
1000
0000
0000
,
0001
0001
0000
0000
,
1000
1000
0000
0000
,
0100
0000
0010
0000
,
0100
0000
1000
1000
,
1000
1000
0001
0000
,
0001
0000
0100
0000
,
0001
0000
0010
0000
,
0001
0000
0001
0000
0001
0000
0000
1000
,
0000
0000
0000
0000
0001
0000
0000
0100
,
0000
0000
0001
0000
0001
0000
0000
0100
,
0000
0010
0010
0000
,
1000
0000
1000
0000
1000
0000
0000
0001
,
0000
0000
0100
0000
,
0001
0000
0100
0000
,
0001
0000
0010
0000
,
0001
0000
0001
0000
0001
0000
0000
1000
,
0000
0000
0000
0000
0001
0000
0000
0100
,
0000
0000
0001
0000
0001
0000
0000
0100
,
0000
0010
0010
0000
,
1000
0000
1000
0000
1000
0000
0000
0001
,
0000
0000
0000
0000
0100
0000
0000
0001
;

//--------------- dance-single - notgreater ----------------
#NOTEDATA:;
#STEPSTYPE:dance-single;
#DESCRIPTION:notgreater;
#DIFFICULTY:Easy;
#METER:4;
#RADARVALUES:0,0,0,0,0;
#NOTES:
0000
0000
0000
0000
,
0000
0000
0000
0000
,
0000
0000
0000
0000
,
0000
0000
0000
0000
,
0000
0000
0000
0000
,
0000
0000
0000
0000
,
0000
0000
0000
0000
,
0000
0000
0000
0000
,
0001
0000
1000
0000
,
0001
0000
1000
0000
,
0001
0000
1000
0000
,
0001
0000
1000
0000
,
0001
0010
0001
0100
,
0001
1000
0001
0010
,
0001
0100
0001
1000
,
0001
0010
0001
0000
,
1000
1000
0010
0000
,
1000
0000
1000
0000
0100
0000
0000
1000
,
0000
0001
0000
0010
0001
0000
0000
0100
,
0000
0000
0001
0000
0010
0000
0000
0001
,
0000
0000
0000
0010
0200
0300
0000
1000
,
0000
0000
0000
0010
0200
0300
0000
0001
,
1000
0000
0010
0000
1000
0000
0000
0001
,
0000
0000
0000
0010
0200
0300
0000
0000
,
1000
1000
0010
0000
,
1000
0000
1000
0000
0100
0000
0000
1000
,
0000
0001
0000
0010
0001
0000
0000
0100
,
0000
0000
0001
0000
0010
0000
0000
0001
,
0000
0000
0000
0010
0200
0300
0000
1000
,
0000
0000
0000
0010
0200
0300
0000
0001
,
1000
0000
0010
0000
1000
0000
0000
0001
,
0000
0000
0000
0010
0200
0300
0000
0000
,
1000
0000
0100
0000
,
0010
0001
0010
0000
,
0001
0000
1000
0000
,
0001
0010
0001
0000
,
1000
0010
0100
0001
,
1000
0100
1000
0000
,
0010
0000
0100
0000
,
1000
0100
1000
0000
,
1000
0000
0100
0000
,
0010
0001
0010
0000
,
0001
0000
1000
0000
,
0001
0010
0001
0000
,
1000
1000
0000
0000
,
0001
0001
0000
0000
,
1000
1000
0000
0000
,
0001
0001
0000
0000
,
1000
1000
0010
0000
,
1000
0000
1000
0000
0100
0000
0000
1000
,
0000
0001
0000
0010
0001
0000
0000
0100
,
0000
0000
0001
0000
0010
0000
0000
0001
,
0000
0000
0000
0010
0200
0300
0000
1000
,
0000
0000
0000
0010
0200
0300
0000
0001
,
1000
0000
0010
0000
1000
0000
0000
0001
,
0000
0000
0000
0010
0200
0300
0000
0000
,
1000
1000
0010
0000
,
1000
0000
1000
0000
0100
0000
0000
1000
,
0000
0001
0000
0010
0001
0000
0000
0100
,
0000
0000
0001
0000
0010
0000
0000
0001
,
0000
0000
0000
0010
0200
0300
0000
1000
,
0000
0000
0000
0010
0200
0300
0000
0001
,
1000
0000
0010
0000
1000
0000
0000
0001
,
0000
0000
0000
0010
0200
0300
0000
0000
,
1000
0000
0100
0000
,
0020
0000
0000
0030
0000
0000
0001
0000
,
0100
0010
1000
0000
,
0002
0000
0000
0000
0003
0000
1000
0100
,
0000
0000
0000
1000
0100
0000
0000
0000
,
2000
0000
3000
0000
,
0001
0000
0100
0000
,
0020
0000
0030
0000
,
1000
1000
0000
0000
,
0001
0001
0000
0000
,
1000
1000
0000
0000
,
0001
0001
0000
0000
,
0100
0000
0010
0000
,
0100
0000
0001
0001
,
0001
0001
1000
0000
,
1000
1000
0010
0000
,
1000
0000
1000
0000
0100
0000
0000
1000
,
0000
0001
0000
0010
0001
0000
0000
0100
,
0000
0000
0001
0000
0010
0000
0000
0001
,
0000
0000
0000
0010
0200
0300
0000
1000
,
0000
0000
0000
0010
0200
0300
0000
0001
,
1000
0000
0010
0000
1000
0000
0000
0001
,
0000
0000
0000
0010
0200
0300
0000
0000
,
1000
1000
0010
0000
,
1000
0000
1000
0000
0100
0000
0000
1000
,
0000
0001
0000
0010
0001
0000
0000
0100
,
0000
0000
0001
0000
0010
0000
0000
0001
,
0000
0000
0000
0010
0200
0300
0000
1000
,
0000
0000
0000
0010
0200
0300
0000
0001
,
1000
0000
0010
0000
1000
0000
0000
0001
,
0000
0000
0000
0010
0200
0300
0000
0001
;

//--------------- dance-single - notgreater ----------------
#NOTEDATA:;
#STEPSTYPE:dance-single;
#DESCRIPTION:notgreater;
#DIFFICULTY:Medium;
#METER:7;
#RADARVALUES:0,0,0,0,0;
#NOTES:
0000
0000
0000
0000
,
0000
0000
0000
0000
,
0000
0000
0000
0000
,
0000
0000
0000
0000
,
0000
0000
0000
0000
,
0000
0000
0000
0000
,
0000
0000
0000
0000
,
0000
0000
0000
0000
,
0001
1000
0001
1000
,
0001
1000
0001
1000
,
0001
1000
0001
1000
,
0001
1000
0001
1000
,
0001
0001
0000
0000
1000
1000
0000
0000
,
0010
0010
0000
0000
0100
0100
0000
0000
,
0001
0001
0000
0000
1000
1000
0000
0000
,
0010
0010
0000
0000
1001
0000
0000
0000
,
1000
0000
1000
0001
0010
0000
0000
0001
,
1000
0000
1000
0000
0010
0000
0000
1000
,
0001
0010
0001
0000
1000
0000
0000
0100
,
0000
1000
0100
0010
0100
0000
0000
1000
,
0000
0001
0100
0010
1000
0000
0000
0001
,
0000
1000
0010
0100
0001
0000
0000
1000
,
0001
0010
0001
0000
1000
0000
0100
1000
,
0000
0001
0010
0100
0010
0000
0000
0001
,
1000
0000
1000
0001
0010
0000
0000
0001
,
1000
0000
1000
0000
0010
0000
0000
1000
,
0001
0010
0001
0000
1000
0000
0000
0100
,
0000
1000
0100
0010
0100
0000
0000
1000
,
0000
0001
0100
0010
1000
0000
0000
0001
,
0000
1000
0010
0100
0001
0000
0000
1000
,
0001
0010
0001
0000
1000
0000
0100
1000
,
0000
0001
0010
0100
0010
0000
0000
0001
,
1000
0000
0100
0000
0010
0000
0001
0010
,
0000
0001
0000
1000
0000
0001
0000
0000
0010
0000
0000
0000
0001
0000
0010
0000
,
0001
0000
1000
0000
0001
0010
0100
1000
,
0000
0001
0000
1000
0000
0001
0000
0000
0010
0000
0000
0000
0001
0000
1000
0000
,
0100
0000
1000
0000
0001
0010
0100
1000
,
0000
0001
0000
1000
0000
0001
0000
0000
1000
0000
0000
0000
0100
0000
0000
0000
,
1000
0000
0100
0000
0010
0000
0001
0010
,
0000
0001
0000
1000
0000
0001
0000
0000
0010
0000
0000
0000
0001
0000
0000
0000
,
1000
0000
0100
0000
0010
0000
0001
0010
,
0000
0001
0000
1000
0000
0001
0000
0000
0010
0000
0000
0000
0001
0000
0010
0000
,
0001
0000
1000
0000
0001
0010
0100
1000
,
0000
0001
0000
1000
0000
0001
0000
0000
0010
0000
0000
0000
0001
0000
0000
0000
,
1000
0001
1000
0001
0100
0000
0010
0000
,
1000
0001
1000
0001
0100
0000
0010
0000
,
1000
0001
1000
0001
0100
0000
0010
0000
,
1000
0001
1000
0001
0100
0000
0010
0000
,
1000
0000
1000
0001
0010
0000
0000
0001
,
1000
0000
1000
0000
0010
0000
0000
1000
,
0001
0010
0001
0000
1000
0000
0000
0100
,
0000
1000
0100
0010
0100
0000
0000
1000
,
0000
0001
0100
0010
1000
0000
0000
0001
,
0000
1000
0010
0100
0001
0000
0000
1000
,
0001
0010
0001
0000
1000
0000
0100
1000
,
0000
0001
0010
0100
0010
0000
0000
0001
,
1000
0000
1000
0001
0010
0000
0000
0001
,
1000
0000
1000
0000
0010
0000
0000
1000
,
0001
0010
0001
0000
1000
0000
0000
0100
,
0000
1000
0100
0010
0100
0000
0000
1000
,
0000
0001
0100
0010
1000
0000
0000
0001
,
0000
1000
0010
0100
0001
0000
0000
1000
,
0001
0010
0001
0000
1000
0000
0100
1000
,
0000
0001
0010
0100
0010
0000
0000
0001
,
1000
0100
0010
0001
,
2000
0000
0000
3000
0000
0000
0001
0010
,
0100
0000
0010
0100
1000
0000
0000
0200
,
2000
0000
0000
0000
3300
0000
0001
0010
,
0100
0000
0000
1000
0001
0000
0100
0010
,
2000
0000
0000
0000
3000
0000
0000
0001
,
1000
0001
0010
0100
,
0010
0000
1001
0000
,
1000
0001
1000
0001
0000
0000
0000
0000
,
1000
0001
1000
0001
0000
0000
0000
0000
,
1000
0001
1000
0001
0000
0000
0000
0000
,
1000
0001
1000
0001
0000
0000
0000
0000
,
0110
0000
0000
0000
0001
0000
0000
0020
,
0130
0000
0001
0001
,
0001
0001
1001
0000
,
1000
0000
1000
0001
0010
0000
0000
0001
,
1000
0000
1000
0000
0010
0000
0000
1000
,
0001
0010
0001
0000
1000
0000
0000
0100
,
0000
1000
0100
0010
0100
0000
0000
1000
,
0000
0001
0100
0010
1000
0000
0000
0001
,
0000
1000
0010
0100
0001
0000
0000
1000
,
0001
0010
0001
0000
1000
0000
0100
1000
,
0000
0001
0010
0100
0010
0000
0000
0001
,
1000
0000
1000
0001
0010
0000
0000
0001
,
1000
0000
1000
0000
0010
0000
0000
1000
,
0001
0010
0001
0000
1000
0000
0000
0100
,
0000
1000
0100
0010
0100
0000
0000
1000
,
0000
0001
0100
0010
1000
0000
0000
0001
,
0000
1000
0010
0100
0001
0000
0000
1000
,
0001
0010
0001
0000
1000
0000
0100
1000
,
0000
0001
0010
0100
0010
0000
0000
0001
;

//--------------- dance-single - notgreater ----------------
#NOTEDATA:;
#STEPSTYPE:dance-single;
#DESCRIPTION:notgreater;
#DIFFICULTY:Hard;
#METER:9;
#RADARVALUES:0,0,0,0,0;
#NOTES:
0000
0000
0000
0000
,
0000
0000
0000
0000
,
0000
0000
0000
0000
,
0000
0000
0000
0000
,
0000
0000
0000
0000
,
0000
0000
0000
0000
,
0000
0000
0000
0000
,
0000
0000
0000
0000
,
0001
1000
0001
1000
,
0001
1000
0001
1000
,
0001
1000
0001
1000
,
0001
1000
0001
1000
,
0001
0000
0100
0100
0010
0000
1000
1000
,
0001
0000
0100
0100
0010
0000
1000
1000
,
0001
0000
0100
0100
0010
0000
1000
1000
,
0001
0000
0100
0100
1001
0000
0000
0000
,
1000
0000
0100
0000
1000
0000
0001
0000
0010
0000
0100
0000
0000
0000
1000
0001
,
0000
0000
0001
0000
0010
0000
0001
0000
1000
0000
0100
0000
0000
0000
1000
0010
,
1000
0001
0100
0010
1000
0000
0001
1000
,
0000
0000
0001
0000
0010
0000
0001
0000
1000
0000
0100
0000
0000
0000
1000
0001
,
0000
0000
0001
0000
0100
0000
0001
0000
1000
0000
0010
0000
0000
0000
1000
0001
,
0000
0000
0001
0000
0010
0000
0001
0000
1000
0000
0100
0000
0000
0000
1000
0010
,
1000
0001
0100
0010
1000
0000
0001
1000
,
0000
0000
0001
0000
0010
0000
0001
0000
1000
0000
0100
0000
0000
0000
0010
0100
,
0000
0000
0100
0000
1000
0000
0001
0000
0010
0000
0100
0000
0000
0000
1000
0001
,
0000
0000
0001
0000
0010
0000
0001
0000
1000
0000
0100
0000
0000
0000
1000
0010
,
1000
0001
0100
0010
1000
0000
0001
1000
,
0000
0000
0001
0000
0010
0000
0001
0000
1000
0000
0100
0000
0000
0000
1000
0001
,
0000
0000
0001
0000
0100
0000
0001
0000
1000
0000
0010
0000
0000
0000
1000
0001
,
0000
0000
0001
0000
0010
0000
0001
0000
1000
0000
0100
0000
0000
0000
1000
0010
,
1000
0001
0100
0010
1000
0000
0001
1000
,
0000
0000
0001
0000
0010
0000
0001
0000
1000
0000
0100
0000
0000
0000
0010
0100
,
1000
0000
0100
0000
0010
0000
0001
0010
,
0000
0001
0000
1000
0000
0100
0000
1000
0001
0000
0000
0000
1000
0000
0100
0000
,
1000
0000
0001
1000
0001
0100
0010
1000
,
0000
0001
0000
1000
0000
0010
0000
1000
0001
0000
0000
0000
0100
0000
0001
0000
,
1000
0001
0010
0100
1000
0001
1000
0100
,
0000
1000
0000
0001
0000
0010
0000
0001
0000
1000
0000
0000
0001
0000
0010
0001
,
1000
0000
0100
0000
0010
0000
0001
0010
,
0000
0001
0000
1000
0000
0100
0000
1000
0001
0000
0000
0000
1000
0000
0100
0000
,
1000
0000
0100
0000
0010
0000
0001
0010
,
0000
0001
0000
1000
0000
0100
0000
1000
0001
0000
0000
0000
1000
0000
0100
0000
,
1000
0000
0001
1000
0001
0100
0010
1000
,
0000
0001
0000
1000
0000
0010
0000
1000
0001
0000
0000
0000
0100
0000
0001
0000
,
1000
0001
1000
0001
0100
0000
0110
0000
,
1000
0001
1000
0001
0100
0000
0101
0000
,
1000
0001
1000
0001
0100
0000
0110
0000
,
1000
0001
1000
0001
0100
0000
1001
0000
,
1000
0000
0100
0000
1000
0000
0001
0000
0010
0000
0100
0000
0000
0000
1000
0001
,
0000
0000
0001
0000
0010
0000
0001
0000
1000
0000
0100
0000
0000
0000
1000
0010
,
1000
0001
0100
0010
1000
0000
0001
1000
,
0000
0000
0001
0000
0010
0000
0001
0000
1000
0000
0100
0000
0000
0000
1000
0001
,
0000
0000
0001
0000
0100
0000
0001
0000
1000
0000
0010
0000
0000
0000
1000
0001
,
0000
0000
0001
0000
0010
0000
0001
0000
1000
0000
0100
0000
0000
0000
1000
0010
,
1000
0001
0100
0010
1000
0000
0001
1000
,
0000
0000
0001
0000
0010
0000
0001
0000
1000
0000
0100
0000
0000
0000
0010
0100
,
0000
0000
0100
0000
1000
0000
0001
0000
0010
0000
0100
0000
0000
0000
1000
0001
,
0000
0000
0001
0000
0010
0000
0001
0000
1000
0000
0100
0000
0000
0000
1000
0010
,
1000
0001
0100
0010
1000
0000
0001
1000
,
0000
0000
0001
0000
0010
0000
0001
0000
1000
0000
0100
0000
0000
0000
1000
0001
,
0000
0000
0001
0000
0100
0000
0001
0000
1000
0000
0010
0000
0000
0000
1000
0001
,
0000
0000
0001
0000
0010
0000
0001
0000
1000
0000
0100
0000
0000
0000
1000
0010
,
1000
0001
0100
0010
1000
0000
0001
1000
,
0000
0000
0001
0000
0010
0000
0001
0000
1000
0000
0100
0000
0000
0000
0010
0100
,
1000
0100
0010
0001
,
2000
0000
0000
3000
0000
0000
0001
0010
,
0100
0000
0010
0100
1000
0000
0000
0200
,
2000
0000
0000
0000
3300
0000
0001
0010
,
0100
0000
0000
1000
0001
0000
0100
0010
,
2000
0000
0000
0000
3000
0000
0000
0001
,
1000
0001
0010
0100
,
0010
0000
1001
0000
,
1000
0001
1000
0001
0000
0000
0000
0000
,
1000
0001
1000
0001
0000
0000
0000
0000
,
1000
0001
1000
0001
0000
0000
0000
0000
,
1000
0001
1000
0001
0000
0000
0000
0000
,
0110
0000
0000
0000
0001
0000
0000
0020
,
0130
0000
0001
0001
,
0001
0001
1001
0000
,
1000
0000
0100
0000
1000
0000
0001
0000
0010
0000
0100
0000
0000
0000
1000
0001
,
0000
0000
0001
0000
0010
0000
0001
0000
1000
0000
0100
0000
0000
0000
1000
0010
,
1000
0001
0100
0010
1000
0000
0001
1000
,
0000
0000
0001
0000
0010
0000
0001
0000
1000
0000
0100
0000
0000
0000
1000
0001
,
0000
0000
0001
0000
0100
0000
0001
0000
1000
0000
0010
0000
0000
0000
1000
0001
,
0000
0000
0001
0000
0010
0000
0001
0000
1000
0000
0100
0000
0000
0000
1000
0010
,
1000
0001
0100
0010
1000
0000
0001
1000
,
0000
0000
0001
0000
0010
0000
0001
0000
1000
0000
0100
0000
0000
0000
0010
0100
,
0000
0000
0100
0000
1000
0000
0001
0000
0010
0000
0100
0000
0000
0000
1000
0001
,
0000
0000
0001
0000
0010
0000
0001
0000
1000
0000
0100
0000
0000
0000
1000
0010
,
1000
0001
0100
0010
1000
0000
0001
1000
,
0000
0000
0001
0000
0010
0000
0001
0000
1000
0000
0100
0000
0000
0000
1000
0001
,
0000
0000
0001
0000
0100
0000
0001
0000
1000
0000
0010
0000
0000
0000
1000
0001
,
0000
0000
0001
0000
0010
0000
0001
0000
1000
0000
0100
0000
0000
0000
1000
0010
,
1000
0001
0100
0010
1000
0000
0001
1000
,
0000
0000
0001
0000
0010
0000
0001
0000
1000
0000
0100
0000
0000
0000
0010
0100
;
