#VERSION:0.83;
#TITLE:Guillotina;
#SUBTITLE:Mewgenics;
#ARTIST:Ridiculon;
#TITLETRANSLIT:;
#SUBTITLETRANSLIT:;
#ARTISTTRANSLIT:;
#GENRE:;
#CREDIT:notgreater;
#MUSIC:Guillotina - Mewgenics.ogg;
#BANNER:Guillotina-bn.png;
#BACKGROUND:Guillotina-bg.png;
#CDTITLE:;
#SAMPLESTART:24.853143;
#SAMPLELENGTH:12.642857;
#SELECTABLE:YES;
#OFFSET:0.004000;
#BPMS:0.000000=140.000000;
#STOPS:;
#SPEEDS:0.000000=1.000000=0.000000=0;
#SCROLLS:0.000000=1.000000;
#TICKCOUNTS:0.000000=4;
#TIMESIGNATURES:0.000000=4=4;
#LABELS:0.000000=Song Start;
#COMBOS:0.000000=1;
#BGCHANGES:;
#FGCHANGES:;

//--------------- dance-single - notgreater ----------------
#NOTEDATA:;
#STEPSTYPE:dance-single;
#DESCRIPTION:notgreater;
#DIFFICULTY:Beginner;
#METER:1;
#RADARVALUES:0,0,0,0,0;
#NOTES:
0000
0000
0000
0000
,
0000
0000
0000
0000
,
1000
0000
0001
0000
,
0100
0000
0010
0000
,
1000
0000
0001
0000
,
0100
0000
0010
0000
,
2000
0000
0000
0000
0000
3000
0000
0000
,
0100
0000
0010
0000
,
0100
0000
1000
0000
,
0100
0000
0010
0000
,
0001
0000
0000
0000
0000
0000
0000
0000
0000
0000
0000
0000
1000
0000
0000
0000
0000
1000
0000
0000
0000
1000
0000
0000
,
0000
1000
0000
0000
0000
0000
0000
0000
0000
0000
0000
0000
0010
0000
0000
0000
0000
0000
0000
0000
0000
0000
0000
0000
,
0010
0000
0000
0000
0000
0000
0000
0000
0000
0000
0000
0000
0100
0000
0000
0000
0000
0100
0000
0000
0000
0100
0000
0000
,
0000
0100
0000
0000
0000
0000
0000
0000
0000
0000
0000
0000
0010
0000
0000
0000
0000
0000
0000
0000
0000
0000
0000
0000
,
0010
0000
0000
0000
0000
0000
0000
0000
0000
0000
0000
0000
1000
0000
0000
0000
0000
1000
0000
0000
0000
1000
0000
0000
,
0000
1000
0000
0000
0000
0000
0000
0000
0000
0000
0000
0000
0010
0000
0000
0000
0000
0000
0000
0000
0000
0000
0000
0000
,
1000
0000
0100
0000
,
0020
0000
0030
0000
,
0001
0001
0001
0001
,
0000
0000
0000
0000
0000
0000
0100
0000
0100
0000
0100
0000
,
0100
0000
0010
0000
,
1000
0000
0100
0000
,
1000
0000
0000
1000
0000
0000
1000
0000
,
0000
0000
0000
0000
0000
0000
0000
0000
0000
0001
0000
0000
0000
0001
0000
0000
0000
0001
0000
0000
0000
0000
0000
0000
,
1000
0000
0010
0000
,
0100
0000
0001
0000
,
1000
0000
0001
0000
,
0100
0000
0010
0000
,
1000
0000
0001
0000
,
0100
0000
0010
0000
,
1000
0000
0001
0000
,
0100
0000
0010
0000
,
1000
0000
0001
0001
,
0001
0001
0001
0000
,
1000
1000
1000
1000
,
0000
0000
0000
0000
0000
0000
0010
0000
0010
0000
0010
0000
,
0010
0000
0100
0000
,
0001
0000
0010
0000
,
0001
0000
0000
0001
0000
0000
0001
0000
,
0000
0000
0000
0000
0000
0000
0000
0000
0000
1000
0000
0000
0000
1000
0000
0000
0000
1000
0000
0000
0000
0000
0000
0000
,
0001
0000
0100
0000
,
0010
0000
0000
0000
1000
0000
0002
0003
,
0000
0000
2000
3000
0000
0000
0020
0030
,
0000
0000
1000
0000
,
0002
0003
0000
0000
0020
0030
0000
0000
,
0200
0300
0000
0000
1000
0000
0000
0000
,
0000
0000
0002
0003
0000
0000
0200
0300
,
0000
0000
0000
0000
0002
0003
0000
0000
,
1000
0000
0100
0000
,
0010
0000
0001
0000
,
1000
1000
1000
1000
,
0010
0000
0000
0010
0000
0000
0010
0000
,
0000
0000
0000
0000
0000
0000
0000
0000
0000
1000
0000
0000
0000
1000
0000
0000
0000
1000
0000
0000
0000
0000
0000
0000
,
0001
0000
0100
0000
,
0010
0000
1000
0000
,
0001
0000
0010
0000
,
0002
0003
0200
0300
,
0000
0001
0000
0000
,
0200
0300
0020
0030
,
2000
3000
0000
0000
0200
0300
0000
0000
,
0020
0030
0001
0000
,
1000
0000
0000
0000
;

//--------------- dance-single - notgreater ----------------
#NOTEDATA:;
#STEPSTYPE:dance-single;
#DESCRIPTION:notgreater;
#DIFFICULTY:Easy;
#METER:3;
#RADARVALUES:0,0,0,0,0;
#NOTES:
0000
0000
0000
0000
,
0000
0000
0000
0000
,
1000
0010
1000
0010
,
0100
0001
0100
0001
,
1000
0010
1000
0010
,
1000
0001
0010
0100
,
2000
0000
0000
0000
0000
3000
0000
0000
,
0001
0000
0000
1000
0000
0001
0000
0100
,
0000
0010
0000
0000
0000
1000
0000
0010
,
0000
1000
0200
0300
,
1000
0000
0000
0000
0100
0000
0000
0000
1000
0000
0000
0010
0000
0000
0000
0000
,
0000
1000
0100
0010
,
0002
0003
0020
0030
0200
0300
2000
3000
,
0002
0000
0003
1000
0000
0010
0000
2000
,
0000
0000
0000
0000
0000
0000
3000
0000
0000
0000
0000
0000
1000
0000
0000
0000
0000
0100
0000
0000
0000
0100
0000
0000
,
0000
1000
0000
0000
0000
0000
0000
0000
0000
0001
0000
0000
0000
0000
0000
0100
0000
0000
0000
0000
0000
0000
0000
0000
,
0002
0003
0010
0001
,
0200
0000
0000
0300
,
0001
1000
0010
0100
,
0001
0000
0000
0001
0000
0000
1000
0000
0010
0000
0010
0000
,
0100
0001
0001
0100
,
0002
0000
0023
0000
0230
0000
2300
3000
,
0001
0000
0000
0010
0000
0000
0010
0000
,
0001
0000
0000
0000
0000
0000
0000
0000
0000
1000
0000
0000
0000
0010
0000
0000
0000
0010
0000
0000
0000
0000
0000
0000
,
1000
0100
0010
0001
,
1000
0100
0010
0000
,
0001
0100
0001
0100
,
0010
1000
0010
1000
,
0001
0100
0001
0100
,
0001
1000
0100
0010
,
0001
0100
0001
0100
,
0010
1000
0010
1000
,
0001
0100
0001
1000
,
1000
1000
1000
0000
,
0001
1000
0010
0100
,
0001
0000
0000
0001
0000
0000
1000
0000
0010
0000
0010
0000
,
0100
0001
0001
1000
,
0020
0030
1000
1000
,
0001
0000
0000
0010
0000
0000
0010
0000
,
0001
0000
0000
0000
0000
0000
0000
0000
0000
1000
0000
0000
0000
0010
0000
0000
0000
0010
0000
0000
0000
0000
0000
0000
,
1000
0100
0010
0001
,
1000
0000
0100
0000
0010
0000
0002
0003
,
0000
0000
2000
3000
0200
0300
0020
0030
,
0002
0003
1000
0000
1000
0000
0000
0000
,
2000
3000
0000
0000
0002
0003
2000
3000
,
0020
0030
0000
0000
1000
0000
0010
0000
,
0100
0000
0002
0003
0020
0030
0200
0300
,
2000
3000
0000
0000
0002
0003
0000
0000
,
1000
0100
0010
0001
,
0200
0300
0200
0300
0020
0000
0030
0000
,
1000
0001
0100
0010
,
1000
0000
0000
0100
0000
0000
0100
0000
,
0000
0000
0000
0000
0000
0000
0000
0000
0000
1000
0000
0000
0000
0010
0000
0000
0000
0010
0000
0000
0000
0000
0000
0000
,
1000
0100
0010
0001
,
1000
0100
0010
0000
,
0001
1000
0001
0100
,
0002
0003
2000
3000
,
0000
0100
1000
0001
,
0020
0030
0200
0300
,
2000
3000
0200
0300
0020
0030
0002
0003
,
2000
3000
0010
1000
,
0001
0000
0000
0000
;

//--------------- dance-single - notgreater ----------------
#NOTEDATA:;
#STEPSTYPE:dance-single;
#DESCRIPTION:notgreater;
#DIFFICULTY:Medium;
#METER:7;
#RADARVALUES:0,0,0,0,0;
#NOTES:
0000
0000
0000
0000
,
0000
0000
0000
0000
,
0001
0100
0001
0100
,
0001
1000
0010
0000
1000
0000
0010
0000
,
1000
0010
0100
0000
0001
0000
0100
0000
,
0001
1000
0010
0100
0001
0010
0100
1000
,
0020
0000
0000
0000
0000
0000
0000
0000
0000
0000
0030
0000
0000
0000
1000
0100
,
0020
0030
0000
0001
0001
1000
1000
0010
,
0010
0000
0100
0000
0100
0000
0000
0000
0000
0000
0001
0000
0010
0000
0100
0010
,
0100
1000
0001
0010
0200
0000
0300
0000
,
1000
0000
0010
0000
0100
0000
0001
0000
1000
0000
0010
0100
0000
0000
0000
0000
,
0000
0020
0000
1030
0100
0010
0001
1000
,
0002
0003
0020
0030
0200
0300
2000
3000
,
0002
0000
0003
2000
3200
0320
0032
2003
,
0000
0000
0000
0000
0000
0000
3000
0000
0000
0000
0000
0000
1000
0000
0000
0000
0000
0100
0000
0000
0000
0100
0000
0000
,
0000
1000
0000
0000
0000
0000
0000
0000
0000
0001
0000
0000
0100
0000
0000
0001
0000
0000
1000
0000
0000
0010
0000
0000
,
2000
0000
3000
0001
0100
0000
0002
0000
,
2000
0000
0000
3003
,
1001
1001
1001
1001
,
1000
0000
0000
0100
0000
0000
1000
0000
0000
0000
0000
0000
0001
0000
0000
0000
0100
0000
0000
0000
0100
0000
0000
0000
,
0010
0000
0000
0000
1000
0000
0100
0000
1000
0000
0000
0000
0000
0010
2000
0000
,
3002
0000
0023
0000
0230
0000
2300
3000
,
1001
0000
0000
0020
0130
0000
0010
0000
,
1000
0000
0000
0100
0000
0000
0000
0000
0000
1000
0000
0000
0000
0010
0000
0000
0000
0010
0000
0000
0000
0000
0000
0000
,
1001
0110
1001
0110
,
1001
0110
1001
0000
,
1000
0010
1000
0010
,
1000
0001
0100
0000
0001
0000
0100
0000
,
0001
0100
0010
0000
1000
0000
0010
0000
,
1000
0001
0100
0010
1000
0100
0010
0001
,
1000
0010
1000
0010
,
1000
0001
0100
0000
0001
0000
0100
0000
,
0001
0100
0010
0000
1000
0000
0100
0000
,
0010
0000
0000
0000
0100
0000
0000
0000
1000
0000
0000
0010
0100
0010
0100
0000
,
1010
1010
1010
1010
,
1000
0000
0000
0100
0000
0000
1000
0000
0000
0000
0000
0000
0001
0000
0000
0000
0100
0000
0000
0000
0100
0000
0000
0000
,
0010
0000
1000
0100
1000
0000
0000
0001
,
2000
0000
3000
0001
0010
0001
1000
0100
,
1001
0000
0000
0020
0130
0000
0010
0000
,
1000
0000
0000
0100
0000
0000
0000
0000
0000
1000
0000
0000
0000
0010
0000
0000
0000
0010
0000
0000
0000
0000
0000
0000
,
1001
0110
1001
0110
,
1001
0000
0110
0000
1001
0000
2000
3001
,
0100
0001
0020
0031
0200
0301
2000
3001
,
0020
0000
0031
0000
0100
0000
0001
0000
0100
0000
0001
0010
0000
0010
0001
0000
,
0020
0031
0100
0001
0020
0031
0100
0001
,
2000
0000
3001
0000
0100
0000
0001
0000
0100
0000
0001
0010
0000
0010
0001
0000
,
0100
0001
0020
0031
0200
0301
2000
3001
,
0020
0000
0031
0000
2000
0000
3001
0000
0100
0000
0001
0010
0000
0010
0001
0000
,
0100
0001
0010
0100
1000
0100
0010
0001
,
0020
0230
2300
3000
,
0101
0101
0101
0101
,
1001
0000
0000
0020
0130
0000
0010
0000
,
1000
0000
0000
0010
0000
0000
0100
0000
0000
0001
0000
0000
0000
0100
0000
0000
0000
0100
0000
0000
0000
0000
0000
0000
,
1001
0110
1001
0110
,
1001
0110
1001
0000
,
1000
0000
0001
0000
1000
0010
0100
0010
,
2000
3000
0002
0003
,
0000
0000
0010
0000
0001
0100
0010
0100
,
0002
0003
2000
3000
,
0002
0103
0020
1030
0200
1300
0020
0130
,
0002
0000
0003
1000
0010
0100
0002
0000
,
1003
0000
0000
0000
;

//--------------- dance-single - notgreater ----------------
#NOTEDATA:;
#STEPSTYPE:dance-single;
#DESCRIPTION:notgreater;
#DIFFICULTY:Hard;
#METER:9;
#RADARVALUES:0,0,0,0,0;
#NOTES:
0000
0000
0000
0000
,
0000
0000
0000
0000
,
1000
0010
0100
0001
1000
0010
0100
0001
,
1000
0001
0100
0001
1000
0001
0100
0001
,
1000
0010
0100
0001
1000
0010
0100
0001
,
1000
0100
1000
0001
1000
0100
0010
0001
,
0220
0000
0000
0000
0000
0000
0000
0000
0000
0000
0330
0000
0000
0000
1000
0100
,
0020
0000
0030
0000
0000
0000
0001
0010
0001
0000
1000
0100
1000
0000
0001
1000
,
0001
0000
0010
0100
0010
0000
0000
0000
0000
0000
0001
0010
0001
0100
0010
1000
,
0100
1000
0001
0010
0001
1000
0100
0010
0002
0000
0000
0000
0003
0000
0000
0000
,
1000
0000
0010
0000
0100
0000
0001
0000
1000
0000
0010
0100
0000
0000
0000
0000
,
0000
0000
0020
0000
0000
0000
1030
0000
0001
0100
0010
1000
0100
1000
0001
0010
,
0002
0103
0020
1030
0200
1300
0020
0130
,
0002
0013
0001
2000
3200
0320
0032
2003
,
0200
0000
0000
0000
0000
0000
3300
0000
0000
0000
0000
0000
1000
0000
0000
0000
0000
0100
0000
0000
0000
0100
0000
0000
,
0000
1000
0000
0000
0000
0000
0000
0000
0000
0001
0000
0000
0100
0000
0000
0001
0000
0000
1000
0000
0000
0010
0000
0000
,
2000
0000
3000
0001
0100
0000
0002
0000
,
2000
0000
0000
3003
,
1001
0101
0011
1001
,
1000
0000
0000
0010
0000
0000
1000
0000
0000
0010
0000
0000
0100
0000
0000
0000
0001
0000
0000
0000
0001
0000
0000
0000
,
0100
0000
0010
0000
1000
0000
0010
0000
1000
0000
0010
0000
1000
0001
0200
0000
,
0302
0000
0023
0000
0230
0000
2300
3000
,
1001
0000
0000
0020
0130
0000
0110
0000
,
1000
0000
0000
0010
0000
0000
1000
0000
0000
0001
0000
0000
0000
0100
0000
0000
0000
0100
0000
0000
0000
0000
0000
0000
,
1001
0101
0011
1001
,
1010
1100
1001
0000
,
1000
0010
0100
0001
1000
0010
0100
0001
,
1000
0001
0100
0001
1000
0001
0100
0001
,
1000
0010
0100
0001
1000
0010
0100
0001
,
1000
0100
1000
0001
1000
0100
0010
0001
,
1000
0010
0100
0001
1000
0010
0100
0001
,
1000
0001
0100
0001
1000
0001
0100
0001
,
1000
0010
0100
0001
2100
0000
0010
0000
,
0001
0000
0000
0000
0010
0000
0000
0000
0100
0000
0000
0010
0000
0010
3000
0000
,
1001
0101
0011
1001
,
1000
0000
0000
0010
0000
0000
1000
0000
0000
0010
0000
0000
0100
0000
0000
0000
0001
0000
0000
0000
0001
0000
0000
0000
,
0100
0010
1000
0010
1000
0010
1000
0001
,
0200
0000
0000
0000
0301
0000
0010
0000
0001
0000
0010
0000
0100
1000
0100
0000
,
1001
0000
0000
0020
0130
0000
0110
0000
,
1000
0000
0000
0010
0000
0000
1000
0000
0000
0001
0000
0000
0000
0100
0000
0000
0000
0100
0000
0000
0000
0000
0000
0000
,
1001
0101
0011
1001
,
1010
0000
1100
0000
1001
0000
2000
3001
,
0100
0000
0001
0000
0020
0000
0031
0000
0200
0000
0301
1000
0100
1000
0001
0000
,
2000
0000
3001
0000
0100
0000
0001
0000
0100
0000
0001
1000
0100
1000
0001
0000
,
0020
0000
0031
0000
0100
0000
0001
0000
0020
0000
0031
1000
0100
1000
0001
0000
,
2000
0000
3001
0000
0100
0000
0001
0000
0100
0000
0001
1000
0100
1000
0001
0000
,
0100
0000
0001
0000
0020
0000
0031
0000
0200
0000
0301
1000
0100
1000
0001
0000
,
1000
0100
0010
0000
0200
0000
0301
0000
2000
0000
3001
1000
0100
1000
0001
0000
,
0100
0001
0010
0100
1000
0100
0010
0001
,
0020
0230
2300
3000
,
1001
0110
0011
1100
,
1001
0000
0000
0200
0310
0000
0110
0000
,
1000
0000
0000
0010
0000
0000
0100
0000
0000
0001
0000
0000
0100
0000
0000
0010
0000
0000
1000
0000
0000
0000
0000
0000
0000
0000
0010
0000
0000
0000
0000
0000
0000
0000
0010
0000
0000
0000
0000
0000
0000
0000
0000
0000
0000
0000
0000
0000
,
1001
0101
0011
1001
,
1010
1100
1001
0000
,
1000
0000
0001
0000
1000
0010
0100
0010
,
2000
3000
0002
0003
,
0000
0000
0010
0000
0001
0100
0010
0100
,
0002
0003
2000
3000
,
0002
0103
0020
1030
0200
1300
0020
0130
,
0002
0000
0003
0001
0100
0010
2000
0000
,
3001
0000
0000
0000
;
