#TITLE:Where's my head Sekibanki-chan;
#SUBTITLE:;
#ARTIST:nanano;
#TITLETRANSLIT:;
#SUBTITLETRANSLIT:;
#ARTISTTRANSLIT:;
#GENRE:;
#CREDIT:;
#BANNER:Where's my head Sekibanki-chan-bn.jpg;
#BACKGROUND:Where's my head Sekibanki-chan.jpg;
#LYRICSPATH:;
#CDTITLE:cdtitle_ukiarrow.png;
#MUSIC:Where Is My Head.mp3;
#OFFSET:0.400000;
#SAMPLESTART:92.619949;
#SAMPLELENGTH:8.999999;
#SELECTABLE:YES;
#BPMS:0.000000=109.000000
,21.000000=218.000000
,349.000000=109.000000
,381.000000=218.000000
;
#STOPS:
;
#BGCHANGES:0.688=Where's my head Sekibanki-chan.mp4=1.000=0=0=1=====,
99999=-nosongbg-=1.000=0=0=0 // don't automatically add -songbackground-
;
#KEYSOUNDS:;
#ATTACKS:;

//---------------dance-single - ----------------
#NOTES:
     dance-single:
     :
     Hard:
     14:
     0.814407,1.114650,0.222858,0.150968,0.190508,793.000000,762.000000,31.000000,21.000000,0.000000,0.000000,0.814407,1.114650,0.222858,0.150968,0.190508,793.000000,762.000000,31.000000,21.000000,0.000000,0.000000:
0000
0000
0000
0000
,
0000
0000
0000
0000
1000
0100
1000
0100
0010
0001
0100
0000
0001
0100
0010
1000
,
0001
0000
0000
0000
0001
0010
0001
0010
0100
1000
0100
0000
1000
0100
0010
0001
,
1000
0000
0000
0000
1000
0100
1000
0100
0010
0001
1000
0000
0001
0100
0010
1000
,
0001
0000
0000
0000
0001
0100
0001
0100
0010
1000
0001
0100
0000
0010
0100
0001
,
1000
0001
1000
0001
1000
0000
0100
0000
1000
0000
0001
0000
0100
0000
0010
0000
,
0100
0001
1000
0010
1000
0001
0100
0010
,
0100
0000
0001
0100
0001
0100
0001
0100
,
0001
0100
0001
0000
0010
0000
2002
0000
,
3003
0000
0001
0010
0001
1000
0010
0100
,
0010
1000
0001
0100
0001
1000
0100
0010
,
0100
0000
1000
0010
1000
0010
1000
0010
,
1000
0010
1000
0000
0010
0000
2002
0000
,
3003
0000
0110
0000
1001
0000
0001
0100
,
0001
1000
0100
0010
0001
1000
0000
0000
,
0000
0000
0001
0001
1000
0010
0100
0001
,
1000
0000
0000
0001
0000
0000
1000
0000
0100
0000
0010
0000
0001
0000
0000
1000
0000
0000
0001
0000
0000
0000
0000
0000
,
0000
0000
1000
0000
0001
0010
0100
1000
,
0100
0010
0001
1000
0001
0100
0000
0000
,
0000
0000
0010
1000
0001
1000
0100
0010
,
0001
0000
0000
1000
0000
0000
0001
0000
0010
0000
0100
0000
1000
0000
0000
0001
0000
0000
2000
0000
0000
0000
0000
0000
,
3000
0000
0001
0010
0100
0010
0001
0100
,
0010
0100
0001
1000
0100
1000
0001
0010
,
0100
1000
0001
0100
0001
0100
0001
0010
,
0100
0010
0001
1000
0001
1000
0010
0100
,
0001
0000
1000
0000
0010
0000
0000
0100
0000
0000
0001
0000
0010
0000
0000
0000
,
0001
0000
0010
0000
1000
0000
0000
0010
0000
0000
0001
0000
0100
0000
0000
1000
,
0000
0100
0001
1000
0001
1000
0001
1000
,
0001
0000
1000
0001
0000
1000
0100
0010
,
0001
0000
1000
0000
0010
0000
0100
0010
0100
0000
0010
0000
1000
0000
0001
0000
,
1000
0000
0001
0010
1000
0010
0010
0010
,
0001
0100
1000
0100
0100
0100
0010
1000
,
0001
0000
1000
0010
0001
0010
0010
0010
,
1000
0100
0000
0110
0000
0010
0011
0001
,
1000
0000
1000
0100
0001
0100
0100
0100
,
1000
0010
0001
0010
0010
0010
0100
0001
,
1000
0000
0001
0100
1000
0100
0100
0100
,
0001
0010
0000
0110
0000
0100
1100
1000
,
0010
1000
1000
0100
1000
0100
0010
0001
,
0100
0000
0001
0100
0010
1000
0001
0000
,
0000
0000
0001
0010
0001
0010
0100
1000
,
0100
0000
1000
0100
0010
0001
1000
0000
,
0000
0000
1000
0100
1000
0100
0010
0001
,
1000
0000
0001
0100
0010
1000
0001
0000
,
0000
0000
0001
0100
0001
0100
0010
1000
,
0001
0100
0000
0010
0100
0001
1000
0001
,
1000
0001
1000
0100
1000
0001
0100
0010
,
0100
0001
1000
0010
1000
0001
0100
0010
,
0100
0000
0001
0100
0001
0100
0001
0100
,
0001
0100
0001
0000
0010
0000
2002
0000
,
3003
0000
0001
0010
0001
1000
0010
0100
,
0010
1000
0001
0100
0001
1000
0100
0010
,
0100
0000
1000
0010
1000
0010
1000
0010
,
1000
0010
1000
0000
0010
0000
2002
0000
,
3003
0000
0110
0000
1001
0000
0001
0100
,
0001
1000
0100
0010
0001
1000
0000
1000
,
0001
0000
0001
0001
1000
0010
0100
0001
,
1000
0000
0000
0001
0000
0000
1000
0000
0100
0000
0010
0000
0001
0000
0000
1000
0000
0000
0002
0000
0000
0000
0000
0000
,
1003
0000
1000
0001
0010
0100
0000
1000
,
0100
0010
0001
1000
0001
0200
0000
0310
,
1000
0000
1000
0001
1000
0200
0000
0310
,
0001
0000
0000
1000
0000
0000
0001
0000
0010
0000
0100
0000
1000
0000
0000
0001
0000
0000
2000
0000
0000
0000
0000
0000
,
3001
0000
0001
0010
0100
0010
0001
0100
,
0010
0100
0001
1000
0100
1000
0001
0010
,
0100
1000
0001
0100
0001
0100
0001
0010
,
0100
0010
0001
1000
0001
1000
0010
0100
,
0001
0000
1000
0000
0010
0000
0000
0100
0000
0000
0001
0000
0010
0000
0000
0000
,
0001
0000
0010
0000
1000
0000
0000
0010
0000
0000
0001
0000
0100
0000
0000
1000
,
0000
0100
0001
1000
0001
1000
0001
1000
,
0001
0000
1000
0001
0000
1000
0100
0010
,
0001
1000
0200
0000
0000
0000
0000
0000
,
0300
0000
0010
0010
0100
1000
1000
0100
,
0010
0010
0001
0010
0010
0100
0110
0000
,
1001
0000
0100
0100
0001
0100
0100
0010
,
1000
1000
0000
0110
0000
0000
1001
0000
,
0001
0001
1000
1000
0010
0100
0100
0001
,
0010
0010
0100
1000
1000
0001
0100
0010
,
0100
0000
0010
0010
1000
0001
0001
0100
,
0010
0010
0000
0110
0000
0000
1001
1000
,
0100
0000
1000
0010
0100
0001
0010
0100
,
1000
0000
0001
0010
0100
1000
1001
0000
,
0000
0000
0001
0010
0100
1000
0010
0100
,
0001
0000
1000
0010
0100
0001
1001
0000
,
0000
0000
0001
0100
0010
1000
0100
0010
,
0001
0000
1000
0100
0010
0001
1001
0000
,
0000
0000
0001
0010
0100
0010
0100
1000
,
0001
0100
0000
0000
0020
0030
0200
0300
,
0000
0000
0020
0000
1030
0001
1000
0010
,
0100
0000
0000
0000
0010
0000
0100
0001
0100
0000
0001
1000
0001
0000
0010
0100
,
1000
0000
0000
0000
0010
0000
1000
0000
0001
0000
0100
0000
0010
0000
0100
0001
,
1000
0000
0000
0000
0100
1000
0100
0000
1000
0000
0001
0100
0010
0000
1000
0001
,
0010
0000
0200
0000
1300
0001
0100
0001
,
0100
0000
0000
0000
0010
0000
1000
0001
0100
0000
0001
1000
0100
0010
0100
0010
,
0100
0000
0000
0000
0020
0000
0031
0000
0020
0000
0031
0000
1000
0000
0100
0100
,
1000
0000
0000
0000
0010
1000
0001
0100
0010
0000
0200
0000
0301
0000
1000
0001
,
0010
0100
1000
1000
0100
0010
0010
0001
,
1000
1000
0100
0010
0010
0001
0100
0010
,
1000
0000
0001
0001
0100
0010
0010
1000
,
0001
0010
0000
0110
0000
0000
1001
0100
,
0010
0000
0001
0001
0010
0100
0100
1000
,
0010
0010
0100
0001
0001
0010
0001
1000
,
0001
0000
0100
0100
0010
1000
1000
0100
,
0010
0010
0000
0110
0000
0000
1001
1000
,
0001
1000
0010
0100
0010
1000
0100
0010
,
0001
0000
0001
0010
0100
1000
1001
0000
,
0000
0000
0001
0100
0010
1000
0100
0010
,
0001
0000
0001
0010
0100
1000
1001
0000
,
0000
0000
1000
0100
0010
0001
0100
0010
,
1000
0000
1000
0010
0100
0001
0110
0000
,
0000
0000
0100
0010
1000
0100
0010
0001
,
0100
0010
0000
0110
0000
0101
1001
0000
;

//---------------dance-single - ----------------
#NOTES:
     dance-single:
     :
     Medium:
     11:
     0.697330,0.875796,0.158157,0.237236,0.147374,679.000000,657.000000,22.000000,33.000000,0.000000,0.000000,0.697330,0.875796,0.158157,0.237236,0.147374,679.000000,657.000000,22.000000,33.000000,0.000000,0.000000:
0000
0000
0000
0000
,
0000
0000
0000
0000
0100
0010
0001
0000
0001
0010
0100
0000
1000
0001
0000
0001
,
1000
0000
0000
0000
0001
0010
0100
0000
1000
0100
0010
0000
0001
1000
0000
1000
,
0001
0000
0000
0000
1000
0100
0010
0000
0001
0010
0100
0000
0001
1000
0000
1000
,
0001
0000
0000
0000
0100
0010
0001
0000
0100
0010
1000
0000
0001
0100
0000
0010
,
1000
1000
0001
0100
0001
1000
0100
1000
,
0001
0010
0001
1000
0010
1000
0001
0010
,
0001
2000
0100
0100
,
0100
3000
0010
2002
,
3003
0000
1000
0010
1000
0001
0010
0001
,
1000
0100
1000
0001
0100
0001
1000
0100
,
1000
0002
0010
0010
,
0010
0003
0010
2002
,
3003
0000
1000
0000
0001
0000
1000
0100
,
0010
0001
0010
0100
1000
0001
0000
0000
,
0000
0000
0001
0010
0100
0000
1000
0100
,
0010
0000
0000
0001
0000
0000
1000
0000
0001
0000
1000
0000
0001
0000
0000
1000
0000
0000
0001
0000
0000
0000
0000
0000
,
0000
0000
1000
0000
0001
0000
1000
0100
,
0010
0001
0010
0100
1000
0001
0000
0000
,
0000
0000
1000
0100
0010
0001
0010
0100
,
1000
0000
0000
0000
0000
0000
0001
0000
1000
0000
0001
0000
1000
0000
0000
0001
0000
0000
2000
0000
0000
0000
0000
0000
,
3000
0000
0001
0100
0001
0100
0001
0000
,
0010
0000
0100
1000
0100
1000
0001
0010
,
0100
1000
0001
0000
1000
0100
1000
0100
,
0010
0001
0010
0000
0100
0000
2000
0000
,
3000
0000
0000
0000
1000
0000
0000
0010
0000
0000
0100
0000
0001
0000
0000
0000
,
0010
0000
0100
0000
1000
0000
0000
0010
0000
0000
0100
0000
0001
0000
0000
0010
,
0000
0100
2000
0000
0001
0000
0001
0000
,
3001
0000
1000
0001
0000
1000
0001
1000
,
0001
1000
0000
1000
0100
0010
0100
0010
,
0001
0000
0001
0010
0001
1000
0010
1000
,
0001
0100
0001
1000
0100
1000
0001
0000
,
1000
0000
0001
0100
0001
1000
0100
1000
,
0001
0010
0000
0110
0000
0000
0022
0033
,
0001
0000
1000
0100
1000
0001
0100
0001
,
1000
0010
1000
0001
0010
0001
1000
0010
,
1000
0000
0001
0010
0001
1000
0010
1000
,
0001
0100
0000
0110
0000
0000
0202
0000
,
0303
0000
1000
0100
0010
0001
0010
0100
,
1000
0000
0001
0010
0000
0100
1000
0000
,
0000
0000
0001
0010
0100
1000
0100
0010
,
0001
0000
1000
0100
0000
0010
0001
0000
,
0000
0000
1000
0010
0100
0001
0100
0010
,
1000
0000
0001
0100
0000
0010
1000
0000
,
0000
0000
0001
0100
0010
1000
0010
0100
,
0001
1000
0000
0010
0000
0100
0001
0000
,
1000
0000
0001
0100
0001
1000
0010
1000
,
0001
0010
0001
1000
0100
1000
0001
0010
,
0001
0000
0200
0000
,
0000
0300
0010
2002
,
3003
0000
1000
0010
1000
0001
0100
0001
,
1000
0100
1000
0001
0010
0001
1000
0100
,
1000
0020
0100
0100
,
0100
0030
0010
2002
,
3003
0000
0110
0000
1001
0000
0001
0100
,
0001
0000
1000
0100
0000
0220
0000
0330
,
0000
0000
0001
1000
0001
0010
0100
1000
,
0001
0000
0000
0000
0000
0000
1000
0000
0001
0000
1000
0000
0001
0000
0000
1000
0000
0000
0002
0000
0000
0000
0000
0000
,
0003
0000
1000
0100
0010
0001
0000
0010
,
0100
1000
0100
0010
0001
2000
0000
0000
,
3000
0000
0001
0000
0010
0100
0000
1000
,
0001
0000
0000
0000
0000
0000
1000
0000
0001
0000
1000
0000
0001
0000
0000
1000
0000
0000
0002
0000
0000
0000
0000
0000
,
0003
0000
0001
0010
0100
1000
0002
0000
,
0103
0000
0101
0000
0100
0010
1000
0010
,
0100
0001
1000
0000
0001
0100
0001
0000
,
0100
0010
1000
0000
1010
0000
0101
0000
,
0000
0000
0000
0000
1000
0000
0000
0100
0000
0000
0010
0000
0001
0000
0000
0000
,
0010
0000
0100
0000
1000
0000
0000
0100
0000
0000
0010
0000
0001
0000
0000
0010
,
0000
0100
2000
0000
0000
0000
0000
0000
,
3000
0000
0001
1000
0000
0001
0010
0100
,
1000
0001
0000
0000
0000
0000
0000
0000
,
0000
0000
1000
0010
1000
0001
0010
0001
,
1000
0010
1000
0001
0010
0001
1000
0000
,
0110
0000
0001
0100
0001
1000
0100
1000
,
0001
0100
0000
0110
0000
0000
1001
0000
,
0001
1000
0001
0010
0001
1000
0100
1000
,
0001
0100
0001
1000
0010
1000
0001
0100
,
0001
0000
1000
0100
1000
0001
0010
0001
,
1000
0010
0000
0110
0000
0000
1001
0000
,
0100
0000
1000
0010
0100
0001
0010
0100
,
1000
0000
0001
0010
0000
0100
1000
0000
,
0000
0000
0001
0010
0100
1000
0010
0100
,
0001
0000
1000
0010
0000
0100
0001
0000
,
0000
0000
0001
0100
0010
1000
0100
0010
,
0001
0000
1000
0100
0000
0010
0001
0000
,
0000
0000
0001
0010
0100
0010
0100
1000
,
0001
1000
0000
0000
0200
0300
0020
0030
,
0000
0000
0200
0000
1300
0001
1000
0010
,
0100
0000
0000
0000
0010
0000
0100
0001
0100
0000
0001
0000
0010
0000
0010
0100
,
1000
0000
0000
0000
0010
0000
1000
0000
0001
0000
0100
0000
0010
0000
0100
0001
,
1000
0000
0000
0000
0100
1000
0100
0000
1000
0000
0001
0100
0010
0000
0000
1000
,
0100
0000
0200
0000
1300
0001
0100
0001
,
0100
0000
0000
0000
0010
0000
1000
0001
0100
0000
0001
1000
0100
0000
0010
0100
,
0010
0000
0002
0013
0002
0013
0100
1000
,
0001
0000
0000
0000
0010
0100
1000
0000
0100
0000
0010
0000
0001
0000
0010
0100
,
1000
0100
1000
0010
1000
0001
0010
0001
,
0100
0010
0100
0001
0010
0001
2000
0000
,
3000
0000
0001
0010
0001
0100
0010
0100
,
0001
0010
0000
0110
0000
0000
1001
0000
,
0001
0000
1000
0010
1000
0100
0010
0100
,
1000
0010
1000
0001
0100
0001
1000
0100
,
1000
0000
0001
0100
0001
0010
0100
0010
,
0001
0100
0000
0110
0000
0000
0001
1000
,
0001
1000
0010
0100
0010
1000
0100
0010
,
0001
0000
0010
0100
0000
1000
0001
0000
,
0000
0000
0001
0010
0100
1000
0100
0010
,
0001
0000
0010
0100
0000
1000
0001
0000
,
0000
0000
1000
0100
0010
0001
0010
0100
,
1000
0000
0001
0010
0000
0100
1000
0000
,
0000
0000
1000
0100
0010
0001
0010
0100
,
1000
0100
0000
1000
0000
0001
1000
0000
;

//---------------dance-single - ----------------
#NOTES:
     dance-single:
     :
     Challenge:
     18:
     1.011591,1.157065,0.496039,0.431338,0.679358,985.000000,916.000000,69.000000,60.000000,0.000000,1.000000,1.011591,1.157065,0.496039,0.431338,0.679358,985.000000,916.000000,69.000000,60.000000,0.000000,1.000000:
0000
0000
0000
0000
,
0000
0000
0000
0000
0000
0000
0000
0000
0000
0000
0000
0000
1000
0000
0000
0010
0000
0000
0100
0000
0000
0001
0000
0000
0010
0000
0000
0100
0000
0000
1000
0000
0000
0000
0000
0000
0001
0000
0010
0000
0100
0000
1000
0000
0000
0001
0000
0000
,
1000
0000
0000
0000
0000
0000
0000
0000
0000
0000
0000
0000
0001
0000
0000
0010
0000
0000
0100
0000
0000
1000
0000
0000
0010
0000
0000
0100
0000
0000
0001
0000
0000
0000
0000
0000
1000
0000
0010
0000
0100
0000
0001
0000
0000
1000
0000
0000
,
0001
0000
0000
0000
0000
0000
0000
0000
0000
0000
0000
0000
1000
0000
0000
0100
0000
0000
0010
0000
0000
0001
0000
0000
0100
0000
0000
0010
0000
0000
1000
0000
0000
0000
0000
0000
0001
0000
0100
0000
0010
0000
1000
0000
0000
0001
0000
0000
,
1000
0000
0000
0000
0001
0100
0010
1000
0100
0010
0001
1000
0010
1000
0000
0001
,
0100
0100
0010
0010
1000
0100
1000
0000
0100
0000
0010
0100
0010
0000
0100
0000
,
0010
0001
0010
0000
0001
0000
1000
0001
1000
0000
0100
0000
1000
0100
1000
0000
,
0010
0000
0100
0100
0010
0010
0010
0010
,
0010
0010
0100
0000
0110
0000
2002
0000
,
3003
0000
0000
0000
0001
0010
0001
0000
0100
0000
0010
0100
0010
0000
0100
0000
,
0001
1000
0001
0000
0010
0000
0100
0010
0100
0000
1000
0000
0100
1000
0100
0000
,
0010
0000
0001
0001
0001
0001
0001
0001
,
0001
0001
0001
0000
0011
0000
2002
0000
,
3003
0000
0110
0000
1001
0000
0001
0001
,
0100
0100
0001
0100
0010
1010
0000
0000
,
0000
0000
0010
1000
1100
0000
0010
0001
,
1000
0000
0000
0100
0000
0000
1000
0000
0100
0000
0001
0000
0100
0000
0000
1000
0000
0000
1001
0000
0000
0000
0000
0000
,
0000
0000
0011
0000
0110
0100
1000
0100
,
0010
0001
1000
0001
0100
0101
0000
0000
,
0000
0000
0011
0010
0100
1000
0100
0010
,
0001
0000
0000
1000
0000
0000
0001
0000
0010
0000
1000
0000
0010
0000
0000
0001
0000
0000
2002
0000
0000
0000
0000
0000
,
3003
0000
0000
0000
0001
0010
0001
0000
0100
0000
0010
0000
0100
0001
0100
0000
,
0010
0000
0100
0000
0001
1000
0001
0000
0100
0000
0010
0000
1000
0010
1000
0000
,
0100
0000
1000
0000
0001
0100
0001
0000
0100
0000
0001
0000
0010
0100
0010
0000
,
0100
0000
0010
0000
0001
1000
0001
0000
1000
0001
1000
0000
0001
1000
0001
0000
,
0100
0000
0100
0000
0110
0000
0000
0100
0000
0000
0001
0000
0011
0000
0000
0000
,
0001
0000
0010
0000
0110
0000
0000
0100
0000
0000
1000
0000
1001
0000
0000
0001
,
0000
0000
0100
0000
0001
0100
0001
0000
1000
0010
1000
0000
0001
0100
0001
0000
,
1000
0010
1000
0000
0001
0000
0001
0000
0000
0000
1000
0000
1000
0000
0100
0000
,
0100
0000
0100
0000
0110
0000
0010
0100
0010
0000
0001
0000
1000
0000
0001
0000
,
1000
0000
0000
0000
0001
0010
0001
0000
0100
0000
0001
1000
0001
0000
0100
0000
,
0010
0100
0010
0000
0100
0000
0010
1000
0010
0000
1000
0000
0100
1000
0100
0000
,
0010
0000
0000
0000
0100
0010
0100
0000
0010
0000
0001
0010
0001
0000
1000
0000
,
0001
0100
0001
0000
0000
0000
0110
0000
0000
0000
1000
0000
2020
0000
3030
0000
,
0100
0000
0000
0000
0001
1000
0001
0000
0100
0000
0010
0100
0010
0000
1000
0000
,
0001
1000
0001
0000
0010
0000
0100
0010
0100
0000
1000
0000
0100
1000
0100
0000
,
0010
0000
0000
0000
0100
1000
0100
0000
1000
0000
0010
1000
0010
0000
0100
0000
,
0001
1000
0001
0000
0000
0000
0101
0000
0000
0000
0010
0000
1010
0000
0001
0000
,
0100
0001
1000
0100
0010
0001
0100
0010
,
1000
0000
0000
0000
0000
0000
0001
0000
0010
0000
1000
0000
0010
0000
0000
0001
0000
0000
1001
0000
0000
0000
0000
0000
,
0000
0000
0001
0100
0010
1000
0100
0010
,
0001
0000
0000
0000
0000
0000
1000
0000
0100
0000
0001
0000
0100
0000
0000
1000
0000
0000
1001
0000
0000
0000
0000
0000
,
0000
0000
1000
0100
0010
0001
0100
0010
,
1000
0000
0000
0000
0000
0000
0001
0000
0010
0000
1000
0000
0010
0000
0000
0001
0000
0000
1001
0000
0000
0000
0000
0000
,
0000
0000
0001
0100
1000
0100
0001
0010
,
1000
0010
0001
0001
1000
1000
0010
0010
,
0100
0000
0100
0000
0001
0010
0001
0000
0100
0000
0010
0100
0010
0000
0100
0000
,
0001
0100
0001
0000
1000
0000
0001
1000
0001
0000
1000
0000
0010
1000
0010
0000
,
0100
0000
0001
0100
0010
0100
0001
0100
,
0010
0100
0001
0000
0110
0000
2002
0000
,
3003
0000
0000
0000
0001
0010
0001
0000
1000
0000
0100
1000
0100
0000
0010
0000
,
0100
0010
0100
0000
0001
0000
0100
0001
0100
0000
1000
0000
0001
1000
0001
0000
,
0100
0000
0010
0010
1000
0010
1000
0010
,
1000
0010
1010
0000
0101
0000
1001
0000
,
0110
0000
0020
0130
0020
0130
0002
0103
,
0002
0103
0020
1030
0002
1003
0200
1300
,
0002
1003
0010
0020
1030
0020
0130
0002
,
1003
0000
0000
0020
0000
0000
1030
0000
0100
0000
0001
0000
0100
0000
0000
1000
0000
0000
2002
0000
0000
0000
0000
0000
,
3003
0000
0002
0013
0200
1300
0200
0310
,
0002
1003
0020
0130
0002
1003
0200
1300
,
0002
0013
0010
0002
0103
0020
1030
0020
,
0130
0000
0000
0002
0000
0000
1003
0000
0010
0000
0001
0000
0010
0000
0000
1000
0000
0000
0002
0000
0000
2003
0000
0000
,
3002
0000
2003
0000
3001
0010
0001
0000
0100
0000
0010
0000
0100
0001
0100
0000
,
0010
0000
0100
0000
0001
1000
0001
0000
0100
0000
0010
0000
1000
0010
1000
0000
,
0100
0000
1000
0000
0001
0100
0001
0000
0100
0000
0001
0000
0010
0100
0010
0000
,
0100
0000
0010
0000
0001
1000
0001
0000
1000
0001
1000
0000
0001
1000
0001
0000
,
0100
0000
0100
0000
0110
0000
0000
0100
0000
0000
0101
0000
1001
0000
0000
0000
,
0001
0000
0010
0000
0110
0000
0000
0100
0000
0000
1100
0000
1001
0000
0000
0010
,
0000
0000
1010
0000
0001
0100
0001
0000
1000
0010
1000
0000
0001
0100
0001
0000
,
1000
0010
1000
0000
0001
0000
0001
0000
0000
0000
1000
0000
1000
0000
0100
0000
,
0100
0000
0100
0000
0110
0000
0010
0100
0010
0000
0001
1000
0001
0000
0100
0010
,
0100
0000
0000
0000
0010
1000
0010
0000
0100
0000
0001
1000
0001
0000
0100
0000
,
0010
1000
0010
0000
0100
0000
0001
0100
0001
0000
0100
0000
0220
0000
0330
0000
,
2002
0000
3003
0000
0100
0001
0100
0000
0001
0000
0100
0010
0100
0000
0010
0000
,
1000
0010
1000
0000
0100
0000
0220
0000
0330
0000
0110
0000
1001
0000
0000
0000
,
2000
0000
3001
0000
1000
0010
1000
0000
0010
0000
0100
0001
0100
0000
0001
0000
,
0010
0001
0010
0000
0100
0000
1000
0100
1000
0000
0001
0000
0100
0010
0100
0000
,
0001
0000
0000
0000
0010
0001
0010
0000
0001
1000
0001
0000
0100
1000
0100
0000
,
0010
0100
0010
0000
0100
0000
0110
0000
0000
0000
0110
0000
1001
0000
1000
0000
,
0200
0000
1300
0100
0001
0100
1000
0010
,
0100
0000
0000
0000
0000
0000
1000
0000
0100
0000
0001
0000
0010
0000
0000
1000
0000
0000
0220
0000
0000
0000
0000
0000
,
0330
0000
0001
0100
1000
0100
0001
0010
,
0100
0000
0000
0000
0000
0000
0001
0000
0100
0000
1000
0000
0010
0000
0000
0001
0000
0000
0110
0000
0000
0000
0000
0000
,
0000
0000
0001
0100
1000
0100
0001
0010
,
1000
0000
0000
0000
0000
0000
0010
0000
0001
0000
0100
0000
1000
0000
0000
0100
0000
0000
1001
0000
0000
0000
0000
0000
,
0000
0000
1000
0010
0001
0010
1000
0100
,
0001
0100
0010
0010
0200
0000
2302
0000
,
3003
0000
0000
0000
0000
0000
0000
0000
0000
0000
0000
0000
0020
0000
0000
0000
0000
0000
0000
0000
0000
0000
0000
0000
1030
0000
0000
0000
0000
0000
0101
0000
0000
0000
0000
0000
1000
0000
0010
0000
0100
0000
0001
0000
0000
0100
0000
0000
,
0010
0000
0000
0000
0000
0000
0000
0000
0000
0000
0000
0000
0010
0000
0000
0000
0000
0000
0100
0000
0000
0001
0000
0000
0100
0000
0000
0000
0000
0000
0001
0000
0000
1000
0000
0000
0001
0000
0010
0000
0100
0000
1000
0000
0000
0100
0000
0000
,
0010
0000
0000
0000
0000
0000
0000
0000
0000
0000
0000
0000
0010
0000
0000
0000
0000
0000
0001
0000
0000
0000
0000
0000
1000
0000
0000
0000
0000
0000
0100
0000
0000
0000
0000
0000
0010
0000
0001
0000
1000
0000
0100
0000
0000
0001
0000
0000
,
0100
0000
0000
0000
0000
0000
0000
0000
0000
0000
0000
0000
0100
0000
0000
1000
0000
0000
0100
0000
0000
0000
0000
0000
1000
0000
0000
0000
0000
0000
0001
0000
0000
0100
0000
0000
0010
0000
1000
0000
0001
0000
0100
0000
0000
0001
0000
0000
,
0010
0000
0000
0000
0000
0000
0000
0000
0000
0000
0000
0000
0200
0000
0000
0000
0000
0000
0000
0000
0000
0000
0000
0000
1300
0000
0000
0000
0000
0000
0001
0000
0000
0000
0000
0000
0100
0000
0001
0000
0010
0000
0100
0000
0000
0010
0000
0000
,
0001
0000
0000
0000
0000
0000
0000
0000
0000
0000
0000
0000
0010
0000
0000
0000
0000
0000
0001
0000
0000
0010
0000
0000
0100
0000
0000
0000
0000
0000
0010
0000
0000
0001
0000
0000
0100
0000
0010
0000
1000
0000
0001
0000
0000
0100
0000
0000
,
0010
0000
0000
0000
0000
0000
0000
0000
0000
0000
0000
0000
0020
0000
0000
0100
0000
0000
0130
0000
0000
0000
0000
0000
0020
0000
0000
1000
0000
0000
1030
0000
0000
0000
0000
0000
1000
0000
0100
0000
0010
0000
0001
0000
0000
0100
0000
0000
,
1000
0000
0000
0000
0000
0000
0000
0000
0100
0000
0001
0100
0001
0000
0100
0000
0010
0000
0000
0000
0200
0000
0000
0000
0301
0000
0000
0000
1000
0000
0001
0000
,
0011
0000
1100
0000
1000
0100
1000
0000
0100
0000
0010
0001
0010
0000
0001
0000
,
1000
0100
1000
0000
0100
0000
0010
0100
0010
0000
0001
0000
0100
0010
1000
0000
,
0001
0000
0000
0000
0001
0100
0001
0000
0100
0000
0010
1000
0010
0000
1000
0000
,
0001
0010
0100
0000
0000
0000
0110
0000
0000
0000
0110
0000
1001
0000
1000
0000
,
0001
0000
0000
0000
0010
0001
0010
0000
0100
0000
1000
0100
1000
0000
0010
0000
,
0100
0001
0100
0000
0001
0000
0010
0100
0010
0000
0100
0000
1000
0010
0100
0000
,
0001
0000
0000
0000
0100
0001
0100
0000
0010
0000
1000
0100
1000
0000
0100
0000
,
0010
0001
0010
0000
0100
0000
1001
0000
0000
0000
1001
0000
0110
0000
1000
0000
,
0001
1000
0010
0100
0010
1000
0100
0010
,
0001
0000
0000
0000
0000
0000
1000
0000
0100
0000
0010
0000
0001
0000
0000
0100
0000
0000
0101
0000
0000
0000
0000
0000
,
0000
0000
0001
0100
0010
1000
0100
0010
,
0001
0000
0000
0000
0000
0000
0010
0000
0001
0000
0100
0000
1000
0000
0000
0100
0000
0000
1100
0000
0000
0000
0000
0000
,
0000
0000
0001
0100
1000
0100
0001
0010
,
1000
0000
0000
0000
0000
0000
0010
0000
0001
0000
0100
0000
1000
0000
0000
0100
0000
0000
1001
0000
0000
0000
0000
0000
,
0000
0000
1000
0010
0001
0010
1000
0100
,
0001
0100
0110
1100
0000
0011
2200
0000
,
3300
0000
0000
0000
;

//---------------dance-single - KB----------------
#NOTES:
     dance-single:
     :
     Edit:
     20:
     1.411092,1.755546,2.020100,0.445716,1.272447,1374.000000,1089.000000,281.000000,62.000000,0.000000,16.000000,1.411092,1.755546,2.020100,0.445716,1.272447,1374.000000,1089.000000,281.000000,62.000000,0.000000,16.000000:
// measure 0
0000
0000
0000
0000
,  // measure 1
0000
0000
0000
0000
0000
0000
0000
0000
0000
0000
0000
0000
1000
0000
0000
0010
0000
0000
0100
0000
0000
0001
0000
0000
0010
0000
0000
0100
0000
0000
1000
0000
0000
0000
0000
0000
0001
0000
0010
0000
0100
0000
1000
0000
0000
0001
0000
0000
,  // measure 2
1000
0000
0000
0000
0000
0000
0000
0000
0000
0000
0000
0000
0001
0000
0000
0010
0000
0000
0100
0000
0000
1000
0000
0000
0010
0000
0000
0100
0000
0000
0001
0000
0000
0000
0000
0000
1000
0000
0010
0000
0100
0000
0001
0000
0000
1000
0000
0000
,  // measure 3
0001
0000
0000
0000
0000
0000
0000
0000
0000
0000
0000
0000
1000
0000
0000
0100
0000
0000
0010
0000
0000
0001
0000
0000
0100
0000
0000
0010
0000
0000
1000
0000
0000
0000
0000
0000
0001
0000
0100
0000
0010
0000
1000
0000
0000
0001
0000
0000
,  // measure 4
1000
0000
0000
0000
0001
0100
0010
1000
0100
0010
0001
1000
0010
1000
0000
0001
,  // measure 5
0100
0100
0010
0010
1000
0100
1000
0100
0010
0001
0010
0001
0100
0010
0100
0010
,  // measure 6
1000
0100
1000
0100
0010
0001
0010
0001
0100
0010
0100
0010
1000
0100
1000
0100
,  // measure 7
0010
0000
0000
0000
0100
1000
0100
0000
0010
0001
0010
0000
0100
1000
0100
0000
,  // measure 8
0010
0001
0010
0000
0100
1000
0100
0000
0011
0000
1001
0000
2200
0000
0000
0000
,  // measure 9
3300
0000
0000
0000
0001
0010
0001
0010
0100
1000
0100
1000
0010
0100
0010
0100
,  // measure 10
0001
0010
0001
0010
0100
1000
0100
1000
0010
0100
0010
0100
0001
1000
0001
1000
,  // measure 11
0100
0000
0000
0000
0001
0010
0001
0000
1000
0100
1000
0000
0001
0010
0100
0000
,  // measure 12
1000
0010
0100
0000
0001
0010
0100
0000
1100
0000
0110
0000
0022
0000
0000
0000
,  // measure 13
0033
0000
0110
0100
1001
0000
0001
0101
,  // measure 14
0110
1010
1001
1100
0110
0011
0000
0000
,  // measure 15
0000
0000
0011
1000
1100
0000
0010
0011
,  // measure 16
1001
0000
0000
1100
0000
0000
1010
0000
0101
0000
1001
0000
1100
0000
0000
0110
0000
0000
1001
0000
0000
0000
0000
0000
,  // measure 17
0000
0000
0011
0000
0110
0000
1000
1100
,  // measure 18
0110
0011
1001
0100
0110
1010
0000
0000
,  // measure 19
0000
0000
0011
0010
1100
1000
0100
1100
,  // measure 20
0110
0000
0000
0011
0000
0000
0011
0000
1100
0000
0011
0000
0101
0000
0000
0110
0000
0000
2002
0000
0000
0000
0000
0000
,  // measure 21
3003
0000
0000
0000
0001
0010
0001
0000
0100
0001
0100
0000
0010
1000
0100
0000
,  // measure 22
0010
0001
0100
0000
0001
1000
0100
0000
1000
0001
0100
0000
0001
0010
1000
0000
,  // measure 23
0001
0010
1000
0000
0001
0100
0001
0000
0100
0001
0010
0000
0100
1000
0010
0000
,  // measure 24
1000
0100
1000
0000
0001
0010
0100
0000
1000
0010
0100
0000
0001
0010
0100
0000
,  // measure 25
1000
0010
0100
0000
0110
0000
0000
0101
0000
0000
0011
0000
1100
0000
0000
0000
,  // measure 26
0011
0000
1100
0000
0011
0000
0000
0101
0000
0000
1010
0000
0110
0000
0000
1001
,  // measure 27
0000
0000
0110
0000
0001
0100
0001
0100
0010
1000
0010
1000
0001
0010
0001
0010
,  // measure 28
0100
1000
0100
1000
0010
0000
0010
0000
0000
0000
0010
0000
0010
0000
0010
0000
,  // measure 29
0010
0000
0010
0000
1001
0000
0010
0100
0010
0000
1000
0000
0100
0000
0010
0000
,  // measure 30
0001
0000
0000
0000
0001
0010
0001
0010
0100
0010
0100
0010
0100
1000
0100
1000
,  // measure 31
0001
1000
0001
1000
0010
0100
0010
0100
0001
0010
0001
0010
0001
0000
0000
0000
,  // measure 32
0101
0000
0000
0000
0100
0010
0100
0010
1000
0100
1000
0100
0010
0001
0010
0001
,  // measure 33
1000
0100
1000
0100
0000
0000
0110
0000
0000
0000
1100
0000
2020
0000
3130
0000
,  // measure 34
0100
0000
0000
0000
0001
0010
0100
1000
0001
0010
0100
1000
0001
0100
1000
0100
,  // measure 35
0001
0100
1000
0100
0001
1000
0010
1000
0001
1000
0010
1000
0001
1000
0100
0010
,  // measure 36
0100
0000
0000
0000
0100
1000
0010
0001
0010
1000
0100
1000
0010
0001
0010
1000
,  // measure 37
0100
0010
0001
0100
0000
0000
0101
0000
0000
0000
0101
0000
1010
0000
1001
0000
,  // measure 38
0110
1001
1001
0100
0010
0001
0110
0010
,  // measure 39
1000
0000
0000
0000
0000
0000
1001
0000
0101
0000
1010
0000
0110
0000
0000
0101
0000
0000
1001
0000
0000
0000
0000
0000
,  // measure 40
0000
0000
1001
0100
0010
1000
0110
0010
,  // measure 41
0001
0000
0000
0000
0000
0000
1001
0000
0101
0000
0011
0000
0110
0000
0000
1001
0000
0000
0110
0000
0000
0000
0000
0000
,  // measure 42
0000
0000
1001
0100
0010
0001
0110
0010
,  // measure 43
1000
0000
0000
0000
0000
0000
1001
0000
1010
0000
0101
0000
0110
0000
0000
1001
0000
0000
0110
0000
0000
0000
0000
0000
,  // measure 44
0000
0000
1001
0100
1000
0100
0110
0010
,  // measure 45
1000
0010
1001
0101
1010
0110
1010
0010
,  // measure 46
0100
0000
0100
0000
0001
0010
0001
0010
0100
1000
0100
1000
0010
0100
0010
0100
,  // measure 47
0001
1000
0001
1000
0100
0010
0100
0010
1000
0010
1000
0010
0001
0100
0001
0100
,  // measure 48
0010
0000
0000
0000
0001
0100
0010
0000
1000
0001
0100
0000
0010
1000
0100
0000
,  // measure 49
0001
0100
1000
0000
0100
1000
0010
0000
0110
0000
0101
0000
2002
0000
0000
0000
,  // measure 50
3003
0000
0000
0000
0001
0010
0001
0010
0001
1000
0001
1000
0001
0100
0001
0100
,  // measure 51
0010
1000
0010
1000
0010
0100
0010
0100
0010
0001
0010
0001
0010
1000
0001
1000
,  // measure 52
0100
0000
0000
0000
0010
0001
0100
0000
0010
1000
0100
0000
1000
0010
0001
0000
,  // measure 53
1000
0100
0001
0000
1110
0000
0000
0000
0111
0000
0000
0000
1110
0000
0000
0000
,  // measure 54
0111
0000
1020
0130
1020
0130
1002
0103
,  // measure 55
1002
0103
1020
1030
0012
1003
0210
1300
,  // measure 56
0012
1003
0010
0021
1030
1020
0130
1002
,  // measure 57
1003
0000
0000
0120
0000
0000
1031
0000
1100
0000
0011
0000
0110
0000
0000
1100
0000
0000
2002
0000
0000
0000
0000
0000
,  // measure 58
3003
0000
1002
0013
1200
1300
1200
0310
,  // measure 59
1002
1003
1020
0130
1002
1003
0210
1300
,  // measure 60
0002
1013
0010
1002
0103
1020
1030
1020
,  // measure 61
0130
0000
0000
1002
0000
0000
1013
0000
0110
0000
0101
0000
1001
0000
0000
1000
0000
0000
0012
0000
0000
2103
0000
0000
,  // measure 62
3012
0000
2103
0000
3001
0010
0001
0000
0100
0001
0010
0000
0100
0001
0100
0000
,  // measure 63
0010
0002
0103
0000
0001
1000
0001
0000
0100
0010
1000
0000
0100
0010
0100
0000
,  // measure 64
1000
0010
0100
0000
0001
0100
0001
0000
0100
0001
0010
0000
0100
0010
0100
0000
,  // measure 65
0010
0100
1000
0000
0001
1000
0100
0000
1000
0001
0100
0000
0001
1000
0010
0000
,  // measure 66
0100
0001
0010
0000
0110
0000
0000
1100
0000
0000
1010
0000
0101
0000
0000
0000
,  // measure 67
1001
0000
0110
0000
1001
0000
0000
1100
0000
0000
0011
0000
1100
0000
0000
1010
,  // measure 68
0000
0000
0110
0000
0001
0100
0001
0100
0010
1000
0010
1000
0001
0100
0010
1000
,  // measure 69
0100
0010
0001
0100
0010
0000
0010
0000
0000
0000
0010
0000
0010
0000
0100
0000
,  // measure 70
0100
0000
0100
0000
0010
0100
0020
0000
0000
0000
0031
1000
0001
0000
0000
0000
,  // measure 71
1001
0000
0000
0000
0010
1000
0010
1000
0001
0100
0001
0100
0001
0010
0001
0010
,  // measure 72
0100
1000
0100
1000
0010
0100
0010
0100
0001
0010
0001
0010
2200
0000
3301
0000
,  // measure 73
2002
0000
3003
0000
0100
0001
0100
0001
0010
0100
0010
0100
1000
0010
1000
0010
,  // measure 74
0100
0001
0100
0001
1010
0000
0220
0000
0330
0000
0110
0000
1001
0000
0000
0000
,  // measure 75
0010
0000
0100
0000
1000
0010
0100
0001
0010
0100
1000
0001
0100
0010
1000
0100
,  // measure 76
0010
0001
1000
0100
0010
0100
0001
0100
1000
0001
0100
0010
0100
0001
0010
0100
,  // measure 77
1000
0000
0000
0000
1000
0100
1000
0100
0010
0001
0010
0001
0100
0010
0100
0010
,  // measure 78
1000
0100
1000
0100
0011
0000
0110
0000
0000
0000
0110
0000
1001
0000
0011
0000
,  // measure 79
1200
0000
1301
0100
0001
0100
1001
0010
,  // measure 80
0100
0000
0000
0000
0000
0000
1010
0000
0101
0000
0011
0000
1100
0000
0000
0101
0000
0000
0220
0000
0000
0000
0000
0000
,  // measure 81
0330
0000
1001
0100
1000
0100
1001
0010
,  // measure 82
0100
0000
0000
0000
0000
0000
0011
0000
0101
0000
1100
0000
1010
0000
0000
1001
0000
0000
0110
0000
0000
0000
0000
0000
,  // measure 83
0000
0000
1001
0100
1000
0100
1001
0010
,  // measure 84
1000
0000
0000
0000
0000
0000
1010
0000
0011
0000
1100
0000
0101
0000
0000
0110
0000
0000
1001
0000
0000
0000
0000
0000
,  // measure 85
0000
0000
1001
0010
0001
0010
1001
0100
,  // measure 86
0001
0100
1010
0101
0201
1010
2302
0000
,  // measure 87
3103
0000
0000
0000
0000
0000
0000
0000
0000
0000
0000
0000
0020
0000
0000
0000
0000
0000
0000
0000
0000
0000
0000
0000
1030
0000
0000
0000
0000
0000
0101
0000
0000
0000
0000
0000
1001
0000
0010
0000
0100
0000
1001
0000
0000
0100
0000
0000
,  // measure 88
0010
0000
0000
0000
0000
0000
0000
0000
0000
0000
0000
0000
0011
0000
0000
0000
0000
0000
0100
0000
0000
0001
0000
0000
0101
0000
0000
0000
0000
0000
0001
0000
0000
1000
0000
0000
1001
0000
0010
0000
0100
0000
1001
0000
0000
0100
0000
0000
,  // measure 89
0011
0000
0000
0000
0000
0000
0000
0000
0000
0000
0000
0000
1010
0000
0000
0000
0000
0000
0001
0000
0000
0000
0000
0000
1010
0000
0000
0000
0000
0000
0100
0000
0000
0000
0000
0000
1010
0000
0001
0000
1000
0000
0101
0000
0000
0001
0000
0000
,  // measure 90
0100
0000
0000
0000
0000
0000
0000
0000
0000
0000
0000
0000
0101
0000
0000
1000
0000
0000
0100
0000
0000
0000
0000
0000
0010
0000
0000
0000
0000
0000
0001
0000
0000
0100
0000
0000
0011
0000
1000
0000
0001
0000
1100
0000
0000
0001
0000
0000
,  // measure 91
1010
0000
0000
0000
0000
0000
0000
0000
0000
0000
0000
0000
1200
0000
0000
0000
0000
0000
0000
0000
0000
0000
0000
0000
1300
0000
0000
0000
0000
0000
0001
0000
0000
0000
0000
0000
1100
0000
0001
0000
0010
0000
1100
0000
0000
0010
0000
0000
,  // measure 92
0001
0000
0000
0000
0000
0000
0000
0000
0000
0000
0000
0000
0110
0000
0000
0000
0000
0000
0001
0000
0000
0010
0000
0000
1100
0000
0000
0000
0000
0000
0010
0000
0000
0001
0000
0000
0110
0000
0010
0000
1000
0000
0101
0000
0000
0100
0000
0000
,  // measure 93
0010
0000
0000
0000
0000
0000
0000
0000
0000
0000
0000
0000
1020
0000
0000
0100
0000
0000
0130
0000
0000
0000
0000
0000
0021
0000
0000
1000
0000
0000
1030
0000
0000
0000
0000
0000
1001
0000
0100
0000
0010
0000
1001
0000
0000
0100
0000
0000
,  // measure 94
0110
0000
0000
0000
0000
0000
0000
0000
1010
0000
0001
0100
0001
0000
1000
0010
1000
0000
0001
0100
0020
0000
0000
0000
1030
0001
1000
0000
1100
0000
0011
0000
,  // measure 95
1100
0011
1100
0011
0001
0100
0001
0100
0001
0010
1000
0010
0001
0010
1000
0010
,  // measure 96
0001
0100
0001
0100
0010
1000
0010
1000
0100
0010
0001
0010
0100
1000
0001
0100
,  // measure 97
0001
0000
0000
0000
0001
0010
1000
0001
0100
1000
0001
0010
1000
0001
0100
1000
,  // measure 98
0001
0010
0100
1000
1100
0000
0110
0000
0000
0000
0110
0000
1001
0000
1000
0000
,  // measure 99
0001
0000
0000
0000
0010
0001
0010
0001
0100
0010
0100
0010
1000
0100
1000
0100
,  // measure 100
0010
0001
0100
0010
1000
0100
0010
0001
0100
0010
1000
0100
0010
0001
0100
0010
,  // measure 101
1000
0000
0000
0000
0100
0001
0100
1000
0010
0001
0010
1000
0100
0001
0100
1000
,  // measure 102
0010
0001
0010
1000
0110
0000
1001
0000
0000
0000
1001
0000
0110
0000
1010
0000
,  // measure 103
0101
1010
1001
0100
0010
1000
0110
0010
,  // measure 104
0001
0000
0000
0000
0000
0000
1001
0000
0101
0000
0011
0000
1001
0000
0000
0110
0000
0000
0101
0000
0000
0000
0000
0000
,  // measure 105
0000
0000
1001
0100
0010
1000
1100
0010
,  // measure 106
0001
0000
0000
0000
0000
0000
1010
0000
1001
0000
1100
0000
1001
0000
0000
0110
0000
0000
1100
0000
0000
0000
0000
0000
,  // measure 107
0000
0000
1001
0100
1000
0100
0011
0010
,  // measure 108
1000
0000
0000
0000
0000
0000
1010
0000
0101
0000
1010
0000
1100
0000
0000
0110
0000
0000
1001
0000
0000
0000
0000
0000
,  // measure 109
0000
0000
1001
1010
0101
1010
1100
0110
,  // measure 110
0011
0000
0110
0000
0101
1000
0200
0000
0300
0000
0110
0001
2200
0000
0000
0000
,  // measure 111
3300
0000
0000
0000
;
