#VERSION:0.83;
#TITLE:Voulez Vous Coucher Avec Moi;
#SUBTITLE:(Happy Club Mix);
#ARTIST:Sex Appeal;
#TITLETRANSLIT:;
#SUBTITLETRANSLIT:;
#ARTISTTRANSLIT:;
#GENRE:;
#ORIGIN:;
#CREDIT:;
#BANNER:Voulez Vous Coucher Avec Moi (Happy Club Mix)-bn.PNG;
#BACKGROUND:Voulez Vous Coucher Avec Moi (Happy Club Mix)-bg.PNG;
#PREVIEWVID:;
#JACKET:;
#CDIMAGE:;
#DISCIMAGE:;
#LYRICSPATH:Voulez Vous Coucher Avec Moi (Happy Club Mix).lrc;
#CDTITLE:cdtitle.png;
#MUSIC:Voulez Vous Coucher Avec Moi (Happy Club Mix).mp3;
#OFFSET:-14.894000;
#SAMPLESTART:73.944000;
#SAMPLELENGTH:12.000000;
#SELECTABLE:YES;
#BPMS:0.000=130.030;
#STOPS:;
#DELAYS:;
#WARPS:;
#TIMESIGNATURES:0.000=4=4;
#TICKCOUNTS:0.000=4;
#COMBOS:0.000=1;
#SPEEDS:0.000=1.000=0.000=0;
#SCROLLS:0.000=1.000;
#FAKES:;
#LABELS:0.000=Song Start;
#BGCHANGES:;
#KEYSOUNDS:;
#ATTACKS:
;

//---------------dance-single - ----------------
#NOTEDATA:;
#CHARTNAME:;
#STEPSTYPE:dance-single;
#DESCRIPTION:;
#CHARTSTYLE:;
#DIFFICULTY:Hard;
#METER:13;
#RADARVALUES:0.582408,0.600925,0.543581,0.074125,0.333561,495.000000,429.000000,66.000000,9.000000,0.000000,0.000000,0.000000,0.000000,0.000000,0.582408,0.600925,0.543581,0.074125,0.333561,495.000000,429.000000,66.000000,9.000000,0.000000,0.000000,0.000000,0.000000,0.000000;
#CREDIT:;
#NOTES:
// measure 0
1001
0000
0000
0000
1010
0000
0010
1000
0000
0100
0000
0100
1000
0000
0010
0000
,  // measure 1
0100
0000
0001
0000
0010
0000
0001
0010
0000
0001
1000
0001
1000
0000
0010
0000
,  // measure 2
0100
0000
0001
0000
1001
0000
1000
0010
0000
0010
0000
0100
0001
0000
0100
0000
,  // measure 3
0010
0000
0100
0000
0010
0000
1000
0100
1000
0010
1000
0100
1000
0000
0001
0000
,  // measure 4
0010
0000
0100
0000
0011
0000
1000
0100
0000
1000
0000
0100
0010
0000
0001
0000
,  // measure 5
0010
0000
0100
0000
0010
0000
0100
1000
0000
0010
1000
0100
0010
0000
0001
0000
,  // measure 6
1100
0000
0010
0000
1001
0000
0100
0001
0000
0001
0000
0010
0100
0000
1000
0000
,  // measure 7
0100
0000
0100
0000
1000
0000
0010
0100
0010
1000
0001
0100
0001
0000
0010
0000
,  // measure 8
1001
0000
0001
0000
1000
0000
0010
0100
0000
0000
0011
0000
0000
0011
0000
0000
,  // measure 9
0100
0000
1000
0000
0001
0000
0010
0100
0000
0000
0110
0000
0000
0110
0000
0000
,  // measure 10
0001
0000
0010
0000
0100
0000
1000
0001
0000
0000
0110
0000
0000
0110
0000
0000
,  // measure 11
1000
0000
0010
0000
1000
0000
0100
1000
0000
0000
0110
0000
0000
0101
0000
0000
,  // measure 12
0001
0000
0010
0000
0001
0000
0100
0001
0000
0000
0101
0000
0000
0101
0000
0000
,  // measure 13
0100
0000
0010
0000
1000
0000
0010
0100
0000
0000
0110
0000
0000
0110
0000
0000
,  // measure 14
1000
0000
0100
0000
1000
0000
0001
0010
0000
0000
0011
0000
0000
0011
0000
0000
,  // measure 15
0001
0000
0000
0001
0000
0000
1000
0010
0100
0001
0000
0000
,  // measure 16
1001
0000
0110
0000
0010
1000
0100
2000
,  // measure 17
0000
3100
0010
0001
0010
0100
0010
0011
,  // measure 18
0000
0001
0100
0010
1000
0001
1000
1010
,  // measure 19
0000
0100
1000
0001
0010
0100
0010
0001
,  // measure 20
0200
0310
0110
1001
,  // measure 21
0001
1000
0010
1000
0100
1000
0010
1010
,  // measure 22
0000
0010
0100
0001
0010
0100
1000
0001
,  // measure 23
0000
0000
0110
0000
0000
0000
1001
0000
0000
0000
0011
0000
0000
0000
0001
0100
,  // measure 24
0010
0000
1000
0000
1000
0000
0010
1000
0001
0000
1000
0000
1000
0000
0010
0100
,  // measure 25
0010
0000
0100
0001
0000
0100
0010
1000
0001
0000
1000
0000
1001
0000
0001
0000
,  // measure 26
1000
0010
1000
0000
0001
0100
0001
0000
0010
0001
0010
0000
0001
0000
1000
0000
,  // measure 27
0010
0000
1000
0100
0000
1000
0010
0100
0010
0000
1000
0000
0001
0000
0010
0001
,  // measure 28
0010
0000
0001
0100
0000
0000
0010
0000
0100
0001
0100
0000
0010
0000
1000
0100
,  // measure 29
1000
0000
0010
1000
0000
0100
1000
0001
0100
0000
0100
0000
0001
0010
0000
0000
,  // measure 30
0100
1000
0000
0100
0000
0100
1000
0001
0100
0000
0010
0000
1000
0000
0001
0000
,  // measure 31
1100
0011
1001
0110
1001
0110
1001
0000
,  // measure 32
0001
0100
0001
0100
0010
0100
0010
0201
,  // measure 33
0000
0000
0010
0000
0001
0000
0310
1000
,  // measure 34
0001
0010
0001
1000
0010
0100
0001
0210
,  // measure 35
0000
0001
0001
0000
0001
0000
0310
0000
,  // measure 36
0001
0100
0010
1000
0010
0100
0010
2010
,  // measure 37
0000
0000
0100
0000
0010
0000
3001
0100
,  // measure 38
0001
0010
0100
1000
0010
0010
0100
0010
,  // measure 39
0110
0000
1001
0000
0011
0000
0100
1000
,  // measure 40
1001
1000
0100
0010
1001
0010
0001
0100
,  // measure 41
0110
1000
0001
0100
0110
0010
0100
0001
,  // measure 42
1001
0010
0100
1000
1001
1000
0010
0100
,  // measure 43
0110
0010
1000
0100
0110
0100
1000
1000
,  // measure 44
1001
0100
0001
0010
0011
0010
0100
1000
,  // measure 45
1100
0010
0001
0100
0110
0010
1000
0001
,  // measure 46
1001
1000
0001
0100
0010
1000
0001
0100
,  // measure 47
0002
0000
0203
0000
0320
0000
1030
0010
,  // measure 48
0100
0000
0100
0000
0100
0000
0100
0010
0000
0000
0100
0000
0000
0001
0000
0000
,  // measure 49
1010
0000
1000
0000
0100
0000
1000
0100
0000
0000
1000
0000
0000
0010
0000
0000
,  // measure 50
1100
0000
0100
0000
0010
0000
0100
1000
0000
0000
0010
0000
0000
1000
0000
0000
,  // measure 51
0101
0000
0010
0000
1000
0000
0100
1000
0000
0000
1000
0000
0000
0001
0000
0000
,  // measure 52
1010
0000
1000
0000
0010
0000
0100
0010
0000
0000
1000
0100
0000
0100
0000
0000
,  // measure 53
1100
0000
1000
0000
0001
0000
1000
0100
0000
0000
0010
0001
0000
0010
0000
0000
,  // measure 54
1001
0000
0010
0000
0100
0000
0001
1000
0000
0000
0001
0100
0000
0100
0000
0000
,  // measure 55
0011
0000
1100
0000
0001
0000
1000
2000
,  // measure 56
0000
3000
0000
0000
0000
0000
0000
0000
;

//---------------dance-single - ----------------
#NOTEDATA:;
#CHARTNAME:;
#STEPSTYPE:dance-single;
#DESCRIPTION:;
#CHARTSTYLE:;
#DIFFICULTY:Medium;
#METER:7;
#RADARVALUES:0.357681,0.345143,0.098833,0.255318,0.057653,304.000000,292.000000,12.000000,31.000000,0.000000,0.000000,0.000000,0.000000,0.000000,0.357681,0.345143,0.098833,0.255318,0.057653,304.000000,292.000000,12.000000,31.000000,0.000000,0.000000,0.000000,0.000000,0.000000;
#CREDIT:;
#NOTES:
1000
0000
0001
0000
1000
0010
1000
0000
,
0010
0010
0100
0000
0010
0010
0100
0000
,
0001
0000
1000
0000
0010
1000
0010
0000
,
0100
0100
0010
0000
1000
0001
1000
0000
,
0002
0000
0000
0003
1000
0000
0000
0000
0010
0000
0100
0000
0010
0000
0000
0000
,
1000
1000
1000
0000
0001
1000
0001
0000
,
0020
0000
0031
0000
1000
0001
1000
0000
,
1000
1000
0010
1000
0010
0100
0010
0000
,
0100
0000
0010
0000
0100
0000
0000
0010
0000
0000
0010
0000
0000
0010
0000
0000
,
1000
0000
0001
0000
1000
0000
0000
0001
0000
0000
0001
0000
0000
0001
0000
0000
,
1000
0000
0001
0000
1000
0000
0000
0010
0000
0000
0010
0000
0000
0010
0000
0000
,
0100
0000
0010
0000
0100
0000
0000
0001
0000
0000
0001
0000
0000
0001
0000
0000
,
0100
0000
0010
0000
1000
0000
0000
0001
0000
0000
1000
0000
0000
0001
0000
0000
,
1000
0000
0100
0000
1000
0000
0000
0001
0000
0000
0001
0000
0000
0100
0000
0000
,
0010
0000
0100
0000
0001
0000
0000
1000
0000
0000
0001
0000
0000
0100
0000
0000
,
0002
0000
1003
0000
,
2001
0000
3001
0000
0000
2000
0000
3001
,
0000
1000
0010
1000
0010
0000
0100
0000
,
0010
0000
1000
0001
1000
0000
0010
0000
,
0001
0000
0010
0001
0010
0000
0100
0010
,
0100
2002
3003
0000
,
0001
0000
1000
0010
1000
0000
0010
0000
,
0100
0001
0100
0000
0010
0000
0000
1000
,
0000
0001
0000
1000
0000
0001
0000
1000
,
0010
0000
1000
0000
0001
1000
0001
0000
,
1000
0000
0010
0000
0100
0010
0100
0000
,
0001
0100
0001
0100
0010
0100
0001
0000
,
0100
0000
0010
0000
1000
0010
1000
0000
,
0020
0000
1030
0000
0100
1000
0010
0000
,
2000
0000
3001
0000
0010
0100
0010
0000
,
0001
0000
1000
0000
0010
1000
0010
0000
,
1000
0001
1000
0010
0100
0001
0100
0000
,
0010
1000
0001
1000
0010
0100
0001
2000
,
0000
0001
0001
3001
,
0001
1000
0010
1000
0001
0100
0010
2000
,
0000
0010
0010
3010
,
1000
0010
0100
0001
0010
0100
1000
0002
,
0000
1000
1000
1003
,
1000
0001
1000
0010
0100
0001
0010
0100
,
0020
0100
0100
0130
,
1000
1010
0001
1001
,
0001
1001
0010
1010
,
0010
0110
0010
0110
,
0010
0100
0010
0000
1000
0001
1000
0000
,
1000
1010
1000
1001
,
1000
1001
1000
1010
,
0010
1000
0010
0000
0010
1000
0010
1000
,
0001
0000
1000
0000
0010
0000
1000
0001
,
2000
0000
3020
0000
0230
0000
0301
0100
,
0020
0000
2030
0000
3001
0000
0010
0100
,
0020
0000
0032
0000
2003
0000
3010
1000
,
0020
0230
0302
0023
,
0130
1000
0100
0000
1000
0010
1000
0000
,
0020
2030
3002
0203
,
0310
1000
0010
0000
1000
0001
1000
0000
,
0002
0000
2003
0000
3010
0000
1000
0010
;

//---------------dance-single - ----------------
#NOTEDATA:;
#CHARTNAME:;
#STEPSTYPE:dance-single;
#DESCRIPTION:;
#CHARTSTYLE:;
#DIFFICULTY:Easy;
#METER:4;
#RADARVALUES:0.218844,0.229581,0.016472,0.181194,0.000000,186.000000,184.000000,2.000000,22.000000,0.000000,0.000000,0.000000,0.000000,0.000000,0.218844,0.229581,0.016472,0.181194,0.000000,186.000000,184.000000,2.000000,22.000000,0.000000,0.000000,0.000000,0.000000,0.000000;
#CREDIT:;
#NOTES:
0001
0010
0001
0010
,
0001
1000
0010
0100
,
1000
0010
1000
0010
,
1000
0001
0010
0100
,
0010
1000
0010
0100
,
0010
0100
0001
1000
,
0001
1000
0001
0010
,
0001
1000
0010
1000
,
0100
0100
0200
0300
,
0010
0010
0020
0030
,
0001
0001
0002
0003
,
1000
1000
2000
3000
,
0010
0100
0020
0030
,
0100
0001
0020
0030
,
0001
1000
0200
0300
,
0001
0000
0100
0010
,
0001
2000
3000
0001
,
1000
0010
1000
0010
,
0100
0010
1000
0001
,
0010
0100
1000
0100
,
0010
0002
0003
0000
,
0001
0001
1000
0001
,
0010
0000
0100
0000
1000
0000
0000
0001
,
0000
0100
0000
0010
0000
1000
0000
0001
,
1000
0010
1000
1010
,
0010
0010
0100
0010
,
1000
0001
0010
0001
,
1000
0001
1000
0001
,
1000
0010
0001
1001
,
1000
1000
0010
1000
,
0010
1000
0100
0010
,
0001
0001
2000
3001
,
1000
0001
1000
0010
,
2000
0000
0000
3000
,
0001
1000
0001
1000
,
0020
0000
0130
0100
,
0100
0010
0100
0001
,
2000
0000
0000
3000
,
0001
0010
0100
1000
,
0020
0000
0130
0100
,
0100
0010
0100
0010
,
0000
0100
0001
0100
,
0000
0010
1000
0010
,
0000
1000
0010
0200
,
0301
0010
0100
1000
,
0000
0010
0100
0010
,
0000
1000
0001
0010
,
0001
1000
0001
1000
,
0002
0000
0000
0000
,
2003
0000
0000
0000
,
3020
0000
0000
0000
,
0230
0000
0000
0000
,
0320
0030
0010
0010
,
0020
0000
0130
0100
,
0200
0000
0000
0310
,
0100
0010
0100
0001
;

//---------------dance-single - ----------------
#NOTEDATA:;
#CHARTNAME:;
#STEPSTYPE:dance-single;
#DESCRIPTION:;
#CHARTSTYLE:;
#DIFFICULTY:Beginner;
#METER:1;
#RADARVALUES:0.092950,0.161427,0.049416,0.214138,0.000000,79.000000,73.000000,6.000000,26.000000,0.000000,0.000000,0.000000,0.000000,0.000000,0.092950,0.161427,0.049416,0.214138,0.000000,79.000000,73.000000,6.000000,26.000000,0.000000,0.000000,0.000000,0.000000,0.000000;
#CREDIT:;
#NOTES:
0010
0000
0000
0000
,
0100
0000
0000
0000
,
1000
0000
0000
0000
,
0001
0000
0000
0000
,
1000
0000
0000
0000
,
0010
0000
0000
0000
,
0100
0000
0010
0000
,
0100
0000
0010
0000
,
2000
0000
3000
0000
,
0002
0000
0003
0000
,
0200
0000
0300
0000
,
0020
0000
0030
0000
,
2000
0000
3000
0000
,
0020
0000
0030
0000
,
0200
0000
0300
0000
,
0002
0000
0003
0000
,
1000
0000
0000
0000
,
0001
0000
1000
0000
,
0010
0000
0100
0000
,
0010
0000
0100
0000
,
0020
0000
0030
0000
,
0100
0000
0001
0000
,
1000
0000
0010
0000
,
0010
0000
0010
0000
,
0020
0000
0000
0030
,
0200
0000
0000
0300
,
0020
0000
0000
0030
,
2000
0000
0000
3000
,
0002
0003
2000
3000
,
0020
0030
0200
0300
,
0020
0000
0000
0030
,
0100
0100
0100
0100
,
0001
0000
1000
0000
,
0002
0003
0000
0000
,
1000
0000
0010
0000
,
2000
3000
0000
0000
,
0010
0000
0100
0000
,
0002
0003
0000
0000
,
0010
0000
0001
0000
,
0200
0300
0000
0000
,
0010
0000
0000
0000
,
1001
0000
0000
0000
,
1001
0000
0000
0000
,
1001
0000
0000
0000
,
0110
0000
0000
0000
,
0110
0000
0000
0000
,
1001
0000
0000
0000
,
1000
0000
0001
0000
,
2000
0000
0000
0000
,
3000
0000
0000
0000
,
0002
0000
0000
0000
,
0003
0000
0000
0000
,
0020
0000
0000
0000
,
0030
0000
0000
0000
,
0200
0000
0000
0000
,
0310
0000
0010
0000
,
0010
0000
0000
0000
;
