#TITLE:Trauma saimin shoujo Satori!;
#SUBTITLE:;
#ARTIST:DJ SHARPNEL feat. monotone;
#TITLETRANSLIT:;
#SUBTITLETRANSLIT:;
#ARTISTTRANSLIT:;
#GENRE:;
#CREDIT:;
#BANNER:Traumatically Hypnotic Satori Girl!-bn.jpg;
#BACKGROUND:Traumatically Hypnotic Satori Girl!-bg.jpg;
#LYRICSPATH:;
#CDTITLE:cdtitle.png;
#MUSIC:Traumatically Hypnotic Satori Girl!.mp3;
#OFFSET:0.200000;
#SAMPLESTART:67.499794;
#SAMPLELENGTH:12.000000;
#SELECTABLE:YES;
#DISPLAYBPM:*;
#BPMS:0.000000=210.000000
;
#STOPS:
;
#BGCHANGES:0.563=Traumatically Hypnotic Satori Girl!.mp4=1.000=0=0=1=====,
374.000=Nueva carpeta=1.000=0=0=1=====,
99999=-nosongbg-=1.000=0=0=0 // don't automatically add -songbackground-
;
#KEYSOUNDS:;
#ATTACKS:;

//---------------dance-single - ----------------
#NOTES:
     dance-single:
     :
     Hard:
     13:
     0.766501,0.771130,0.284208,0.180860,0.103348,623.000000,590.000000,33.000000,21.000000,0.000000,0.000000,0.766501,0.771130,0.284208,0.180860,0.103348,623.000000,590.000000,33.000000,21.000000,0.000000,0.000000:
0000
0000
0000
0000
,
0000
0000
0000
0000
,
0000
0000
1000
0100
0000
0000
1000
0001
,
0000
0000
1000
0010
0100
0001
0010
0100
,
1000
0000
0001
0100
0000
0000
0001
1000
,
0000
0000
0001
0010
0100
1000
0010
0100
,
0001
0000
1000
0010
0000
0000
1000
0001
,
0000
0000
1000
0100
0010
0001
0100
0010
,
1000
0000
0001
0010
0000
0000
0001
1000
,
0000
0000
0001
0100
0010
1000
0100
0010
,
0001
0100
1001
0010
,
1001
0000
0001
0010
0100
1000
0010
0100
,
0001
1000
0110
0001
,
0110
0000
1000
0010
0100
0001
0010
0100
,
1000
0001
0101
0010
,
1001
0000
0010
0100
0001
1000
0010
0100
,
0001
1000
1010
0100
,
0110
0000
0100
0001
1000
0010
0100
0001
,
1000
0000
0001
0100
0001
0100
1000
0100
,
1000
0100
0010
0100
0010
0100
0001
1000
,
0001
0000
1000
0100
1000
0100
0001
0100
,
0001
0100
0010
0100
0010
0100
1000
0001
,
1000
0000
0010
0100
0010
0100
0001
0100
,
0001
0100
1000
0100
1000
0100
0001
0010
,
0100
0000
0100
0010
0100
0010
0001
0010
,
0001
0000
0010
0000
1000
0000
0010
0000
1000
0000
0010
0000
0100
0000
1000
0100
,
1000
0100
1000
0000
0001
0000
0100
0000
0010
0000
1000
0000
0001
0000
0100
0000
,
0010
1000
0001
0010
0001
0010
1000
0010
,
1000
0000
0010
0001
0010
0001
0100
0001
,
0100
0001
1000
0010
0100
0001
1000
0010
,
0100
0000
0010
0100
0001
1000
0010
0100
,
0001
1000
0100
1000
0100
1000
0100
0010
,
0100
0000
0010
0001
1000
0100
0010
0001
,
1000
0000
2002
0000
0003
0000
3100
0100
,
1001
0000
0002
0000
0000
0010
1003
0100
,
0010
0001
1000
0100
0010
0100
1000
0000
,
0000
0000
0000
0000
0001
0000
0010
0000
0100
0000
1000
0000
0001
0000
0000
0010
,
0000
1000
2001
0000
0000
3010
0001
0000
,
1000
0000
2000
0000
3010
0001
1000
0100
,
0010
1000
0001
0010
0100
1000
0002
0000
,
0003
0000
1000
0100
0010
0001
1000
0100
,
1000
0100
1000
0001
2000
0000
0000
0000
0000
0000
0000
0000
0000
0000
0000
0000
,
3100
0000
1000
0100
1000
0100
1000
0010
,
1000
0010
0100
0001
0010
0100
1000
0000
,
0100
0000
0100
0000
0010
0000
0001
0000
0100
0000
0010
0000
1000
0000
0000
0001
,
0000
0000
0100
0000
0020
0000
0000
0000
0000
0000
1030
0001
1000
0000
0000
0000
,
0010
0000
0010
0000
0100
0000
0000
0000
0001
0000
0100
0000
0001
0000
0000
0010
,
0000
0001
1000
0100
0010
0001
0020
0000
,
0130
0100
1000
0010
0100
0001
1000
0100
,
0010
0001
0010
0100
2000
0000
0000
0000
0000
0000
0000
0000
3001
0000
0000
1000
,
0001
1000
0001
0000
0100
0000
0000
0000
1001
0000
0000
0000
1000
0000
0000
0000
,
1100
0100
1001
0001
,
0101
0100
1001
0001
,
1010
0010
1001
1000
,
0011
0000
0001
0010
0001
0000
0100
1000
,
0100
0000
1000
0010
1000
0000
0100
0001
,
0100
0000
0001
0010
0001
0000
0100
1000
,
0100
0000
1000
0010
0100
0001
0100
0001
,
0100
0000
0001
0000
1000
0000
0000
0000
1001
0000
1000
0001
1000
0000
0000
0000
,
1001
0000
1000
0100
1000
0100
0020
0000
,
0001
0000
0130
1000
0100
1000
0100
1000
,
0010
0100
0002
0000
0010
0010
0010
0000
,
1000
0000
0100
0000
1000
1000
1000
0000
,
0013
0000
0010
0000
0001
0000
0000
0000
1000
0000
0100
0010
0100
0000
1000
0000
,
0001
0000
0000
0000
1001
0000
0000
0000
0010
0000
0001
0100
0001
0000
0100
0000
,
0001
0000
0010
0000
0100
1100
0000
0001
,
0011
0000
0000
0000
1000
0000
0000
0010
0000
0000
0100
0000
0001
0000
0000
0000
,
1001
0000
2000
0100
3100
0000
0020
0001
,
0031
0000
0100
1000
0100
1000
0100
0000
,
0010
0000
0100
0001
0100
0000
0000
0000
0010
0000
0100
0000
0010
0000
1000
0000
,
0100
0000
1000
0001
0010
0001
0100
0000
,
0001
0000
1000
0000
0100
0000
0010
0000
0100
0000
1000
0100
1000
0000
0001
0000
,
0010
0000
0000
0000
0001
0000
0100
0000
0010
0000
0100
0001
0100
0000
0001
0000
,
0010
0000
0000
0000
0001
0000
0100
0000
0001
0000
1000
0000
0100
0000
0010
1000
,
0010
0000
0100
0000
2000
0000
0000
0000
3100
0000
0000
0000
1100
0000
0000
1000
,
0001
1000
0001
0000
2000
0000
0000
0000
0000
0000
0000
0000
0000
0000
0000
0000
,
3000
0000
0000
0000
1001
0000
0000
0000
0100
0000
0010
0100
0020
0000
0000
0000
,
0130
0000
1000
0100
0010
0100
1000
0001
,
0010
0001
1000
0010
0100
0001
0010
0100
,
1000
0000
0001
0100
0010
0100
0001
1000
,
0010
1000
0001
0010
0100
1000
0010
0100
,
0001
0000
1000
0010
0100
0010
1000
0001
,
0100
0001
1000
0100
0010
0001
0100
0010
,
1000
0000
0001
0010
0100
0010
0001
1000
,
0100
1000
0001
0100
0010
1000
0100
0010
,
0001
0000
0100
1000
1001
0001
0010
0001
,
1001
0000
0001
0010
0100
1000
0010
0100
,
0001
0000
1000
0100
0110
0010
0001
0010
,
0110
0000
1000
0010
0100
0001
0010
0100
,
1000
0000
0001
0100
0101
1000
0010
1000
,
1001
0000
0010
0100
0001
1000
0010
0100
,
0001
0000
1000
0020
0100
0000
0130
0020
,
0001
0000
0000
0000
0130
0000
0010
0000
1000
0000
0010
0100
0010
0000
1000
0000
,
0002
2000
0000
0000
0000
0000
0000
0000
,
0000
3003
0000
0000
;

//---------------dance-single - ----------------
#NOTES:
     dance-single:
     :
     Medium:
     11:
     0.645928,0.649373,0.223922,0.094736,0.012919,525.000000,499.000000,26.000000,11.000000,0.000000,0.000000,0.645928,0.649373,0.223922,0.094736,0.012919,525.000000,499.000000,26.000000,11.000000,0.000000,0.000000:
0000
0000
0000
0000
,
0000
0000
0000
0000
,
0000
0000
1000
0001
0000
0000
0001
1000
,
0000
1010
0101
0011
,
1100
0000
0100
0010
0000
0000
0010
0100
,
0000
0110
1100
0011
,
1001
0000
0001
0100
0000
0000
0010
1000
,
0000
1001
1010
0101
,
1001
0000
0001
0010
0000
0000
0100
1000
,
0000
0000
0010
1000
0001
0100
0010
1000
,
0001
0000
1000
0000
1100
0000
0001
0100
,
1000
0000
0100
0000
0101
0000
0001
0010
,
0100
0000
1000
0000
1100
0000
0100
0010
,
1000
0000
0010
0000
0011
0000
0001
0100
,
1000
0000
0100
0000
1010
0000
1000
0001
,
0010
0000
0100
0000
0011
0000
0001
1000
,
0010
0000
0100
0000
0110
0000
0010
0100
,
0010
0000
1000
0100
0010
0001
1000
0000
,
1001
0000
0001
0100
0001
0100
0010
0100
,
0010
0000
0100
0001
0100
0001
1000
0001
,
1000
0000
0010
1000
0010
1000
0010
0100
,
0010
0000
0100
0001
0100
0001
0100
1000
,
0100
0000
0001
0010
0100
1000
0001
0010
,
0100
0000
1000
0100
0010
0001
1000
0100
,
0010
0000
0001
0100
0010
1000
0001
0100
,
0010
0000
0100
0001
1000
0010
0100
0001
,
2000
0000
3001
0100
0010
0100
0001
0100
,
0010
0000
1000
0100
0010
0100
1000
0100
,
0010
0000
0001
0010
0100
0010
0001
0010
,
0100
0000
0010
1000
0010
0100
0010
1000
,
0010
0000
0001
0100
0001
0100
0010
1000
,
0100
0000
1000
0100
1000
0100
0010
0001
,
0100
0000
0010
1000
0010
0100
0001
0010
,
0100
0000
0020
0000
0000
0000
0130
0100
,
0110
0000
1000
0000
0000
0010
0100
0001
,
0100
0000
0001
0100
0010
1000
0010
0000
,
0000
0000
0000
0000
1000
0000
0100
0000
0010
0000
0001
0000
1000
0000
0000
0100
,
0000
0010
0001
0000
0000
0001
1000
0000
,
0001
0000
0100
0000
0010
0100
0001
1000
,
0001
0010
0100
0010
0001
1000
0001
0000
,
0000
0000
0001
0010
0100
1000
0001
0010
,
0100
0010
0200
0000
0000
0000
0000
0000
,
0310
0000
0100
1000
0100
1000
0100
1000
,
0100
0000
1000
0010
0100
0001
1000
0000
,
0101
0000
0000
0000
0100
0000
0001
0000
1000
0000
0001
0000
0100
0000
0000
0010
,
0000
1000
0001
0000
0000
0001
0100
0000
,
0010
0000
1000
0000
0100
0010
0100
0000
,
1000
0010
0100
0001
1000
0100
0010
0000
,
0000
0100
0010
0001
1000
0100
0010
0100
,
1000
0001
0200
0000
0000
0000
0000
0000
,
0310
1000
0100
0000
,
0100
0000
0100
0001
,
0100
0000
0100
0000
,
0100
0000
0100
0010
,
0100
0000
0100
0000
,
0100
0000
0100
1000
,
0100
0000
0100
0000
,
0100
0010
0001
1000
,
0100
0000
1001
0000
0100
0010
0100
0000
,
1001
2000
0010
0001
,
3200
0001
0010
0010
,
1300
0100
0001
0000
0100
0010
0100
0000
,
0001
0100
1000
0000
0010
0000
0100
0000
,
0000
0001
0100
0000
0010
1000
0001
0000
,
0100
0000
0010
0000
1000
0001
0010
0000
,
0100
0000
0010
0000
0001
1000
0100
0000
,
0010
0000
0000
0000
0001
0000
0000
0100
0000
0000
0010
0000
1000
0000
0000
0000
,
1001
2000
0100
0001
,
3020
1000
0100
0100
,
0031
0010
1000
0000
0010
0100
0010
0000
,
1000
0010
0001
0000
0010
0000
0100
0000
,
0000
0001
0010
0000
0100
1000
0100
0000
,
0010
0000
0100
0000
1000
0001
0100
0000
,
0010
0000
0100
0000
0001
0010
0100
0010
,
0001
0000
1000
0100
1000
0000
0100
0010
,
0100
0020
0000
0000
,
0000
0000
0130
0000
0010
0001
1000
0000
,
1001
0000
1000
0100
1000
0100
1000
0100
,
1000
0000
0001
0100
0001
0100
0010
1000
,
0010
0000
0100
0001
0100
0001
0100
0001
,
0100
0000
0001
0010
0001
0010
0100
1000
,
0100
0000
0001
0010
0100
0010
0100
1000
,
0001
0000
1000
0010
0100
0001
0010
0100
,
1000
0000
1000
0010
0100
0010
0100
0001
,
1000
0000
0001
0010
0100
1000
0010
0100
,
0001
0000
1000
0100
1000
0100
1000
0100
,
1000
0100
0010
0001
0010
0001
0010
0001
,
0010
0000
0001
0100
0001
0100
0001
0100
,
0001
0100
0010
1000
0010
1000
0010
1000
,
0010
0000
0100
0001
0100
0001
0100
0001
,
0100
0001
1000
0100
1000
0100
1000
0100
,
1000
0000
0001
0010
0000
0000
0100
1000
,
0000
0000
1000
0010
0100
0001
0100
0000
,
0020
2000
0000
0000
0000
0000
0000
0000
,
0000
3030
0000
0000
;

//---------------dance-single - KB----------------
#NOTES:
     dance-single:
     KB:
     Edit:
     17:
     1.357064,1.445587,1.274631,0.137798,1.326306,1103.000000,955.000000,148.000000,16.000000,28.000000,0.000000,1.357064,1.445587,1.274631,0.137798,1.326306,1103.000000,955.000000,148.000000,16.000000,28.000000,0.000000:
0000
0000
0000
0000
,
0000
0000
0000
0000
1001
0000
0000
0000
1001
0000
0010
0100
0010
1000
0001
1000
,
0101
0000
0101
1100
0000
0000
1100
1010
,
0000
0000
0001
0100
1100
1000
0010
0001
,
0011
0100
0011
1010
0000
0000
1010
1100
,
0000
0000
1000
0100
0101
0001
0010
1000
,
1010
0100
1010
0011
0000
0000
0011
0101
,
0000
0000
1000
0010
0011
0001
0100
1000
,
1100
0010
1010
0011
0000
0000
0011
0101
,
0000
0000
1000
0010
0011
0001
0100
1000
,
1100
0010
0101
1100
1000
0010
0101
0011
,
0001
0010
1100
1000
1010
0010
0011
0001
,
0101
0100
0101
1100
1000
0010
0101
0011
,
0001
0010
1100
1000
1010
0010
0011
0001
,
0101
0100
0011
0101
0100
1000
0011
1010
,
0010
1000
0101
0100
1100
1000
1010
0010
,
0011
0001
1100
1010
0010
0001
1100
0101
,
0100
0001
1010
0010
0011
0001
0101
0100
,
1100
0000
1000
0000
0001
0100
0001
0000
0010
0100
0010
0000
1000
0100
1000
0000
,
0010
0100
0010
0000
0001
0100
0001
0000
0100
0010
0100
0000
1000
0100
1000
0000
,
0100
0010
0100
0000
0010
0001
0010
0000
1000
0001
1000
0000
0100
0001
0100
0000
,
1000
0001
1000
0000
0010
0001
0010
0000
0001
1000
0001
0000
0100
0001
0100
0000
,
0001
1000
0001
0000
0100
1000
0100
0000
0001
1000
0001
0000
0010
1000
0010
0000
,
0001
1000
0001
0000
0100
1000
0100
0000
1000
0001
1000
0000
0010
1000
0010
0000
,
1000
0001
1000
0000
0010
0001
0100
0000
0001
0100
1000
0000
0100
1000
0010
0000
,
1000
0010
0001
0000
0010
0001
0100
0000
0001
0100
1000
0000
0100
0000
0010
0100
,
0010
0001
0010
0100
0001
0100
0001
0100
0010
0100
0010
0100
1000
0100
1000
0100
,
0010
0100
0010
0100
0001
0100
0001
0100
0010
0100
0010
0100
1000
0100
1000
0100
,
0010
0000
0000
0000
0010
0001
0010
0001
1000
0001
1000
0001
0100
0001
0100
0001
,
1000
0001
1000
0001
0010
0001
0010
0001
1000
0001
1000
0001
0100
0001
0100
0001
,
1000
0000
0000
0000
0100
1000
0100
1000
0001
1000
0001
1000
0010
1000
0010
1000
,
0001
1000
0001
1000
0100
1000
0100
1000
0001
1000
0001
1000
0010
1000
0010
1000
,
0001
0000
0000
0000
0001
0100
0001
0100
0010
0100
0010
0100
1000
0100
1000
0100
,
0010
0100
0010
0100
0002
0000
0000
0000
0013
0100
1000
0001
0110
0000
0110
0000
,
1001
0000
0200
0000
0000
0310
0101
0010
,
1100
0010
0011
0010
1010
0010
2002
0000
,
3003
0000
0000
0000
1100
0000
0010
0000
0101
0000
0010
0000
1100
0000
0000
0101
,
0000
0000
0110
0000
2002
0000
0000
0000
3003
0000
0100
0010
0100
0000
0001
0010
,
0100
1000
0001
0000
0100
0000
0000
0000
1010
0000
0100
0000
0011
0000
0100
0000
,
1100
0000
0100
0000
0101
0000
0110
0000
1100
0000
0110
0000
2002
0000
0000
3003
,
0000
0000
0000
0000
1010
0000
0100
0000
0011
0000
0100
0000
1001
0000
0010
1000
,
0100
0000
0000
0010
0000
0000
0001
0000
0000
0100
0000
0000
0020
0000
0000
0000
M00M
0000
0000
0000
M00M
0000
0000
0000
MM0M
0000
0000
0000
000M
0000
0000
0000
000M
0000
0000
0000
003M
0000
0000
0000
0000
0000
0000
0000
0000
0000
0000
0000
,
1001
0000
0000
0000
0001
0100
0001
0100
0010
1000
0010
1000
0001
0010
0001
0010
,
0100
1000
0100
1000
0001
0100
0001
0100
0010
1000
0010
1000
0100
0010
0100
0010
,
0011
0000
0011
0000
0001
0100
0001
0100
0010
1000
0010
1000
0001
0010
0000
0010
,
0100
0000
0100
1000
0001
0000
0000
0000
0000
0000
0001
0100
0010
0000
0011
0000
,
0011
0000
0000
0000
1000
0010
1000
0010
0100
0001
0100
0001
1000
0100
1000
0100
,
0010
0001
0010
0001
1000
0010
1000
0010
0100
0001
0100
0001
0010
0100
0010
0100
,
1100
0000
1100
0000
1000
0010
1000
0010
0100
0001
0100
0001
1000
0100
1000
0100
,
0002
0023
0032
0023
0230
0000
0000
0000
0000
0000
0300
0000
1100
0000
0000
0100
,
1000
0001
1000
0001
1000
0000
0100
0000
1000
0000
0001
0000
1000
0000
0010
0000
,
1000
0001
1000
0100
1000
0001
1000
0010
,
1000
0001
0100
0001
0100
0010
0100
1000
,
0100
0010
0100
0001
0100
0010
0100
1000
,
0100
0010
1000
1000
0100
0100
0010
0010
,
0001
0001
1000
0100
0010
0001
1000
0100
,
0010
0001
0100
0100
0010
0010
1000
1000
,
0001
0001
0100
0010
1000
0001
0100
0010
,
1000
0000
0001
0000
1001
0000
0000
0000
1001
0000
1001
0010
1001
0000
0000
0000
,
1001
0000
0000
0000
0001
0100
0001
0100
0010
1000
0010
1000
0001
0010
0001
0010
,
0100
1000
0100
1000
0001
0100
0001
0100
0010
1000
0010
1000
0100
0010
0100
0010
,
0011
0000
0011
0000
0001
0100
0001
0100
0010
1000
0010
1000
0001
0010
0001
0010
,
0100
1000
0100
1000
0001
0100
0001
0100
0010
0100
0010
0100
0001
1000
0001
1000
,
0001
0000
0101
0000
0101
0000
1000
0010
0100
0001
0100
0001
1000
0100
1000
0100
,
0010
0001
1010
0001
1010
0100
1000
0010
0100
0001
0100
0001
0010
0100
0010
0100
,
1100
0000
1100
0000
1000
0010
1000
0010
0100
0000
0100
0001
1000
0000
1000
0100
,
0010
0001
0010
0001
1000
0000
1000
0010
0100
0010
0100
0010
1000
0000
1100
0000
,
1001
0000
1001
0000
0100
1000
0100
1000
0001
0010
0001
0010
0100
0001
0100
0001
,
1000
0010
1000
0010
0100
1000
0100
1000
0001
0010
0001
0010
1000
0001
1000
0001
,
0101
0000
0101
0000
0100
1000
0100
1000
0001
0010
0001
0010
0100
0001
0100
0001
,
1000
0010
1000
0010
0100
1000
0100
1000
0001
1000
0001
1000
0100
0010
0100
0010
,
0100
0000
1100
0000
1001
0000
0100
1000
0001
0010
0001
0010
0100
0001
0100
0001
,
1000
0010
1000
0010
0100
1000
0100
1000
0001
0010
0001
0010
1000
0001
1000
0001
,
0101
0000
0101
0000
0100
1000
0100
1000
0001
0010
0001
0010
0100
0001
0100
0001
,
1000
0010
1000
0010
0100
0000
0100
1000
0001
1000
0001
0000
0100
0010
0100
0010
,
0100
0010
0100
0000
0010
0000
MMMM
000M
001M
000M
MMMM
M000
M010
M000
MMMM
0000
,
0010
0000
0000
0000
1001
0000
0000
0000
1001
0000
1001
0010
1001
0000
0000
0000
,
1001
0000
0101
1100
0000
0000
1100
1010
,
0000
0000
0001
0100
1100
1000
0010
0001
,
0011
0100
1010
0011
0000
0000
0011
0101
,
0000
0000
1000
0010
0011
0001
0100
1000
,
1100
0010
1010
0011
0000
0000
0011
0101
,
0000
0000
1000
0010
0011
0001
0100
1000
,
1100
0010
1010
1010
0000
0000
1001
0110
,
0000
0000
1000
0001
0101
1000
0100
1000
,
1010
0000
0001
0000
1000
0010
1000
0010
0100
0010
0100
0010
0001
0010
0001
0010
,
0100
0010
0100
0010
1000
0010
1000
0010
0100
0010
0100
0010
0001
0010
0001
0010
,
0200
0000
0000
0000
1300
0001
1000
0001
0010
0001
0010
0001
0100
0001
0100
0001
,
0010
0001
0010
0001
1000
0001
1000
0001
0010
0001
0010
0001
0100
0001
0100
0001
,
0020
0000
0000
0000
0031
0100
0001
0100
0010
0100
0010
0100
1000
0100
1000
0100
,
0010
0100
0010
0100
0001
0100
0001
0100
0010
0100
0010
0100
1000
0100
1000
0100
,
0010
0001
0010
0100
1000
0100
1000
0000
0000
0000
0000
0000
0001
0100
0001
0000
,
0000
0000
0000
0000
1010
0100
0001
0100
0011
0100
0001
0100
1010
0000
0100
0000
,
1001
0010
0100
0010
1100
0000
0000
0000
0000
0000
0000
0000
0000
0000
0000
0000
;

//---------------dance-single - ----------------
#NOTES:
     dance-single:
     :
     Challenge:
     16:
     0.930136,0.933474,0.292821,0.137798,0.331576,756.000000,722.000000,34.000000,16.000000,0.000000,0.000000,0.930136,0.933474,0.292821,0.137798,0.331576,756.000000,722.000000,34.000000,16.000000,0.000000,0.000000:
// measure 0
0000
0000
0000
0000
,  // measure 1
0000
0000
0000
0000
,  // measure 2
0000
0000
1000
1100
0000
0000
0001
1001
,  // measure 3
0000
0000
0001
0010
0100
1000
0010
0100
,  // measure 4
0001
1000
0100
1100
0000
0000
0010
0011
,  // measure 5
0000
0000
0010
0100
1000
0010
0100
0001
,  // measure 6
1000
0010
1000
1100
0000
0000
0001
0011
,  // measure 7
0000
0000
0001
0100
0010
1000
0100
0010
,  // measure 8
0001
0100
0010
1010
0000
0000
0100
0101
,  // measure 9
0000
0000
0100
0001
0010
0100
1000
0010
,  // measure 10
0100
0001
0010
0010
0011
0000
0100
0100
,  // measure 11
1100
0000
0010
0001
0100
0010
0001
0010
,  // measure 12
0100
1000
0100
0100
0101
0000
0100
0100
,  // measure 13
1100
0000
1000
0100
0001
0010
0100
1000
,  // measure 14
0010
0100
1000
1000
1100
0000
0001
0001
,  // measure 15
0101
0000
0001
0100
0010
0001
0010
1000
,  // measure 16
0001
0010
0100
0100
1001
0000
1000
1000
,  // measure 17
0110
0000
0000
0000
0100
0000
0001
0000
0010
0000
0001
0000
1000
0000
0100
1000
,  // measure 18
0001
1000
0100
0000
0010
0000
0001
0000
1000
0000
0001
0000
0100
0000
0001
0000
,  // measure 19
0010
0001
1000
0100
1000
0001
1000
0100
,  // measure 20
1000
0010
0100
0001
0100
0010
1000
0001
,  // measure 21
1000
0100
0010
0100
1000
0100
1000
0010
,  // measure 22
0100
0001
0001
1000
0001
0100
0010
1000
,  // measure 23
0010
0100
0001
1000
0001
0010
0100
0001
,  // measure 24
0100
0001
0100
1000
0010
0100
0001
0010
,  // measure 25
1000
0000
0010
0000
0001
0000
0100
0000
1000
0000
0100
0000
0001
0000
1000
0100
,  // measure 26
0010
0100
1000
0000
0001
0000
0100
0000
0010
0000
1000
0000
0001
0000
0100
0000
,  // measure 27
0010
1000
0001
0010
1000
0010
0100
1000
,  // measure 28
0010
0100
0100
0001
0010
0001
0100
0001
,  // measure 29
0100
0001
1000
0010
0100
0001
1000
0010
,  // measure 30
0100
0010
0010
0100
0001
1000
0010
0100
,  // measure 31
0001
1000
0100
1000
0100
1000
0100
0010
,  // measure 32
0010
0001
0010
0001
1000
0100
0010
0001
,  // measure 33
1000
0000
0001
0000
2001
0000
0000
0000
3001
0010
0100
1000
0001
0000
0100
0000
,  // measure 34
1001
0000
0002
0000
0000
0010
1003
0100
,  // measure 35
0010
0001
1000
0100
0010
0100
1000
0000
,  // measure 36
0000
0000
0000
0000
0001
0000
0010
0000
0100
0000
1000
0000
0001
0000
0000
0010
,  // measure 37
0000
1000
2001
0000
0000
3010
0001
0000
,  // measure 38
1000
0000
2000
0000
3010
0001
1000
0100
,  // measure 39
0010
0001
0010
0100
1000
0100
0002
0000
,  // measure 40
0003
0000
1000
0100
0010
0001
1000
0100
,  // measure 41
0001
0100
1000
0010
2000
0000
0000
0000
0000
0000
0000
0000
0000
0000
0000
0000
,  // measure 42
3100
0000
0010
0100
1000
0100
0010
0001
,  // measure 43
0100
0010
0100
0001
0010
0100
1000
0000
,  // measure 44
0100
0000
0100
0000
0110
0000
0001
0000
0100
0000
0010
0000
1000
0000
0000
0001
,  // measure 45
0000
0000
0100
0000
0010
0000
1000
0000
0010
0000
1000
0001
1000
0000
0100
0000
,  // measure 46
0010
0000
0010
0000
0110
0000
0100
0000
0010
0000
0100
0000
1000
0000
0000
0010
,  // measure 47
0000
0001
1000
0100
0010
0001
0020
0000
,  // measure 48
0130
0100
0001
0010
0100
0001
1000
0010
,  // measure 49
0001
0010
0100
1000
0020
0000
0000
0000
0000
0000
0000
0000
0130
0000
0000
0001
,  // measure 50
1000
0001
1000
0001
0100
0000
0010
0000
0001
0000
0010
0000
0100
0000
0001
0000
,  // measure 51
0010
0001
0100
0010
0001
0010
0100
0001
,  // measure 52
0010
0100
1000
0010
0100
0010
1000
0100
,  // measure 53
0010
0100
1000
0010
0100
1000
0100
0010
,  // measure 54
0100
0001
1000
0010
0001
0010
1000
0100
,  // measure 55
0001
0100
1000
0010
0100
1000
0100
0010
,  // measure 56
1000
0100
0001
0100
0010
0001
0100
0010
,  // measure 57
0001
0010
1000
0100
0001
0100
1000
0010
,  // measure 58
0001
0000
0010
0000
1001
0000
0000
0000
1001
0000
0010
0100
0020
0000
0000
0000
,  // measure 59
0130
0000
0000
0000
0010
1000
0010
0000
1000
0010
1000
0000
0010
0000
0100
0000
,  // measure 60
0001
0000
0100
0000
0010
1000
0010
0000
1000
0010
1000
0000
0010
1000
0010
0000
,  // measure 61
0100
0000
0001
0000
0010
0000
0100
0000
0010
0001
0010
0000
0001
0010
0001
0000
,  // measure 62
1000
0000
0001
0000
0100
0001
0100
0000
0010
0000
1000
0000
0001
0000
0000
0000
,  // measure 63
0001
0000
0100
0001
0100
0000
0010
0000
1000
0000
0100
0010
0100
0000
1000
0000
,  // measure 64
0001
0000
1000
0100
1000
0000
0010
0000
0100
0000
0001
0100
0001
0000
0100
0000
,  // measure 65
0001
0000
0010
0001
0010
0000
0000
0000
1100
0000
1100
0000
0000
0000
0011
0000
,  // measure 66
0011
0000
0000
0000
0110
0000
0000
1100
0000
0000
1001
0000
1001
0000
0000
0000
,  // measure 67
0100
0000
0000
0000
1000
0000
0100
0000
0010
0001
0010
0000
0001
0000
0100
0000
,  // measure 68
0010
1000
0010
0000
0100
0001
0100
0000
0001
0100
0001
0000
0100
0001
0100
0000
,  // measure 69
0010
0000
0100
0001
0100
0000
0010
0000
1000
0000
0100
0010
0100
0000
1000
0000
,  // measure 70
0100
0000
0010
0000
0001
0000
0010
0001
0010
0000
0001
0100
0001
0000
0100
0000
,  // measure 71
0001
0000
1000
0100
0010
0000
0100
0000
1000
0000
0100
1000
0100
0000
0010
0000
,  // measure 72
0001
0000
0100
0001
0100
0000
0001
0000
0010
0000
0100
1000
0100
0000
1000
0000
,  // measure 73
0010
0000
0100
0001
0100
0000
0001
0000
1000
0000
0100
0010
0100
0000
0010
0001
,  // measure 74
0010
0000
0100
0000
2000
0000
0000
0000
3100
0000
0000
0000
1100
0000
0000
0010
,  // measure 75
0001
1000
0001
1000
0002
0000
0000
0000
0000
0000
0000
0000
0000
0000
0000
0000
,  // measure 76
0003
0000
0000
0000
1001
0000
0000
0000
0110
0000
0010
0100
0020
0000
0000
0000
,  // measure 77
0130
0000
1000
0100
0010
0100
1000
0001
,  // measure 78
0010
0001
1000
0010
0100
0001
0010
0100
,  // measure 79
1000
1000
0001
0100
0010
0100
0001
1000
,  // measure 80
0010
1000
0001
0010
0100
1000
0010
0100
,  // measure 81
0001
0001
1000
0010
0100
0010
1000
0001
,  // measure 82
0100
0001
1000
0100
0010
0001
0100
0010
,  // measure 83
1000
1000
0001
0010
0100
0010
0001
1000
,  // measure 84
0100
0000
1000
0000
0001
0000
0100
0000
0010
0000
1000
0100
0010
0000
0001
0100
,  // measure 85
0010
0000
1000
0000
0001
0010
0001
0000
0100
0000
0010
0000
1000
0010
1000
0000
,  // measure 86
0100
0000
0010
0000
0001
0010
0001
0000
0010
0100
0010
0000
0100
1000
0100
0000
,  // measure 87
1000
0001
1000
0000
0010
1000
0010
0000
0100
0000
0001
0000
0010
0001
0010
0000
,  // measure 88
0100
0000
1000
0000
0010
1000
0010
0000
0100
0010
0100
0000
0001
0100
0001
0000
,  // measure 89
1000
0001
1000
0000
0001
0100
0001
0000
1000
0000
0001
0000
1000
0010
1000
0000
,  // measure 90
0001
0000
1000
0000
0010
1000
0010
0000
0100
0001
0100
0000
0001
0010
0001
0000
,  // measure 91
1000
0100
1000
0000
0001
0000
0100
0000
0002
0000
0000
0000
0103
0010
0002
0000
,  // measure 92
0010
0000
0003
0000
0100
0001
0100
0010
1000
0010
0100
0001
0100
0000
0010
0000
,  // measure 93
2000
0002
0000
0000
0000
0000
0000
0000
,  // measure 94
0000
3003
0000
0000
;
