#TITLE:The Sun and the Star;
#SUBTITLE:;
#ARTIST:The Flashbulb;
#TITLETRANSLIT:;
#SUBTITLETRANSLIT:;
#ARTISTTRANSLIT:;
#GENRE:;
#CREDIT:RLZ!;
#BANNER:the sun and the star BN.png;
#BACKGROUND:the sun and the star BG.png;
#LYRICSPATH:;
#CDTITLE:RLZ.png;
#MUSIC:The sun and the star.ogg;
#OFFSET:-0.060000;
#SAMPLESTART:41.320000;
#SAMPLELENGTH:12.000000;
#SELECTABLE:YES;
#DISPLAYBPM:172.000000;
#BPMS:0.000000=172.000000
,404.000000=161.240005
,405.000000=86.000000
,406.000000=43.000000
,406.250000=343.998993
,408.000000=688.013977
;
#STOPS:
;
#BGCHANGES:0.000=The sun and the stars.mp4=1.000=1=0=1===CrossFade==,
428.000=the sun and the star BG.png=1.000=1=0=1===CrossFade==,
99999=-nosongbg-=1.000=0=0=0 // don't automatically add -songbackground-
;
#KEYSOUNDS:;
#ATTACKS:;

//---------------dance-single - ----------------
#NOTES:
     dance-single:
     :
     Challenge:
     19:
     1.138916,1.242759,1.503448,0.034483,0.924138,1156.000000,938.000000,218.000000,5.000000,1.000000,0.000000,1.138916,1.242759,1.503448,0.034483,0.924138,1156.000000,938.000000,218.000000,5.000000,1.000000,0.000000:
0000
0000
0000
0000
,
0000
0000
0000
0000
,
0000
0000
0000
0000
,
0000
0000
0000
0000
,
1000
1000
0011
0000
0000
1000
0011
0000
,
0100
0100
1010
0000
0000
0100
1010
0000
,
0100
0100
1001
0000
0000
0100
1001
0000
,
0001
0001
0110
0100
0000
0001
0110
0000
,
1100
0000
0100
1000
0100
0000
1100
0000
0000
0000
0001
0010
0001
0010
0001
0010
,
1001
0000
0001
0100
0001
0000
1010
0000
0000
0000
0100
1000
0010
1000
0100
0000
,
1100
0000
0010
0100
0001
0000
0101
0000
0000
0000
0010
1000
0100
0000
0010
0001
,
0100
0000
0010
1000
0001
0000
1001
0000
0000
0000
1100
0000
0101
0000
0011
0000
,
1010
0000
0010
1000
0010
0000
1010
0000
0000
0000
0010
0100
0001
0000
0001
0010
,
0100
0000
0100
1000
0010
0000
0101
0000
1001
0000
1000
0100
1000
0100
1000
0000
,
1001
0000
0001
0100
0010
0000
0101
0000
0000
0000
0010
1000
0100
0000
0100
1000
,
0001
0000
1000
0010
0001
0000
0011
0000
0000
0000
0110
0000
1001
0000
1100
0000
,
1001
0000
0001
1000
0001
0000
1001
0000
0000
0000
0001
1000
0100
0000
0100
0010
,
0001
0000
0100
0010
1000
0000
1010
0000
1001
0000
0001
0100
0001
0100
0001
0000
,
1001
0000
1000
0100
1000
0000
1100
0000
0000
0000
0001
0010
0100
0000
0100
1000
,
0010
0000
0010
0100
0001
0000
0101
0000
0001
0000
1100
0000
1010
0000
0101
0000
,
0011
0000
0001
0010
0001
0000
1001
0000
0000
0000
0101
0001
1010
0000
0010
1000
,
1001
0000
0001
0100
0010
0000
1010
0000
0011
0000
0001
0100
0001
0100
0001
0000
,
1001
0000
0010
1000
0100
0000
1100
0000
0000
0000
0010
0100
1001
0000
0010
1000
,
0101
0000
1000
0010
0001
0000
0011
0000
1100
0000
0010
0000
0101
0000
1010
0000
,
1001
0000
0100
1000
0100
1000
0100
0000
0000
0000
0001
0010
0001
0000
0001
0100
,
0001
0000
0010
1000
0010
1000
0010
0000
0000
0000
0001
1000
0001
0000
1000
0100
,
1000
0000
0001
0010
0001
0010
0011
0000
0001
1000
1001
0000
0010
1000
1010
0000
,
0001
0100
0001
0100
0101
0000
0100
1000
0100
1000
1100
0000
0001
0100
0001
0100
,
0101
0000
0001
1000
0001
1000
0011
0000
0000
0000
0010
1000
1010
0000
0001
1000
,
1001
0000
0100
1000
0100
1000
1100
0000
0000
0000
0001
0010
0011
0000
0001
1000
,
1001
0000
0010
1000
0010
1000
1010
0000
0001
1000
1001
0000
0001
0010
0011
0000
,
1000
0100
1000
0100
1100
0000
0100
0001
0100
0001
0101
0000
0001
0010
0011
0000
,
0011
0000
0001
0100
0010
0100
0010
0000
0000
0000
0010
1000
0010
0000
0010
0100
,
0010
0000
0001
1000
0001
1000
0001
0000
0000
0000
0001
0100
0001
0000
1000
0100
,
1000
0000
0001
0010
0001
0010
1001
0000
0001
0010
0011
0000
1000
0010
1010
0000
,
0010
0100
0010
0100
1001
0000
1000
0010
1000
0010
0101
0000
0100
1000
1100
0000
,
1001
0000
0001
0100
0001
0100
0001
0000
0000
0000
0001
0100
0010
0000
0010
0100
,
1000
0000
1000
0100
1000
0100
1000
0000
0000
0000
1000
0100
0010
0000
0010
0100
,
0001
0000
0001
0100
0001
0100
1001
0000
0010
0100
0110
0000
0100
1000
1100
0000
,
0001
0100
0001
0100
0101
0000
0010
1000
0010
1000
1010
0000
0100
0001
0011
0000
,
1100
0000
0100
1000
0100
0000
1100
0000
0000
0000
0001
0010
0001
0010
0001
0010
,
1001
0000
0001
0100
0001
0000
1010
0000
0000
0000
0100
1000
0010
1000
0100
0000
,
1100
0000
0010
0100
0001
0000
0101
0000
0000
0000
0010
1000
0100
0000
0010
0001
,
0100
0000
0010
1000
0001
0000
1001
0000
0000
0000
1100
0000
0101
0000
0011
0000
,
1010
0000
0010
1000
0010
0000
1010
0000
0000
0000
0010
0100
0001
0000
0001
0010
,
0100
0000
0100
1000
0010
0000
0101
0000
1001
0000
1000
0100
1000
0100
1000
0000
,
1001
0000
0001
0100
0010
0000
0101
0000
0000
0000
0010
1000
0100
0000
0100
1000
,
0001
0000
1000
0010
0001
0000
0011
0000
0000
0000
0110
0000
1001
0000
1100
0000
,
1001
0000
0001
1000
0001
0000
1001
0000
0000
0000
0001
1000
0100
0000
0100
0010
,
0001
0000
0100
0010
1000
0000
1010
0000
1001
0000
0001
0100
0001
0100
0001
0000
,
1001
0000
1000
0100
1000
0000
1100
0000
0000
0000
0002
0000
0203
0000
2300
0000
,
3020
0000
0000
0031
0000
1100
1010
0101
,
0011
0000
0001
0010
0001
0000
1001
0000
0000
0000
0101
0001
1010
0000
0010
1000
,
1001
0000
0001
0100
0010
0000
1010
0000
0011
0000
0001
0100
0001
0100
0001
0000
,
1001
0010
0100
1000
0001
0010
0100
1000
0010
0100
0001
1000
0010
0100
0001
0010
,
0100
1000
0010
0100
0001
0010
0100
1000
0010
0100
0001
1000
0000
0000
0001
0000
,
1001
0000
0100
1000
0100
1000
0100
0000
0000
0000
0001
0010
0001
0000
0001
0100
,
0001
0000
0010
1000
0010
1000
0010
0000
0000
0000
0001
1000
0001
0000
1000
0100
,
1000
0000
0001
0010
0001
0010
0011
0000
0001
1000
1001
0000
0010
1000
1010
0000
,
0001
0100
0001
0100
0101
0000
0100
1000
0100
1000
1100
0000
0001
0100
0001
0100
,
0101
0000
0001
1000
0001
1000
0011
0000
0000
0000
0010
1000
1010
0000
0001
1000
,
1001
0000
0100
1000
0100
1000
1100
0000
0000
0000
0001
0010
0011
0000
0001
1000
,
1001
0000
0010
1000
0010
1000
1010
0000
0001
1000
1001
0000
0001
0010
0011
0000
,
1000
0100
1000
0100
1100
0000
0100
0001
0100
0001
0101
0000
0001
0010
0011
0000
,
0011
0000
0001
0100
0010
0100
0010
0000
0000
0000
0010
1000
0010
0000
0010
0100
,
0010
0000
0001
1000
0001
1000
0001
0000
0000
0000
0001
0100
0001
0000
1000
0100
,
1000
0000
0001
0010
0001
0010
1001
0000
0001
0010
0011
0000
1000
0010
1010
0000
,
0010
0100
0010
0100
1001
0000
1000
0010
1000
0010
0101
0000
0100
1000
1100
0000
,
1001
0000
0001
0100
0001
0100
0001
0000
0000
0000
0001
0100
0010
0000
0010
0100
,
1000
0000
1000
0100
1000
0100
1000
0000
0000
0000
1000
0100
0010
0000
0010
0100
,
0001
0000
0001
0100
0001
0100
1001
0000
0010
0100
0110
0000
0100
1000
1100
0000
,
0001
0100
0001
0100
0101
0000
0010
1000
0010
1000
1010
0000
0100
0001
0011
0000
,
0011
0000
0010
0001
0010
0000
0011
0000
0000
0000
1000
0100
1000
0100
1000
0100
,
1001
0000
1000
0010
1000
0000
0101
0000
0000
0000
0010
0001
0100
0001
0010
0000
,
0011
0000
0100
0010
1000
0000
1010
0000
0000
0000
0100
0001
0010
0000
0100
1000
,
0010
0000
0100
0001
1000
0000
1001
0000
0000
0000
0011
0000
1010
0000
1100
0000
,
0101
0000
0100
0001
0100
0000
0101
0000
0000
0000
0100
0010
1000
0000
1000
0100
,
0010
0000
0010
0001
0100
0000
1010
0000
1001
0000
0001
0010
0001
0010
0001
0000
,
1001
0000
1000
0010
0100
0000
1010
0000
0000
0000
0100
0001
0010
0000
0010
0001
,
1000
0000
0001
0100
1000
0000
1100
0000
0000
0000
0110
0000
1001
0000
0011
0000
,
1001
0000
1000
0001
1000
0000
1001
0000
0000
0000
1000
0001
0010
0000
0010
0100
,
1000
0000
0010
0100
0001
0000
0101
0000
1001
0000
1000
0010
1000
0010
1000
0000
,
1001
0000
0001
0010
0001
0000
0011
0000
0000
0000
1000
0100
0010
0000
0010
0001
,
0100
0000
0100
0010
1000
0000
1010
0000
1000
0000
0011
0000
0101
0000
1010
0000
,
1100
0000
1000
0100
1000
0000
1001
0000
0000
0000
1010
1000
0101
0000
0100
0001
,
1001
0000
1000
0010
0100
0000
0101
0000
1100
0000
1000
0010
1000
0010
1000
0000
,
1001
0000
0100
0001
0010
0000
0011
0000
0000
0000
0100
0010
1001
0000
0100
0001
,
1010
0000
0001
0100
1000
0000
1100
0000
0011
0000
0100
0000
1010
0000
0101
0000
,
1001
1000
1000
1000
,
1000
1000
1000
1000
,
0101
0001
0001
0001
,
1010
0010
0010
0010
,
1001
0001
0001
0001
,
1100
0100
0100
0100
,
0101
0001
0001
0001
,
0011
0001
0001
0001
,
0100
0100
1001
0000
0000
0100
1001
0000
,
0001
0001
0110
0000
0000
0001
0110
0000
,
0010
0010
1100
0000
0000
0010
1100
0000
,
0010
0010
1100
0100
0010
0001
0101
0000
,
0001
0001
0101
0000
0000
0001
0101
0000
,
0010
0020
0000
0000
0000
0000
0000
0000
,
0000
0000
0000
0000
,
0000
0000
0000
0000
,
0000
0000
0000
0000
,
0000
0000
0000
0000
0000
0000
0000
0030
,
00M0
0000
0000
0000
;

//---------------dance-single - ----------------
#NOTES:
     dance-single:
     :
     Hard:
     13:
     0.624631,0.621379,0.055172,0.068966,0.000000,634.000000,626.000000,8.000000,10.000000,1.000000,0.000000,0.624631,0.621379,0.055172,0.068966,0.000000,634.000000,626.000000,8.000000,10.000000,1.000000,0.000000:
// measure 0
0000
0000
0000
0000
,  // measure 1
0000
0000
0000
0000
,  // measure 2
0000
0000
0000
0000
,  // measure 3
0000
0000
0000
0000
,  // measure 4
0000
0000
0000
0000
,  // measure 5
0000
0000
0000
0000
,  // measure 6
0000
0000
0000
0000
,  // measure 7
0000
0000
0000
0000
,  // measure 8
0010
1000
0100
0100
0000
0010
0001
0100
,  // measure 9
0010
1000
0100
0100
0000
0100
1000
0001
,  // measure 10
0100
0010
1000
1000
0000
0001
0001
1000
,  // measure 11
1000
0010
0100
0100
0000
0001
0100
1000
,  // measure 12
0001
0010
1000
1000
0000
0001
0001
0010
,  // measure 13
0010
0100
1000
0010
0100
0001
0001
0001
,  // measure 14
0010
0100
1000
1000
0000
0010
0010
0100
,  // measure 15
0100
0001
0001
0001
0000
1000
0010
0100
,  // measure 16
0001
0010
0100
0100
0000
1000
1000
0010
,  // measure 17
0010
0100
0100
0001
1000
0010
0010
0010
,  // measure 18
0100
0001
0010
0010
0000
0100
0100
1000
,  // measure 19
1000
0010
0100
0001
0100
0010
1000
0100
,  // measure 20
0010
0001
0001
0001
0000
0010
0010
0100
,  // measure 21
0100
0001
1000
0010
0100
0001
0001
0001
,  // measure 22
0010
0100
0100
0010
0000
0100
1000
0010
,  // measure 23
1000
0001
0100
0001
0001
0010
0100
1000
,  // measure 24
0010
1000
1000
1000
0000
0010
0010
0100
,  // measure 25
0100
0001
0001
0001
0000
0010
0010
0100
,  // measure 26
0100
1000
1000
0010
1000
0001
1000
0100
,  // measure 27
1000
1000
0001
1000
1000
0100
1000
1000
,  // measure 28
0010
0100
0100
0001
0000
0010
0100
0010
,  // measure 29
0001
1000
1000
0010
0000
0100
0001
0100
,  // measure 30
0010
1000
1000
0010
0100
0001
0100
0010
,  // measure 31
0100
0100
0010
1000
1000
0010
0100
0100
,  // measure 32
0001
0010
0010
0100
0000
0010
0001
0010
,  // measure 33
0100
1000
1000
0001
0000
0100
0010
0100
,  // measure 34
0001
1000
1000
0010
0100
0001
0100
0010
,  // measure 35
1000
1000
0010
0100
0100
0001
0100
0010
,  // measure 36
1000
0001
0010
0010
0000
0010
0001
0100
,  // measure 37
0010
1000
1000
0001
0000
0100
0010
1000
,  // measure 38
0001
0010
0010
0001
0100
0010
1000
0001
,  // measure 39
0100
0100
0010
1000
1000
0001
0100
0010
,  // measure 40
1000
0100
0001
0001
0000
1000
0010
0001
,  // measure 41
1000
0100
0001
0001
0000
0001
0100
0010
,  // measure 42
0001
1000
0100
0100
0000
0010
0010
0100
,  // measure 43
0100
1000
0001
0001
0000
0010
0001
0100
,  // measure 44
0010
1000
0100
0100
0000
0010
0010
1000
,  // measure 45
1000
0001
0100
1000
0001
0010
0010
0010
,  // measure 46
1000
0001
0100
0100
0000
1000
1000
0001
,  // measure 47
0001
0010
0010
0010
0000
0100
1000
0001
,  // measure 48
0010
1000
0001
0001
0000
0100
0100
1000
,  // measure 49
1000
0001
0001
0010
0100
1000
1000
1000
,  // measure 50
0001
0010
1000
1000
0000
0001
0001
0100
,  // measure 51
2000
0000
3000
0100
0000
0001
0100
0001
,  // measure 52
1000
0010
0100
0100
0000
1000
1000
0001
,  // measure 53
0001
0010
0100
1000
0001
0010
0010
0010
,  // measure 54
0001
0010
0100
1000
0010
0100
0001
0010
,  // measure 55
0100
1000
0010
0100
0001
1000
0001
0100
,  // measure 56
1000
0100
0100
0100
0000
1000
1000
0001
,  // measure 57
0001
0010
0010
0010
0000
1000
1000
0001
,  // measure 58
0001
0100
0100
1000
0100
0010
0100
0001
,  // measure 59
0100
0100
0010
0100
0100
0001
0100
0100
,  // measure 60
1000
0001
0001
0010
0000
1000
0001
1000
,  // measure 61
0010
0100
0100
1000
0000
0001
0010
0001
,  // measure 62
1000
0100
0100
1000
0001
0010
0001
1000
,  // measure 63
0001
0001
1000
0100
0100
1000
0001
0001
,  // measure 64
0010
1000
1000
0001
0000
1000
0010
1000
,  // measure 65
0001
0100
0100
0010
0000
0001
1000
0001
,  // measure 66
0010
0100
0100
1000
0001
0010
0001
1000
,  // measure 67
0100
0100
1000
0001
0001
0010
0001
1000
,  // measure 68
0100
0010
1000
1000
0000
1000
0010
0001
,  // measure 69
1000
0100
0100
0010
0000
0001
1000
0100
,  // measure 70
0010
1000
1000
0010
0001
1000
0100
0010
,  // measure 71
0001
0001
1000
0100
0100
0010
0001
1000
,  // measure 72
0010
1000
0100
0100
0000
0010
0001
0100
,  // measure 73
0010
1000
0100
0100
0000
0100
1000
0001
,  // measure 74
0100
0010
1000
1000
0000
0001
0001
1000
,  // measure 75
1000
0010
0100
0100
0000
0001
0100
1000
,  // measure 76
0001
0010
1000
1000
0000
0001
0001
0010
,  // measure 77
0010
0100
1000
0010
0100
0001
0001
0001
,  // measure 78
0010
0100
1000
1000
0000
0010
0010
0100
,  // measure 79
0100
0001
0001
0001
0000
1000
0010
0100
,  // measure 80
0001
0010
0100
0100
0000
1000
1000
0010
,  // measure 81
0010
0100
0100
0001
1000
0010
0010
0010
,  // measure 82
0100
0001
0010
0010
0000
0100
0100
1000
,  // measure 83
1000
0010
0100
0001
0100
0010
1000
0100
,  // measure 84
0010
0001
0001
0001
0000
0010
0010
0100
,  // measure 85
0100
0001
1000
0010
0100
0001
0001
0001
,  // measure 86
0010
0100
0100
0010
0000
0100
1000
0010
,  // measure 87
1000
0001
0100
0001
0001
0010
0100
1000
,  // measure 88
0020
0000
0000
0000
0000
0000
0000
0030
,  // measure 89
2000
0000
0000
0000
0000
0000
0000
3000
,  // measure 90
0200
0000
0000
0000
0000
0000
0000
0300
,  // measure 91
0002
0000
0000
0000
0000
0000
0000
0003
,  // measure 92
0020
0000
0000
0000
0000
0000
0000
0030
,  // measure 93
2000
0000
0000
0000
0000
0000
0000
3000
,  // measure 94
0200
0000
0000
0000
0000
0000
0000
0300
,  // measure 95
0002
0000
0000
0000
0000
0000
0000
0003
,  // measure 96
0100
0100
1010
0000
0000
0100
1010
0000
,  // measure 97
0100
0100
0011
0000
0000
0100
0011
0000
,  // measure 98
0001
0001
1010
0000
0000
0001
1010
0000
,  // measure 99
0001
0001
0100
0010
0010
1000
0010
0000
,  // measure 100
0100
0100
1010
0000
0000
0100
1010
0000
,  // measure 101
0100
0200
0000
0000
0000
0000
0000
0000
,  // measure 102
0000
0000
0000
0000
,  // measure 103
0000
0000
0000
0000
,  // measure 104
0000
0000
0000
0000
,  // measure 105
0000
0000
0000
0000
0000
0000
0000
0300
,  // measure 106
0M00
0000
0000
0000
;

//---------------dance-single - ----------------
#NOTES:
     dance-single:
     :
     Medium:
     6:
     0.291626,0.328965,0.000000,0.075862,0.000000,296.000000,296.000000,0.000000,11.000000,3.000000,0.000000,0.291626,0.328965,0.000000,0.075862,0.000000,296.000000,296.000000,0.000000,11.000000,3.000000,0.000000:
0000
0000
0000
0000
,
0000
0000
0000
0000
,
0000
0000
0000
0000
,
0000
0000
0000
0000
,
0000
0000
0000
0000
,
0000
0000
0000
0000
,
0000
0000
0000
0000
,
0000
0000
0000
0000
,
0001
0001
0000
0100
,
0010
0010
0000
1000
,
0100
0100
0000
0010
,
0001
0001
0000
1000
,
0010
0010
0000
1000
,
0010
0010
0100
0001
,
1000
1000
0000
0100
,
0010
0010
0000
0001
,
0100
0100
0000
0010
,
1000
1000
0001
0100
,
0001
0001
0000
0010
,
0100
1000
0010
0100
,
0010
0010
0000
1000
,
0010
0010
0100
0001
,
0010
0010
0000
0100
,
1000
0010
1000
0001
,
1000
1000
0000
0010
,
0100
0100
0000
0001
,
0010
0010
0100
1000
,
0010
0100
0001
0100
,
0001
0001
0000
0010
,
0100
0100
0000
1000
,
0010
0010
0100
0001
,
1000
0010
1000
0001
,
0010
0010
0000
0100
,
1000
1000
0000
0010
,
0100
0100
0001
1000
,
0010
0100
0001
0010
,
0001
0001
0000
1000
,
0010
0010
0000
0100
,
0010
0010
1000
0001
,
0100
0010
1000
0010
,
0100
0100
0000
0001
,
0010
0010
0000
0100
,
1000
1000
0000
0010
,
0100
0100
0010
1000
,
0001
0001
0000
0010
,
0100
0100
0000
1000
,
0010
0010
0000
0100
,
0001
0001
1000
0010
,
0100
0100
0000
0001
,
0010
0010
0100
1000
,
0010
0010
0000
0100
,
0002
0003
2000
3000
,
0010
0010
0000
0100
,
0001
0001
0010
0100
,
1000
1000
0001
0001
,
0100
0100
0010
0010
,
1000
0001
0001
0000
,
0001
1000
1000
0000
,
0010
0100
0100
0001
,
1000
1000
0010
0010
,
1000
1000
0000
0001
,
0010
0010
0000
0100
,
1000
1000
0010
0010
,
0100
0001
1000
0010
,
0100
0100
0000
0001
,
0010
0010
0000
0100
,
1000
1000
0001
0001
,
0100
0010
1000
0010
,
0100
0100
0000
0001
,
0010
0010
0000
0100
,
1000
1000
0001
0001
,
0100
0010
1000
0001
,
0010
0010
0000
0100
,
1000
1000
0000
0010
,
0100
0100
0000
0010
,
1000
1000
0000
0001
,
0010
0010
0000
0100
,
1000
1000
0010
0100
,
0001
0001
0000
0010
,
0100
0100
0000
1000
,
0010
0010
0000
0100
,
0001
0001
0010
0100
,
1000
1000
0000
0001
,
1000
1000
0010
0100
,
0001
0001
0000
0100
,
0010
1000
0001
0100
,
0010
0010
0000
1000
,
0100
0010
0001
0100
,
2000
0000
0000
0000
,
3020
0000
0000
0000
,
0032
0000
0000
0000
,
0203
0000
0000
0000
,
0320
0000
0000
0000
,
2030
0000
0000
0000
,
3002
0000
0000
0000
,
0203
0000
0000
0000
,
0310
1000
0000
1000
,
0001
0100
0000
0100
,
0001
0010
0000
0010
,
0001
1000
0010
0100
,
0001
0010
0000
0010
,
0002
0000
0000
0000
,
0000
0000
0000
0000
,
0000
0000
0000
0000
,
0000
0000
0000
0000
,
0000
0000
0000
0000
,
MMM3
0000
0000
0000
;
