#TITLE:The Legend Of Link;
#SUBTITLE:;
#ARTIST:S3RL feat. Mixie Moon;
#TITLETRANSLIT:;
#SUBTITLETRANSLIT:;
#ARTISTTRANSLIT:;
#GENRE:;
#CREDIT:;
#BANNER:[Theme] - The Legend Of Link.PNG;
#BACKGROUND:[Theme] - The Legend Of Link-bg.png;
#LYRICSPATH:[Theme] - The Legend Of Link.lrc;
#CDTITLE:cdtitle.png;
#MUSIC:[Theme] - The Legend Of Link.ogg;
#OFFSET:-5.559000;
#SAMPLESTART:70.870003;
#SAMPLELENGTH:12.000000;
#SELECTABLE:YES;
#BPMS:0.000000=87.504997
,16.000000=43.751999
,24.000000=175.005005
,184.000000=87.502998
,192.000000=43.750999
;
#STOPS:
;
#BGCHANGES:;
#KEYSOUNDS:;
#ATTACKS:;

//---------------dance-single - ----------------
#NOTES:
     dance-single:
     :
     Hard:
     8:
     0.445924,0.450508,0.349112,0.451792,0.020536,304.000000,270.000000,34.000000,44.000000,0.000000,0.000000,0.445924,0.450508,0.349112,0.451792,0.020536,304.000000,270.000000,34.000000,44.000000,0.000000,0.000000:
0010
2010
0000
3001
0101
0000
0010
1000
,
2010
0000
3001
0100
0020
0000
2030
3100
,
2100
0000
3001
0002
0020
0003
0100
0230
,
2000
0300
3020
0000
0230
0000
0301
1000
,
0002
0100
0000
0000
1003
0000
0000
0010
1000
0000
0000
0001
0100
0000
0000
0010
,
0200
0000
0000
0000
0320
0000
0000
0000
2030
0000
0000
0000
0002
0000
0000
3003
,
2001
0000
3001
0000
0001
1000
0001
1000
,
0020
0000
0130
0000
0001
0100
0001
0100
,
0020
0000
1030
0000
0010
0000
0100
0010
,
0100
0010
1001
0110
,
2000
0000
3001
0100
0001
0100
0010
0100
,
0010
0000
0100
0001
0020
0000
0031
0000
,
0101
1010
0101
1010
,
0001
1000
0001
0010
0100
1000
0001
0000
,
2000
0000
3010
0100
0010
0100
0001
1000
,
0001
0000
0001
0100
0001
0000
1001
0000
,
1010
0000
0001
0100
0002
0000
1003
0000
,
0001
0000
0010
0001
0100
0000
0101
0000
,
0010
0000
1000
0001
1000
0001
0100
0010
,
0100
0000
0001
1000
0002
0000
0013
0000
,
0002
0103
0200
0310
,
0020
1030
1001
0110
,
0011
0000
0010
0100
0010
0100
1000
0001
,
0020
0000
0130
0000
0010
0001
0100
0010
,
0100
0000
2000
0000
3001
1000
0100
1000
,
0010
0000
1000
0010
1000
0000
0100
0000
,
1100
0000
0001
0100
0001
0100
0010
1000
,
0010
0000
0010
0100
0001
1000
0001
0100
,
0001
0000
0100
0001
0010
0001
0010
0100
,
0010
0001
0100
0010
,
0210
0000
0010
0000
0301
1000
0001
1000
,
0002
0000
0013
0000
0100
1000
0100
0010
,
0001
0000
0101
0000
1000
0010
0100
0001
,
0010
0100
0110
1000
,
1010
0000
0100
0001
0100
0001
0100
0000
,
0011
0000
0100
1000
0100
1000
0100
0000
,
0110
0000
0001
1000
0001
1000
0001
0000
,
2002
0000
3003
1000
,
1001
0000
0001
1000
0001
0000
0200
0000
,
0310
0000
0010
0100
0010
0000
0002
0000
,
0013
0000
0100
0010
0100
0000
0110
0000
,
1001
0000
0100
1000
0100
0000
0010
0000
,
1010
0000
1000
0010
1000
0010
0100
0010
,
0101
0000
0001
0100
0001
0100
0010
0100
,
0101
0000
0100
0001
1000
0000
0110
0000
,
1001
0200
0310
0100
,
2001
0000
0010
0010
3020
0000
0100
0100
,
0230
0000
0001
0001
0302
0000
2003
0000
,
3020
0230
0320
0130
;

//---------------dance-single - ----------------
#NOTES:
     dance-single:
     :
     Medium:
     5:
     0.328576,0.325367,0.112948,0.143752,0.000000,224.000000,213.000000,11.000000,14.000000,0.000000,0.000000,0.328576,0.325367,0.112948,0.143752,0.000000,224.000000,213.000000,11.000000,14.000000,0.000000,0.000000:
0010
0100
0000
0001
1000
0000
0000
0100
,
0100
0000
0000
0010
0010
0000
0000
0100
,
1001
0000
0000
1000
1010
0000
0000
0100
,
0101
0000
0000
0010
0110
0000
0001
0000
,
2000
0020
3030
0002
,
0200
0303
0020
0030
,
0010
0000
0100
0000
0010
0100
0010
0100
,
0010
0010
1000
0001
,
0100
0010
1000
0001
,
0100
0000
0010
0100
0010
0000
0001
0000
,
0010
0000
0100
0000
1000
0100
1000
0100
,
1000
0001
0100
0010
,
0010
0100
0200
0310
,
0002
1003
2000
3001
,
1000
0000
0100
0000
1000
0100
1000
0100
,
1000
0001
0100
0010
,
0001
0100
1000
0001
,
0010
0000
0010
0100
0010
0000
0001
0000
,
0010
0000
0001
0000
1000
0100
1000
0010
,
1000
0000
0001
0000
0100
0000
0010
0100
,
0010
0001
1000
0100
,
2002
0000
0000
3003
,
0001
0000
1000
0000
0000
0010
1000
0010
,
1000
0100
1000
0001
,
0100
0000
0010
0000
0001
0100
0001
0100
,
0001
1000
0010
0010
,
0100
0000
0010
0000
0000
0000
1000
0100
,
1000
0000
0001
0000
0000
0000
0010
0100
,
0010
1001
0000
0001
,
0010
0100
1000
0001
,
0010
0000
0100
0000
0000
1000
0001
0100
,
0010
0000
0001
0000
0010
0100
0001
0100
,
0001
0010
0100
0010
,
1000
0100
1000
0001
,
1000
0010
1000
0000
0100
0000
0001
0000
,
0010
0001
0010
0000
0100
0000
0010
0000
,
0100
0010
0100
0000
0001
0000
0100
0000
,
2000
0000
0000
3001
,
0001
0100
0010
1000
,
0100
0001
0010
0100
,
0010
0110
1001
0100
,
0101
0000
1000
0100
1000
0000
0010
0000
,
0020
0000
0130
0000
0001
0010
0001
0010
,
0001
1000
0100
0010
,
0001
0100
1000
0001
,
0101
0000
0010
1000
0010
0000
0100
0000
,
0001
0000
1000
0010
0100
0000
0010
0001
,
0100
0000
0010
1000
0010
0000
0100
0000
,
2001
0000
0002
3003
;

//---------------dance-single - ----------------
#NOTES:
     dance-single:
     :
     Easy:
     3:
     0.217095,0.300339,0.184824,0.318308,0.000000,148.000000,130.000000,18.000000,31.000000,0.000000,0.000000,0.217095,0.300339,0.184824,0.318308,0.000000,148.000000,130.000000,18.000000,31.000000,0.000000,0.000000:
0010
0000
0000
0000
0100
0000
0000
0001
,
1001
0000
0000
1000
1010
0000
0000
0010
,
0200
0300
0020
0030
,
0101
0000
0010
0100
,
2002
3003
0200
0300
,
2002
3003
0002
0003
,
1000
0000
0010
1000
,
0100
0000
0100
0001
,
0010
0000
0010
0100
,
0010
0000
0110
0000
,
0002
0003
1000
0010
,
0200
0300
0100
1000
,
0020
0030
2000
3000
,
1001
0000
0100
0001
,
0100
0000
0010
1000
,
0100
0000
0010
0100
,
0010
0000
0001
0010
,
0001
0000
0101
0000
,
0100
0000
0010
0010
,
0010
0000
0100
0100
,
0200
0000
0320
0000
,
0230
0000
0300
0010
,
1000
0001
0000
1000
,
0010
0000
0000
0100
,
0100
0000
0000
0010
,
0010
0100
0010
0100
,
0010
0000
0000
0100
,
0101
0000
0000
0010
,
1010
0000
0000
0100
,
0110
0000
0001
1000
,
0010
0000
0100
1000
,
0010
0000
0001
0010
,
0001
0000
0100
1000
,
0100
0000
0010
0100
,
0110
0000
0001
0010
,
0011
0000
0100
1000
,
1100
0000
0010
0000
,
2002
0000
0000
3003
,
0001
0000
1000
0010
,
2000
0000
3001
0100
,
0020
0000
0130
0001
,
0200
0000
0320
0000
,
2030
0000
3001
0010
,
0200
0000
0301
0010
,
2000
0000
3002
0000
,
0203
0000
0320
0000
,
1030
0000
0010
0010
0010
0000
0100
0000
,
1001
0010
2002
3003
,
2002
0000
0000
3003
;

//---------------dance-single - ----------------
#NOTES:
     dance-single:
     :
     Beginner:
     1:
     0.112948,0.200226,0.092412,0.164288,0.000000,77.000000,68.000000,9.000000,16.000000,0.000000,0.000000,0.112948,0.200226,0.092412,0.164288,0.000000,77.000000,68.000000,9.000000,16.000000,0.000000,0.000000:
0010
0000
0000
0000
,
0100
0000
0000
0000
,
0010
0000
0000
0000
,
0100
0000
0000
0000
,
1001
0000
0000
0000
,
0110
0000
0000
0000
,
1000
0000
0000
0000
,
0010
0000
0000
0100
,
0001
0000
0000
0000
,
1010
0000
0000
0000
,
0200
0000
0000
0300
,
0020
0000
0000
0030
,
0100
0000
0001
0000
,
0100
0000
0000
0000
,
0010
0000
0000
0100
,
0001
0000
0000
0010
,
1000
0000
0001
0000
,
1001
0000
0000
0000
,
2000
0000
0000
0000
,
3002
0000
0003
0100
,
0010
0000
1000
0000
,
0001
0000
0000
0000
,
0010
0000
0000
0100
,
0100
0000
0000
0001
,
0001
0000
0000
1000
,
1000
0000
0000
0000
,
0200
0000
0000
0000
,
0320
0000
0000
0000
,
0230
0000
0000
0000
,
0320
0000
0000
0000
,
0130
0000
0000
1000
,
1000
0000
0000
0100
,
0001
0000
0000
0010
,
1000
0000
0000
0000
,
0002
0000
0000
0000
,
2003
0000
0000
0000
,
3020
0000
0000
0000
,
0230
0000
0000
0000
,
0310
0000
0000
0001
,
0100
0000
0000
0010
,
1000
0000
1010
0000
,
0101
0000
0000
0000
,
0200
0000
0000
0000
,
0302
0000
0000
0000
,
1003
0000
0001
0000
,
1000
0000
0000
0000
,
0010
0000
0100
0000
,
1001
0000
0110
0000
,
2002
0000
0000
3003
;

//---------------dance-single - ----------------
#NOTES:
     dance-single:
     :
     Challenge:
     15:
     0.806771,1.329898,0.143752,0.739296,1.175685,550.000000,536.000000,14.000000,72.000000,0.000000,1.000000,0.806771,1.329898,0.143752,0.739296,1.175685,550.000000,536.000000,14.000000,72.000000,0.000000,1.000000:
0100
0000
0000
0000
0000
0000
0000
0000
0000
0000
0000
0000
0000
0000
0000
0000
0000
0000
0000
0000
0000
0000
0000
0000
0102
0000
0000
0000
0000
0000
0000
0000
0000
0000
0000
0000
0000
0000
0000
0000
0000
0000
0000
0000
0000
0000
0000
0000
0000
0000
0000
0000
0000
0000
0000
0000
0000
0000
0000
0000
1003
0000
0000
0000
0000
0000
0000
0000
0000
0000
0000
0000
0010
0000
0000
0000
0000
0000
0100
0000
0000
0000
0000
0000
0010
0000
0000
0000
0000
0000
1000
0000
0000
0000
0000
0000
0002
0000
0000
0000
0000
0000
0000
0000
0000
0000
0000
0000
0000
0000
0000
0000
0000
0000
0000
0000
0000
0000
0000
0000
1003
0000
0000
0000
0000
0000
0000
0000
0100
0000
0000
0000
0000
0000
0000
0000
0010
0000
0000
0000
0000
0000
0000
0000
0001
0000
0000
0000
0000
0000
0000
0000
0000
0000
0000
0000
1000
0000
0000
0000
0000
0000
0000
0000
0000
0000
0000
0000
0001
0000
0000
0000
0000
0000
0000
0000
0010
0000
0000
0000
0000
0000
0000
0000
0100
0000
0000
0000
0000
0000
0000
0000
,
2000
0000
0000
0000
0000
0000
0000
0000
0000
0000
0000
0000
0000
0000
0000
0000
3000
0000
0000
0000
0000
0000
0000
0000
1000
0000
0000
0000
0000
0000
0000
0000
0010
0000
0000
0000
0000
0000
0000
0000
0100
0000
0000
0000
0000
0000
0000
0000
0002
0000
0000
0000
0000
0000
0000
0000
0000
0000
0000
0000
1000
0000
0000
0000
0000
0000
0000
0000
0000
0000
0000
0000
0013
0000
0000
0000
0000
0000
0000
0000
0100
0000
0000
0000
0000
0000
0000
0000
0010
0000
0000
0000
0000
0000
0000
0000
0200
0000
0000
0000
0000
0000
0000
0000
0000
0000
0000
0000
0000
0000
0000
0000
0000
0000
0001
0000
0000
0000
0000
0000
1300
0000
0000
0000
0000
0000
0000
0000
0100
0000
0000
0000
0000
0000
0000
0000
0010
0000
0000
0000
0000
0000
0000
0000
0001
0000
0000
0000
0000
0000
0000
0000
0000
0000
0000
0000
0000
0000
0000
0000
0000
0000
0100
0000
0000
0000
0000
0000
0020
0000
0000
0000
0000
0000
0000
0000
0000
0000
0000
0000
0000
0000
0000
0000
0000
0000
0030
0000
0000
0000
0000
0000
,
1002
0000
1000
0100
2003
0000
0000
0000
3100
0000
0000
0000
2000
0000
0100
0000
3200
0000
0010
0001
0320
0000
0000
0000
0031
0000
0000
0000
0020
0000
0001
0000
,
0032
0000
1000
0010
2003
0000
0000
0000
3100
0000
0000
0000
2000
0000
0000
0000
3002
0000
0000
0000
0003
0000
0000
0000
1100
0000
1100
0000
1001
0000
0000
0000
,
2000
0000
0000
0000
0000
0000
0000
0000
0000
0000
0000
0000
3020
0000
0000
0000
0000
0000
0000
0000
0000
0000
0000
0000
0000
0000
0000
0030
0000
0000
0100
0000
0000
0000
0000
0000
0001
0000
0000
0010
0000
0000
0100
0000
0000
1000
0000
0000
0002
0000
0000
0000
0000
0000
0000
0000
0000
0000
0000
0000
0000
0000
0000
0000
0000
0000
0000
0000
0003
0000
0000
0000
0000
0000
0000
0000
0000
0000
0000
0010
0000
0000
0000
0000
0100
0000
0000
0000
1000
0000
0000
0000
0001
0000
0000
0000
0020
0000
0000
0000
0000
0000
0000
0000
0000
0000
0000
0000
0000
0000
0000
0000
0000
0000
0000
0000
0000
0030
0000
0000
0000
0000
0000
0000
0000
0000
0000
0000
0100
0000
0000
0000
0010
0000
0000
0000
0001
0000
0000
0000
0010
0000
0000
0000
0200
0000
0000
0000
0000
0000
0000
0000
0000
0000
0000
0000
0000
0000
0000
0000
0000
0000
0000
0000
0000
0000
0000
0300
0000
0000
0000
0000
0000
0000
0000
0000
0000
0000
0000
0000
1000
0000
0000
0000
0000
0000
0000
0000
0000
0000
0000
0000
,
1000
0000
0000
0000
0000
0000
0010
0000
0000
0100
0000
0000
0002
0000
0000
0000
0000
0000
0000
0000
0000
0000
0000
0000
0000
0000
0000
0000
0000
0003
0000
0000
0000
0000
0000
0000
0001
0000
0000
0000
0000
0000
0100
0000
0000
0000
0000
0000
0010
0000
0000
0000
0000
0000
1000
0000
0000
0100
0000
0000
2000
0000
0000
0000
0000
0000
0000
0000
0000
0000
0000
0000
0000
0000
0000
0000
0000
3000
0000
0000
0000
0000
0000
0000
0001
0000
0000
0000
0000
0000
0000
0010
0000
0000
0000
0000
0100
0000
0000
0000
0000
0000
0010
0000
0000
0100
0000
0000
0020
0000
0000
0000
0000
0000
0000
0000
0000
0000
0000
0000
0000
0000
0000
0000
0000
0000
0000
0000
0000
0030
0000
0000
0000
0002
0000
0000
0000
0000
0000
0000
0000
0000
0000
0000
2003
0000
0000
0000
0000
0000
0000
0000
0000
0000
0000
0000
0000
0000
0000
0000
0000
0000
3000
0000
0000
0000
0000
0000
0002
0000
0000
0000
0000
0000
0200
0000
0000
0000
0000
0000
0000
0000
0000
0300
0003
0000
0000
0000
0000
0000
0000
0000
,
1002
0000
0000
0000
1003
0000
0000
0000
1000
0000
0001
0000
1000
0100
0010
0001
,
0200
0000
0000
0000
0000
0000
0000
0000
0000
0000
0000
0000
0310
0000
0000
1000
0000
0000
0001
0000
0000
1000
0000
0000
0100
0000
0000
0000
0000
0000
0010
0000
0000
0000
0000
0000
0001
0000
0000
0000
0001
0000
0000
0000
0001
0000
0000
0000
,
2000
0000
0000
0000
0000
0000
3100
0000
0100
0000
0100
0000
0010
0000
0000
0000
0000
0000
0010
0000
0000
0100
0000
0000
,
0010
0000
0000
0000
0000
0000
0000
0000
0000
0000
0000
0000
0000
0000
0000
0000
0000
0000
0000
0000
0000
0000
0000
0000
0000
0000
0000
0000
0000
0000
0000
0000
0000
0000
0000
0000
0000
0000
0000
0000
0000
0000
0000
0000
0000
0000
0000
0000
0100
0000
0000
0000
0000
0000
0000
0000
0000
0000
0000
0000
0000
0000
0000
0000
0000
0000
0000
0000
0000
0000
0000
0000
0100
0000
0000
0000
0000
0000
0000
0000
0000
0000
0000
0000
0000
0000
0000
0000
0000
0000
0000
0000
0000
0000
0000
0000
0100
0000
0000
0000
0000
0000
0000
0000
0000
0000
0000
0000
0010
0000
0000
0000
0000
0000
0000
0000
0000
0000
0000
0000
0100
0000
0000
0000
0000
0000
0000
0000
0010
0000
0000
0000
0000
0000
0000
0000
0100
0000
0000
0000
0000
0000
0000
0000
0010
0000
0000
0000
0000
0000
0000
0000
0001
0000
0000
0000
0000
0000
0000
0000
1000
0000
0000
0000
0000
0000
0000
0000
0001
0000
0000
0000
0000
0000
1000
0000
0000
0000
0000
0000
0001
0000
0000
0000
0000
0000
1000
0000
0000
0000
0000
0000
,
0002
0000
2003
0100
3200
0320
0031
0010
,
0200
0000
2300
0100
3200
0000
2300
0000
,
3002
0000
0203
0000
0310
0010
0100
0001
,
2000
3002
2003
3200
0320
0031
2000
0000
,
3102
0000
0000
0000
2003
0000
0000
0000
0000
0000
3100
0000
0010
0001
0100
0010
,
1000
0000
0000
0001
0000
0000
1000
0000
0100
0000
0010
0000
0001
0000
0000
1000
0000
0000
0001
0000
0010
0000
0100
0000
,
1000
0000
0000
0001
0000
0000
1000
0000
0010
0000
0100
0000
0001
0000
0000
1000
0000
0000
0001
0000
0100
0000
0010
0000
,
1000
0000
0001
0000
0100
0010
1000
0001
0200
0000
0000
0000
0320
0000
0000
0000
,
1030
0000
0100
1000
0100
0000
0010
0000
0001
0000
0001
0000
0001
0000
0010
0000
,
0100
0000
0010
0001
0010
0000
0100
0000
0100
0000
0100
0000
1000
0000
1000
0000
,
0010
0000
0100
0010
0100
0000
0001
1000
0001
0000
1000
0001
1000
0000
0001
1000
,
0200
0000
0310
0010
0010
0010
0120
0000
,
0032
0000
0000
0000
2003
0000
0000
0000
3000
0000
0001
0000
1000
0100
0010
0001
,
1000
0000
0000
0001
0000
0000
1000
0000
0010
0000
0100
0000
0001
0000
0000
1000
0000
0000
0001
0000
0010
0000
0100
0000
,
1000
0000
0000
0100
0000
0000
0010
0000
0100
0000
1000
0000
0001
0000
0000
0100
0000
0000
0001
0000
0100
0000
0010
0000
,
1000
0000
0000
0000
0000
0000
0000
0000
0000
0001
0000
0000
1000
0000
0000
0000
0100
0000
0000
0000
0010
0000
0000
0000
0001
0000
0000
0000
0000
0000
0000
0000
0000
1000
0000
0000
0001
0000
0000
0000
0000
0000
0000
0000
0000
0000
0000
0000
,
1001
0000
0001
1000
0001
0000
1000
0010
0000
1000
0100
0000
0010
0000
0001
0000
,
0010
0000
0100
0010
0100
0000
0010
0001
0000
0010
0100
0000
0010
0000
0001
0000
,
1000
0000
0100
0010
0001
0000
1000
0001
0000
0100
0010
0000
2000
0000
0000
3000
,
0002
0000
0003
0001
0100
0000
0100
0010
0000
0010
1000
0000
2000
0000
3000
0000
,
0001
0001
0000
0010
0000
0100
0100
0000
1000
0000
0100
0000
1001
0001
0010
0100
,
1000
0000
0000
0010
0000
0000
1000
0000
1000
0000
1000
0000
0100
0000
0000
0010
0000
0000
0001
0000
0001
0000
0001
0000
,
0100
0000
0010
0000
1000
0010
0100
0001
1000
0000
0100
0000
0010
0001
1000
0010
,
0100
0000
0001
0100
0000
0001
1000
0000
0010
1000
0000
0100
0010
0000
0200
0000
,
0320
0000
0031
0010
0100
0000
1000
0000
0100
0000
0010
0000
0002
0000
0203
0000
,
0320
0000
1030
0100
0010
0000
0000
0001
0000
0000
1000
0000
0010
0000
0100
0000
,
0001
0000
1000
0100
0010
0000
0000
0100
0000
0000
1000
0000
0100
0000
0010
0000
,
0002
0000
0000
0000
1003
0001
1000
0001
1000
0001
2000
0000
0000
0000
3000
0000
,
1001
0010
0100
0001
1000
0010
1000
0100
0010
0001
0010
0100
1000
0010
0100
0001
,
1000
0000
0010
1000
0000
0001
1000
0000
0100
0010
0000
0100
0010
0001
1000
0100
,
0010
0000
0001
0100
0000
0001
1000
0000
0010
0100
0000
0001
1000
0010
0100
0001
,
1000
0000
1000
0100
0000
0100
0010
0000
0010
0001
0000
0001
1000
0010
0100
0010
,
1000
0000
1000
0001
1000
0000
0001
0010
0000
0010
0100
0000
0100
0000
1000
0000
,
0100
0000
1000
0001
1000
0000
0100
0010
0000
0010
0001
0000
0001
0000
1000
0000
,
0010
0000
0010
0100
0010
0000
1000
0100
0000
0100
0010
0000
0001
0000
0100
0000
,
0010
1000
0000
1000
0100
0000
0100
0010
0000
0010
0001
0000
0001
0100
0010
0100
,
0001
0000
0000
0000
0001
0000
0000
0000
0000
0000
1000
0000
0001
0010
0100
1000
0001
0000
0010
1000
0000
0010
0001
0000
0010
0100
1000
0000
1000
0100
0010
0001
,
1000
0000
0100
0001
0000
0100
1000
0000
0100
0010
0001
0000
0001
0100
0010
1000
0001
0000
1000
0010
0000
1000
0100
0000
1000
0001
0100
0010
1000
0100
0010
0010
,
1001
0000
0000
0000
0000
0000
0001
0000
0000
1000
0000
0000
0020
0000
0000
0000
0000
0000
0000
0000
0000
0000
0000
0000
0000
0000
0000
0000
0000
0000
0000
0000
0000
0000
0000
0000
1030
0000
0000
0000
0000
0000
0010
0000
0000
0000
0000
0000
0100
0000
0000
0000
0000
0000
0010
0000
0000
0100
0000
0000
0002
0000
0000
0000
0000
0000
0000
0000
0000
0000
0000
0000
0000
0000
0000
0000
0000
0000
0000
0000
0000
0000
0000
0000
1003
0000
0000
0000
0000
0000
0100
0000
0000
0000
0000
0000
0010
0000
0000
0000
0000
0000
0100
0000
0000
0010
0000
0000
0002
0000
0000
0000
0000
0000
0000
0000
0000
0000
0000
0000
0000
0000
0000
0000
0000
0000
0003
0000
0000
0000
0000
0000
2002
0000
0000
0000
0000
0000
0000
0000
0000
0000
0000
3003
2002
0000
0000
0000
0000
0000
0000
0000
0000
0000
0000
0000
0000
0000
0000
0000
0000
0000
0000
0000
0000
0000
0000
0000
3003
0000
0000
0000
0000
0000
0000
0000
0000
0000
0000
0000
0000
0000
0000
0000
0000
0000
0000
0000
0000
0000
0000
0000
;
