#TITLE:The Call;
#SUBTITLE:;
#ARTIST:BackStreet Boys;
#TITLETRANSLIT:;
#SUBTITLETRANSLIT:;
#ARTISTTRANSLIT:;
#GENRE:;
#CREDIT:Magna Trick;
#BANNER:TC-BN.png;
#BACKGROUND:TC-BG.png;
#LYRICSPATH:;
#CDTITLE:Magna Trick title!.png;
#MUSIC:The Call.mp3;
#OFFSET:-7.520000;
#SAMPLESTART:36.176003;
#SAMPLELENGTH:11.980000;
#SELECTABLE:YES;
#BPMS:0.000000=104.120003
,200.000000=52.060001
,213.500000=208.240005
,215.500000=69.413002
,220.500000=104.120003
,221.000000=208.240005
,229.000000=104.120003
;
#STOPS:259.000000=0.580000,
328.000000=0.540000
;
#BGCHANGES:;
#KEYSOUNDS:;
#ATTACKS:;

//---------------dance-single - ----------------
#NOTES:
     dance-single:
     :
     Hard:
     13:
     0.584266,0.618306,0.364299,0.082574,0.687310,842.000000,767.000000,75.000000,17.000000,0.000000,0.000000,0.584266,0.618306,0.364299,0.082574,0.687310,842.000000,767.000000,75.000000,17.000000,0.000000,0.000000:
0000
0000
0000
0000
,
0001
0000
0000
0000
1000
0000
0000
0000
0100
0000
0000
0000
0010
0000
0001
0010
,
0001
0000
0000
0000
0010
0000
0000
0000
0100
0000
0000
0000
1000
0000
0100
1000
,
0100
0000
1000
0000
0001
0000
1000
0000
0001
0000
1000
0000
0001
0000
0100
0001
,
0100
0000
0001
0000
0100
0000
0001
0000
0100
0000
0001
0000
0100
0000
0010
0100
,
0010
0000
0100
0000
0010
0000
0100
0000
0010
0000
0100
0000
0010
0000
1000
0010
,
1001
1001
1001
0000
0110
0110
0110
1000
,
0100
1000
0001
0010
0100
0010
0000
0001
0000
1000
0000
0010
0000
0100
0000
1000
,
0000
0001
0000
0010
0000
1000
0000
0100
0000
0010
0000
0001
0000
0000
0000
0000
,
0011
0000
0000
0100
1000
0001
0100
0010
0000
1000
0000
0100
1000
0000
0000
0000
,
1001
0000
0000
0000
0101
0000
0000
0001
0010
0100
1000
0010
0000
0010
1000
0000
,
0000
0000
0010
1000
0100
1000
0010
0100
0000
0001
0000
0010
0000
0100
0000
0010
,
0000
1000
0000
0010
0000
0100
0000
1000
0000
0001
0000
0100
0000
0010
0100
0000
,
0110
0000
0000
0000
0000
0000
0000
0000
0000
0000
0000
0000
1010
0000
0000
0000
0000
0000
0100
0000
0000
1000
0000
0000
0001
0000
0000
0000
0000
0000
0100
0000
0010
0000
1000
0000
0001
0000
0000
0000
0000
0000
1000
0000
0000
0001
0000
0000
,
0100
0010
1000
0100
0010
0000
1000
0000
0010
0000
0000
0000
0000
0100
1000
0001
,
0200
0300
0000
0001
0100
0010
1010
0100
,
1100
0000
0000
0001
1001
0000
0010
0000
,
0011
0000
0100
1000
0000
1000
0001
0000
0101
0000
0000
0000
0001
0100
0010
1000
,
0100
0000
0110
0000
0011
0000
1001
0001
,
0100
0000
0010
1000
0100
1000
0010
0000
0100
0000
0001
0000
0010
0000
0100
0000
,
1000
0001
0100
0001
1000
0100
0010
0000
0001
0000
0010
0000
0100
0000
1000
0000
,
0001
0100
0001
0100
0010
1000
0100
0000
1000
0000
0001
1000
0000
1000
0001
0000
,
1001
0000
0001
1000
0100
0000
1000
0001
0100
0000
0001
1000
0100
0000
1000
0001
,
0100
0000
0001
0000
1000
0010
0100
0001
1000
0000
0100
0000
0010
0000
0001
0010
,
0001
0000
0001
0010
0001
0000
0001
0010
0001
0000
0001
0100
0010
0100
0001
1000
,
0100
0000
0100
0000
1000
0000
0001
0100
0001
0000
1000
0000
0010
0000
1000
0100
,
1000
0010
0100
0001
0010
0000
0100
0000
1000
0001
1000
0001
1000
0000
0001
0100
,
0001
0100
0010
0100
0001
0100
0010
1000
,
0100
1000
0000
0010
0000
1000
0000
0100
0000
0010
0000
1000
0000
0010
0100
1000
,
0001
0100
0000
0010
0000
1000
0000
0100
0000
1000
0000
0002
0000
0000
0003
0000
,
0100
0000
0000
0010
1000
0100
1000
0010
0000
0100
0000
0001
0010
0000
0000
0000
,
0011
0000
0000
0000
1100
0000
0000
0001
1000
0010
0100
0001
0000
0010
0100
0000
,
1100
0000
0000
0000
0001
0000
0100
0010
1000
0000
0100
1000
0000
0001
0000
0010
,
0100
0000
0000
0000
0110
0000
0000
0001
1000
0000
1000
0001
0000
0001
0000
0020
,
0000
0000
0000
0000
0000
0000
0230
0000
0000
0000
0300
0000
1000
0010
0100
0001
,
0010
0000
1100
0000
0011
0000
0100
0001
,
1000
0000
0001
1000
0100
0010
0001
0000
0010
0000
0100
0000
1000
0000
0001
0000
,
0100
0000
0001
0100
0010
1000
0100
0000
1000
0000
0010
0000
0100
0000
0001
0000
,
0010
0000
0100
0010
0001
0000
0100
0000
0001
0000
0100
0001
0000
0001
0100
0000
,
0100
0000
0010
1000
0100
0000
0010
0001
0100
0000
0010
1000
0100
0000
0010
0001
,
0100
0000
0010
0000
1000
0100
1000
0010
0100
0000
0001
0000
0010
0000
0100
0010
,
0001
0000
0001
0010
0100
0000
0100
0010
0001
0000
0001
0100
1000
0100
0001
0010
,
1000
0000
0010
0000
0100
0000
1000
0001
0100
0000
0010
0000
1010
0000
0010
1000
,
0100
1000
0010
0100
0001
0000
0010
0000
0100
0010
0001
0010
0100
0000
1000
0001
,
0100
0000
0000
0000
0101
0000
0000
0000
0101
0000
0000
0000
0101
0000
0001
0100
,
0001
0000
0000
0000
0101
0000
0000
0000
0101
0000
0000
0000
0101
0000
0001
0100
,
0001
0000
0100
0010
0100
0001
0010
0000
0100
0000
0010
0000
0001
0000
0000
0000
,
0101
0000
0000
0000
0101
0000
0000
0000
0101
0000
0000
0000
0101
0000
0001
0100
,
0001
0000
0100
0010
0100
0001
0010
0000
0100
0000
0010
0000
0001
0000
0100
0000
,
0101
0000
0000
0000
0101
0000
0000
0000
0101
0000
0000
0000
0101
0000
0001
0100
,
0020
0000
0000
1030
0100
1000
0010
0100
0002
0000
0000
0013
0100
0010
0001
0100
,
0020
0000
0000
1030
0100
1000
0010
0100
0002
0000
2003
0100
3020
0000
0032
0000
,
1000
0000
1000
0100
1000
0100
1000
0100
0010
0000
0010
0100
0010
0100
0010
0100
,
2003
0000
0000
3200
0000
0000
0320
0000
0000
0032
0000
0000
0000
0000
0000
0000
0000
0000
0003
0000
0000
1001
0000
1001
,
0000
1001
0000
0000
0000
0101
0000
0101
0000
0101
0000
0101
0000
1010
0000
1010
0000
1010
0000
0000
0000
1100
0000
1100
,
0000
1100
0000
0110
0000
0000
0002
0000
0000
0000
0000
0000
0000
0000
0000
0000
0000
0000
0000
0000
0000
0000
0000
0000
,
0000
0000
0000
0000
,
0003
0000
0000
0000
1001
0000
0100
1000
0001
0100
0010
1000
0000
0100
0000
1000
,
0000
0010
0000
0100
0000
0001
0000
0010
0000
0100
0000
0100
0000
0010
0000
0001
,
0000
1000
0000
0000
1001
0000
0000
0001
1000
0010
0100
0010
0000
0100
0000
0010
,
1000
0000
0000
0000
1100
0000
0000
0000
1001
0000
0000
0001
0010
0100
0010
0001
,
0000
0100
0001
0000
0000
0000
0100
0010
1000
0100
1000
0010
0000
1000
0000
0100
,
0000
0010
0000
1000
0000
0001
0000
0100
0000
0010
0000
0001
0000
1000
0000
0010
,
0000
0000
0000
0100
0000
0000
0010
0000
0000
0000
0000
0000
0110
0000
0000
0000
0000
0000
0000
0000
0000
0000
0000
0000
1010
0000
0000
0000
0000
0000
0100
0000
0000
1000
0000
0000
0100
0000
0000
0000
0000
0000
1000
0000
0100
0000
0010
0000
,
0001
0000
1000
0001
0010
0100
0010
0001
1000
0000
0010
0000
1001
0000
0001
0100
,
0010
0000
1000
0100
1000
0100
0010
0000
0001
0000
0010
0000
0001
0000
1000
0000
,
1000
0000
0010
0100
0001
0100
0010
0000
1000
0000
0100
0000
0010
0000
1000
0000
,
1000
0010
1000
0001
0100
0010
0100
1000
0001
0100
0010
1000
0000
1000
0001
0000
,
0110
0000
0100
1000
0001
0000
1000
0001
0100
0000
0100
0001
1000
0000
1000
0100
,
0010
0000
0001
0000
0010
0100
1000
0001
0100
0000
0010
0100
0010
0000
1000
0001
,
0100
0000
0001
0010
0100
0000
0100
0010
0001
0000
1000
0010
0100
0000
1000
0000
,
0001
0010
1000
0100
0010
0000
0001
0010
0100
0000
1000
0000
1001
0000
0001
0100
,
0010
0100
0001
0010
0100
0000
0010
0001
0100
0010
0100
0001
1000
0000
0100
1000
,
0001
0000
0000
0000
0000
0000
0010
0000
0000
0100
0000
0000
0010
0000
0000
0001
0000
0000
0100
0000
0000
0000
0000
0000
0010
0000
0000
0000
0000
0000
1000
0000
0100
0000
0010
0000
0001
0000
0000
0000
0000
0000
0001
0000
0010
0000
0100
0000
,
1000
0000
0010
0100
0001
1000
0100
0000
0010
0000
0010
0000
0001
0000
1000
0000
,
0100
0010
0001
0010
0100
1000
0001
0000
0100
0000
0010
0100
0000
0100
0010
0000
,
0010
0000
1000
0100
1000
0000
1000
0001
0010
0000
0001
0010
0001
0000
0010
0100
,
1000
0000
0001
0000
0100
0010
0100
0001
1000
0000
0100
0000
0010
0000
0001
0010
,
0100
0000
1000
0100
0010
0000
0001
0010
0100
0000
1000
0100
0010
0001
0100
0010
,
0100
0000
1000
0000
0100
0000
0001
0010
1000
0000
0010
0000
0110
0000
1000
0000
,
1001
1001
1001
0000
0011
0011
0011
0011
,
1100
0000
1100
0000
1100
0000
0100
1000
0010
1000
0100
0010
0001
0000
1000
0001
,
2000
0000
0000
0100
0000
0000
0000
0000
0000
0000
0000
0000
0000
0000
0000
0000
0000
0000
0000
0100
0000
0000
0000
0000
3000
0000
0000
0000
0000
0000
0000
0000
0000
0000
0000
0000
0000
0000
0000
0000
0000
0000
0000
0000
0000
0000
0000
0000
0000
0000
0000
0000
0000
0000
0000
0000
0000
0000
0000
0000
0000
0000
0000
0000
0000
0000
0000
0000
0000
0000
0000
0000
0000
0000
0000
0000
0000
0000
0000
0000
0000
0000
0000
0000
0000
0000
0000
0000
0000
0000
0000
0000
0000
0000
0000
0000
0000
0000
0000
0000
0000
0000
0000
0000
0000
0000
0000
0000
0000
0000
0000
0000
0000
0000
0000
0000
0000
0000
0000
0000
0000
0000
0000
0000
0000
0000
0000
0000
0000
0000
0000
0000
0000
0000
0000
0000
0000
0000
0000
0000
0000
0000
0000
0000
0000
0000
0000
0000
0000
0000
0000
0000
0000
0000
0000
0000
0000
0000
0000
0000
0000
0000
0000
0000
0000
0000
0000
0000
0000
0000
0000
0000
0000
0000
0000
0000
0000
0000
0000
0000
0000
0000
0000
0000
0000
0000
0000
0000
0000
0000
0000
0000
;

//---------------dance-single - ----------------
#NOTES:
     dance-single:
     :
     Challenge:
     17:
     0.867378,0.917486,1.112325,0.111718,1.088039,1250.000000,1021.000000,229.000000,23.000000,0.000000,5.000000,0.867378,0.917486,1.112325,0.111718,1.088039,1250.000000,1021.000000,229.000000,23.000000,0.000000,5.000000:
0000
0000
0000
0000
,
1100
0000
0000
0000
0011
0000
0001
0000
1010
0000
0000
0000
0011
0000
1000
0010
,
0101
0000
0010
0000
1100
0000
0010
0000
0012
0000
0203
0000
1310
0000
0010
0100
,
1001
0000
0000
0000
0000
0000
0001
0000
0000
0000
0000
0000
1100
0000
0000
0000
0000
0000
0001
0000
0000
0000
0000
0000
1010
0000
0000
0000
0000
0000
0001
0000
0010
0000
0100
0000
1000
0000
0000
0000
0000
0000
0010
0000
0000
1000
0000
0000
,
0011
0100
1000
0010
0101
0000
0010
0000
1100
0000
0002
0000
1013
0000
0100
1000
,
0011
0100
0001
0010
1100
0000
0010
0000
0102
0000
1000
0000
0113
0000
0001
0100
,
1001
1001
1001
0000
0110
0110
0110
0011
,
1100
0001
1000
0100
0010
0100
1000
0001
0010
0001
0000
1000
0100
0010
0000
0001
,
0100
0010
0000
1000
0010
0001
0000
1000
0100
0001
0000
1000
0001
0000
0100
0010
,
1100
0000
0000
0100
0000
0000
0100
0000
0000
0010
0000
0000
1000
0000
0000
0001
0000
0000
0010
0000
0000
0100
0000
0000
0100
0000
0000
1000
0000
0000
0000
0000
0000
0010
0000
0000
0100
0000
0000
0000
0000
0000
0001
0000
1000
0000
0010
0000
,
1001
0100
0001
0100
1010
0001
1000
0100
0011
1000
0010
0100
1001
0100
0010
0001
,
0110
0000
0100
0001
0010
0001
0100
0010
1000
0100
0000
0010
0001
0100
0000
0010
,
1000
0001
0000
0100
0001
1000
0000
0001
0010
1000
0000
0010
0100
0100
0010
1000
,
0110
0000
0000
0001
0000
0000
1000
0000
0000
0010
0000
0000
0101
0000
0000
0000
0000
0000
0010
0000
0000
1000
0000
0000
0001
0000
0000
0000
0000
0000
0010
0000
0100
0000
1000
0000
0001
0000
0000
0000
0000
0000
0010
0000
0000
0100
0000
0000
,
1001
0100
1001
0010
1100
0010
0101
0010
1001
0100
0010
1000
0001
0010
0101
0010
,
1001
0000
1000
0000
0010
0000
1000
0010
0101
0000
0001
0010
1100
0000
1000
0100
,
0011
1000
0010
0100
0001
0010
0100
0010
1001
0000
1000
0001
0110
0000
1000
0100
,
1100
0100
0010
0001
0000
0001
1000
0000
1001
0000
0000
0000
1000
0001
0010
0100
,
0011
0000
0110
0000
1100
0000
1001
0100
,
0110
1000
0100
0001
0010
0001
0100
0010
1001
0000
1000
0000
1100
0000
0010
0000
,
0001
1000
0010
1000
0001
0010
0100
1000
0011
0000
0001
0000
1001
0000
0100
0100
,
1000
0010
1000
0010
0100
0001
0010
0100
1001
0000
1000
0001
0000
0001
1000
0000
,
1001
0100
1000
0001
1010
0100
1000
0001
0110
1000
0001
0100
1010
0001
0010
1000
,
0110
0000
1000
0000
0001
0100
0010
1000
0011
0000
0010
0000
0110
0000
1000
0100
,
1001
0000
0000
0010
0000
0000
0100
0000
0000
0001
0000
0000
0110
0000
0000
1000
0000
0000
0001
0000
0000
0100
0000
0000
1001
0000
0000
0000
0000
0000
1000
0000
0001
0000
0010
0000
0100
0000
0000
0000
0000
0000
1000
0000
0000
0100
0000
0000
,
1010
0001
1000
0010
0101
0000
0001
0010
1100
0000
0001
0000
0110
0000
0010
0100
,
1001
0010
1001
0100
1001
0000
0010
0100
1001
0110
1001
0110
1001
0000
0100
0010
,
1001
1000
0010
0100
0001
0010
0100
0001
1000
0010
0100
1000
0001
0100
0010
1000
,
1001
0010
0000
0100
0000
1000
0000
0010
0000
0100
0001
1000
0110
1000
0010
0100
,
0001
1000
0100
0010
0001
1000
0000
0010
0100
0001
0000
0010
0100
1000
1000
0001
,
1000
0010
0100
0100
0001
0010
0001
0100
0010
1000
0000
1000
0100
0000
0010
0000
,
1100
0010
0001
0100
0011
1000
0010
0001
0110
0001
0010
1000
0011
0100
1000
0001
,
0110
0000
1000
0000
0001
0000
0010
0100
1000
0000
0010
0001
0000
1100
0000
0010
,
0001
0000
0100
0000
0011
0000
0100
1000
0001
0000
0001
1000
0000
1000
0000
0100
,
0020
0000
0000
0000
0000
0000
0001
0000
0000
0000
0000
0000
0001
0000
0000
0000
0000
0000
0031
0000
0010
0000
0100
0000
1000
0000
0000
0000
0000
0000
0000
0000
0000
0000
0000
0000
1000
0000
0000
0001
0000
0000
0100
0000
0000
0010
0000
0000
,
1100
0000
1010
0000
0101
0000
0011
1000
,
0110
0001
0010
1000
0100
1000
0010
0100
1001
0000
0001
0000
0011
0000
0100
0000
,
1000
0001
0100
0001
1000
0100
0010
0001
1100
0000
1000
0000
1001
0000
0010
0010
,
0001
0100
0001
0100
0010
1000
0100
0010
1001
0000
0001
1000
0000
1000
0001
0000
,
1001
0010
0001
1000
0101
0010
0001
1000
0110
0001
1000
0010
0101
1000
0100
0001
,
0110
0000
0001
0000
1000
0010
0100
0001
1100
0000
0100
0000
0110
0000
0001
0010
,
1001
0000
0000
0100
0000
0000
0010
0000
0000
1000
0000
0000
0110
0000
0000
0001
0000
0000
1000
0000
0000
0010
0000
0000
1001
0000
0000
0000
0000
0000
0001
0000
1000
0000
0100
0000
0010
0000
0000
0000
0000
0000
0001
0000
0000
0010
0000
0000
,
0101
1000
0001
0100
1010
0000
1000
0100
0011
0000
1000
0000
0110
0000
0100
0010
,
1001
0100
1001
0010
1001
0000
0100
0010
1001
0110
1001
0110
1001
0000
0010
0100
,
1001
1000
0010
0100
0011
1000
0010
0100
0011
1000
0010
0100
0011
1000
0011
0100
,
0011
1000
0100
0010
0101
1000
0100
0010
0101
1000
0010
0100
1001
0010
1000
0100
,
1001
0010
1000
0001
0110
0001
1000
0010
0101
1000
0010
0001
1100
0001
1100
0010
,
1100
0000
0001
0000
1000
0000
0010
0000
1100
0000
0001
0000
1000
0000
0010
0000
1100
0000
0001
0000
1000
0000
0010
0000
1100
0000
0001
0000
1100
0000
0010
0001
,
1100
0010
1000
0001
0110
1000
0001
0010
0101
1000
0010
1000
0011
0100
0011
0100
,
0011
0000
1000
0000
0001
0000
0100
0000
0011
0000
1000
0000
0001
0000
0100
0000
0011
0000
1000
0000
0001
0000
0100
1000
0011
0000
1000
0000
0100
0000
0100
0000
,
0200
0000
0000
1300
0100
1000
0010
0100
0002
0000
0000
0013
0100
0010
0001
0100
,
0020
0000
0000
1030
0100
1000
0010
0100
0002
0000
2003
0100
3020
0000
0032
0000
,
0023
0000
1000
0100
1000
0100
1030
0100
0002
0000
0010
0100
0010
0100
0013
0100
,
2000
0000
0000
3200
0000
0000
0320
0000
0000
0032
0000
0000
0000
0000
0000
0000
0000
0000
0003
0000
0000
1001
0000
1001
,
0000
1001
0000
0000
0000
0101
0000
0101
0000
0101
0000
0101
0000
1010
0000
1010
0000
1010
0000
0000
0000
1100
0000
1100
,
0000
1100
0000
0110
0000
0000
2002
0000
0000
0000
0000
0000
0000
0000
0000
0000
0000
0000
0000
0000
0000
0000
0000
0000
,
0000
0000
0000
0000
,
3003
0000
0000
0000
1001
0100
0010
1000
0001
0010
0100
0001
1000
0010
0000
0001
,
1000
0100
0000
1000
0001
0100
0010
0100
0001
1000
0000
0100
0010
0001
0000
1000
,
0010
0100
0000
0001
0010
0001
1000
0010
1000
0100
0001
0100
0000
0010
0000
0001
,
1100
0000
0010
0000
1001
0100
0010
0100
1001
0010
0100
0001
1010
0100
0001
1000
,
0011
0100
1010
0000
1001
0100
0010
1000
0001
0010
0100
0001
1000
0010
0000
0001
,
0100
1000
0000
0001
1000
0100
0000
1000
0100
0001
0010
0001
0010
0100
1000
0100
,
0000
0000
0000
1000
0000
0000
0011
0000
0000
0000
0000
0000
1010
0000
0000
0100
0000
0000
0001
0000
0000
0010
0000
0000
0001
0000
0000
0100
0000
0000
0010
0000
1000
0000
0001
0000
0100
0000
0000
0000
0000
0000
1000
0000
0000
0000
0000
0000
,
0001
0000
0010
0100
1001
0010
1001
0100
1001
0000
0110
0000
1001
0000
1000
0010
,
0200
0000
0000
0000
0000
0000
0001
0000
0000
0010
0000
0000
0301
0000
0000
0010
0000
0000
0100
0000
0000
0000
0000
0000
1000
0000
0000
0000
0000
0000
0100
0000
1000
0000
0001
0000
0010
0000
0000
0000
0000
0000
1000
0000
0000
0100
0000
0000
,
0011
1000
0100
0010
0001
1000
0010
0100
1001
0000
1000
0000
1100
0000
0001
0010
,
0100
0010
0001
1000
0010
0100
0001
0010
1001
0000
0010
0100
0000
0100
0010
0000
,
0110
1000
0010
0001
1100
0010
0001
1000
0110
1000
0010
0001
1100
0010
1000
0100
,
1001
0000
0100
0000
0010
0001
1000
0010
0110
0000
0100
0000
0101
0000
0001
0010
,
0001
0000
0000
1000
0000
0000
0010
0000
0000
1000
0000
0000
0100
0000
0000
0001
0000
0000
1000
0000
0000
0010
0000
0000
0100
0000
0000
0000
0000
0000
1000
0000
0001
0000
0100
0000
0010
0000
0000
0000
0000
0000
1000
0000
0000
0100
0000
0000
,
0010
0100
1000
0001
0100
0000
1000
0100
0010
0000
0001
0000
0010
0000
0100
0010
,
1001
0100
1001
0010
1001
0100
1001
0010
1001
0100
1001
0010
1001
0100
0010
0100
,
1001
0000
0000
0000
0000
0000
0100
0000
0000
0010
0000
0000
0100
0000
0000
0001
0000
0000
0010
0000
0000
0100
0000
0000
1001
0000
0000
0000
0000
0000
1000
0000
0010
0000
1000
0000
0010
0000
0000
0000
0000
0000
0100
0000
0001
0000
0100
0000
,
0001
0000
0100
0010
1000
0001
0010
0100
1001
0000
0001
0000
0101
0000
0010
0100
,
0010
1000
0100
0010
0001
0010
0100
1000
0110
0000
0100
0010
0000
0010
0100
0000
,
0101
1000
0001
0010
1100
0010
0001
0100
1010
0001
1000
0100
0011
1000
0100
0010
,
1001
0000
1000
0000
0010
0100
0010
1000
0101
0000
0010
0001
1100
0000
0010
0100
,
1001
0010
0001
0100
0011
1000
0100
0010
1100
0000
1000
0001
0110
0000
0010
0000
,
0101
0000
0000
0010
0000
0000
1000
0000
0000
0100
0000
0000
0010
0000
0000
0100
0000
0000
1000
0000
0000
0001
0000
0000
0110
0000
0000
0000
0000
0000
1000
0000
0001
0000
1000
0000
0110
0000
0000
0000
0000
0000
0010
0000
0000
0000
0000
0000
,
1001
0100
1001
0010
1001
0100
0010
0001
1100
0000
1100
0000
1100
0000
1100
0001
,
1010
0100
1010
0001
1010
0000
0100
0001
0100
0001
0010
0100
1000
0000
0001
1000
,
2002
0000
0000
0010
0000
0000
0000
0000
0000
0000
0000
0000
0000
0000
0000
0000
0000
0000
0000
0010
0000
0000
0000
0000
3003
0000
0000
0000
0000
0000
0000
0000
0000
0000
0000
0000
0000
0000
0000
0000
0000
0000
0000
0000
0000
0000
0000
0000
0000
0000
0000
0000
0000
0000
0000
0000
0000
0000
0000
0000
0000
0000
0000
0000
0000
0000
0000
0000
0000
0000
0000
0000
0000
0000
0000
0000
0000
0000
0000
0000
0000
0000
0000
0000
0000
0000
0000
0000
0000
0000
0000
0000
0000
0000
0000
0000
0000
0000
0000
0000
0000
0000
0000
0000
0000
0000
0000
0000
0000
0000
0000
0000
0000
0000
0000
0000
0000
0000
0000
0000
0000
0000
0000
0000
0000
0000
0000
0000
0000
0000
0000
0000
0000
0000
0000
0000
0000
0000
0000
0000
0000
0000
0000
0000
0000
0000
0000
0000
0000
0000
0000
0000
0000
0000
0000
0000
0000
0000
0000
0000
0000
0000
0000
0000
0000
0000
0000
0000
0000
0000
0000
0000
0000
0000
0000
0000
0000
0000
0000
0000
0000
0000
0000
0000
0000
0000
0000
0000
0000
0000
0000
0000
;

//---------------dance-single - ----------------
#NOTES:
     dance-single:
     :
     Medium:
     7:
     0.357360,0.598361,0.116576,0.097146,0.150577,515.000000,491.000000,24.000000,20.000000,0.000000,0.000000,0.357360,0.598361,0.116576,0.097146,0.150577,515.000000,491.000000,24.000000,20.000000,0.000000,0.000000:
// measure 0
0000
0000
0000
0000
,  // measure 1
0001
0000
1000
0000
0001
0000
1000
1000
,  // measure 2
1000
0000
0010
0000
0100
0000
0010
0010
,  // measure 3
0010
0000
0100
0000
0001
1000
0001
0000
,  // measure 4
1000
0000
0100
0000
1000
0000
0001
0100
,  // measure 5
0001
0000
1000
0000
0100
0000
0010
0100
,  // measure 6
0010
0010
0010
0000
0001
0001
0001
0001
,  // measure 7
1000
0001
0100
0001
,  // measure 8
1000
0010
1000
0010
,  // measure 9
1000
0100
1000
0100
,  // measure 10
0010
0000
0010
0000
0001
1000
0001
1000
,  // measure 11
0001
0001
0100
0100
,  // measure 12
0010
0010
1000
1000
,  // measure 13
0001
0000
0001
0000
1000
0001
1000
0001
,  // measure 14
0010
0010
0010
0010
0100
0000
1000
0001
,  // measure 15
0100
0000
0010
1000
0010
0000
0100
0000
,  // measure 16
0001
0000
0000
0001
0010
0000
0100
0000
,  // measure 17
0010
0000
0000
0001
0000
0000
0100
0000
0010
0000
0000
0000
1000
0000
0010
0000
,  // measure 18
1000
0000
0101
0000
0011
0000
0110
0100
,  // measure 19
1000
0000
0001
1000
0001
0000
1000
0000
,  // measure 20
0001
0010
0100
0010
0001
0000
0001
0000
,  // measure 21
0100
0000
1000
0000
0100
0000
0010
0000
0100
0000
0000
0001
0000
0000
1000
0000
,  // measure 22
0100
0010
0010
0001
,  // measure 23
0001
0000
1000
0001
1000
0000
0001
0000
,  // measure 24
0010
0010
0100
0100
1000
0001
1000
0001
,  // measure 25
0100
0000
0000
0010
1000
0000
0001
0000
,  // measure 26
1000
0001
1000
0001
0010
0010
0010
0100
,  // measure 27
1000
0001
1000
0001
,  // measure 28
0100
0001
0000
0100
0000
0010
0000
1000
0000
0100
0000
1000
0000
0000
0000
0000
,  // measure 29
0001
1000
0000
0001
0000
0010
0000
0100
0000
0010
0000
0001
0000
0000
0000
0000
,  // measure 30
0100
0000
0000
0000
1000
0100
0000
0010
0000
0100
0000
0001
0000
0000
0000
0000
,  // measure 31
1000
0000
0000
0000
0100
0000
0000
0000
0010
0100
0000
0010
0000
0100
0010
0000
,  // measure 32
0001
0000
0000
0000
1000
0000
0000
0000
0001
0000
0100
0010
0000
1000
0000
0100
,  // measure 33
0000
0000
0000
0000
0010
0000
0000
0000
0100
0000
0010
0100
0000
1000
0000
0010
,  // measure 34
0000
0000
0000
0100
0000
0000
0001
1000
,  // measure 35
0001
0000
1000
0000
1000
0000
0001
1000
,  // measure 36
0001
0000
1000
0100
0010
0000
0001
0000
,  // measure 37
0010
0100
1000
0010
0100
0000
0100
0000
,  // measure 38
1000
0000
0100
0000
0001
0000
0010
0000
0100
0000
0000
0100
0000
0000
0010
0000
,  // measure 39
0001
0100
0100
0010
,  // measure 40
0010
0000
1000
0010
1000
0000
0001
0000
,  // measure 41
0100
0100
0010
0010
1000
0001
1000
0001
,  // measure 42
1000
0000
0001
0010
1000
0000
0010
0000
,  // measure 43
0100
0100
0100
0000
0010
0010
0010
0001
,  // measure 44
0100
0000
0010
0000
1000
0000
0001
0100
,  // measure 45
0010
0000
1000
0000
0001
0000
0100
0010
,  // measure 46
1000
0001
0100
0010
,  // measure 47
1000
0000
1000
0000
1000
0000
1000
0010
,  // measure 48
0100
0000
0001
0000
1000
0000
0001
0100
,  // measure 49
0010
0000
0010
0000
0010
0000
1000
0001
,  // measure 50
0200
0000
0000
0301
0010
0001
0100
0010
2000
0000
0000
3100
0010
0100
1000
0010
,  // measure 51
0200
0000
0000
0301
0010
0001
0100
0010
2000
0000
3002
0010
0203
0000
2300
0000
,  // measure 52
0001
0000
0001
0010
0001
0010
0001
0010
0100
0000
0100
0010
0100
0010
0100
0010
,  // measure 53
3002
0000
0000
0023
0000
0000
0230
0000
0000
2300
0000
0000
0000
0000
0000
0000
0000
0000
3000
0000
0000
1000
0000
1000
,  // measure 54
0000
1000
0000
0000
0000
0100
0000
0100
0000
0100
0000
0100
0000
0010
0000
0010
0000
0010
0000
0000
0000
0001
0000
0001
,  // measure 55
0000
0001
0000
0001
0000
0000
2000
0000
0000
0000
0000
0000
0000
0000
0000
0000
0000
0000
0000
0000
0000
0000
0000
0000
,  // measure 56
0000
0000
0000
0000
,  // measure 57
3000
0000
0001
1000
0100
1000
0100
1000
,  // measure 58
0010
0010
1000
0100
1000
0100
1000
0010
,  // measure 59
0010
0010
0000
0000
0001
1000
0001
0100
,  // measure 60
0100
0000
0010
0000
1000
0000
0001
0100
,  // measure 61
0010
1000
0100
0000
0100
0010
0001
0010
,  // measure 62
0100
1000
0001
0001
1000
1000
0001
1000
,  // measure 63
0001
0100
0110
0000
0110
0000
0010
1000
,  // measure 64
0001
0000
0100
0000
0001
0000
0001
0000
0001
0000
0001
0000
1001
0000
1000
0001
,  // measure 65
1000
0001
0001
1000
0001
0000
1000
1000
,  // measure 66
1000
0000
0010
0100
0010
0000
0100
0100
,  // measure 67
0100
0000
0010
0000
1000
0000
0001
0000
0010
0000
0000
0100
0000
0000
0010
0000
,  // measure 68
0001
0101
0101
1010
,  // measure 69
1010
0000
1000
0001
1000
0000
0100
0000
,  // measure 70
0010
0001
0100
0001
0010
0100
0010
0001
,  // measure 71
0100
0000
0010
1000
0010
0000
1001
0000
,  // measure 72
0001
0001
1000
1000
0001
1000
0001
1000
,  // measure 73
1001
0001
0010
0100
0010
0000
0002
0000
,  // measure 74
0203
0000
1300
0100
0001
0000
0010
0000
,  // measure 75
1000
0000
0010
0000
0001
0000
0100
0000
0010
0000
0000
0010
0000
0000
0010
0000
,  // measure 76
2000
3002
0023
0230
,  // measure 77
2300
0000
3001
1000
0100
0000
1000
0000
,  // measure 78
0100
0100
0010
0010
0001
0100
0010
1000
,  // measure 79
1100
0000
0001
0010
0110
1000
0100
0001
,  // measure 80
1001
1001
1001
0000
1100
1100
1100
1100
,  // measure 81
0011
0000
0011
0000
0011
0000
0001
1000
0001
1000
0001
1000
0001
0000
0001
1000
,  // measure 82
0002
0000
0000
0010
0000
0000
0000
0000
0000
0000
0000
0000
0000
0000
0000
0000
0000
0000
0000
0010
0000
0000
0000
0000
0003
0000
0000
0000
0000
0000
0000
0000
0000
0000
0000
0000
0000
0000
0000
0000
0000
0000
0000
0000
0000
0000
0000
0000
0000
0000
0000
0000
0000
0000
0000
0000
0000
0000
0000
0000
0000
0000
0000
0000
0000
0000
0000
0000
0000
0000
0000
0000
0000
0000
0000
0000
0000
0000
0000
0000
0000
0000
0000
0000
0000
0000
0000
0000
0000
0000
0000
0000
0000
0000
0000
0000
0000
0000
0000
0000
0000
0000
0000
0000
0000
0000
0000
0000
0000
0000
0000
0000
0000
0000
0000
0000
0000
0000
0000
0000
0000
0000
0000
0000
0000
0000
0000
0000
0000
0000
0000
0000
0000
0000
0000
0000
0000
0000
0000
0000
0000
0000
0000
0000
0000
0000
0000
0000
0000
0000
0000
0000
0000
0000
0000
0000
0000
0000
0000
0000
0000
0000
0000
0000
0000
0000
0000
0000
0000
0000
0000
0000
0000
0000
0000
0000
0000
0000
0000
0000
0000
0000
0000
0000
0000
0000
0000
0000
0000
0000
0000
0000
;
