#TITLE:Taldomix;
#SUBTITLE:;
#ARTIST:Taldo;
#TITLETRANSLIT:;
#SUBTITLETRANSLIT:;
#ARTISTTRANSLIT:;
#GENRE:;
#CREDIT:Magna Trick;
#BANNER:taldomix-bn.png;
#BACKGROUND:taldomix-bg.jpg;
#LYRICSPATH:;
#CDTITLE:Magna Trick title!.png;
#MUSIC:taldomix.mp3;
#OFFSET:0.139929;
#SAMPLESTART:17.900999;
#SAMPLELENGTH:12.000000;
#SELECTABLE:YES;
#BPMS:0.000000=160.001007
,168.000000=80.000999
,176.500000=160.001007
,421.250000=667.000000
,482.000000=333.500000
;
#STOPS:421.250000=0.685000,
482.000000=0.135000
;
#BGCHANGES:;
#KEYSOUNDS:;
#ATTACKS:;

//---------------dance-single - ----------------
#NOTES:
     dance-single:
     :
     Edit:
     18:
     1.162635,1.150618,2.275525,0.429191,0.623542,1005.000000,711.000000,281.000000,53.000000,0.000000,17.000000,1.162635,1.150618,2.275525,0.429191,0.623542,1005.000000,711.000000,281.000000,53.000000,0.000000,17.000000:
0000
0000
0220
0330
2002
3003
0000
2200
,
3300
0000
0202
0000
0000
0000
0303
0000
0000
0000
0220
0000
0000
0000
0330
0002
,
2000
3003
0220
0330
2002
3003
0000
2200
,
3300
0000
0022
0000
0033
0000
0000
0000
0000
0000
0220
0000
0000
0330
0000
2000
,
0002
3013
0110
1000
1001
0100
1010
0001
,
0101
0011
0101
1000
1010
0100
0011
0100
,
1001
0110
1010
0100
1001
0010
1001
0100
,
1001
0110
1010
0100
0011
1000
1001
0100
,
1001
0000
1001
0000
0110
0000
1010
0000
1010
0000
1010
0000
0100
0000
1001
0100
,
0010
1000
0100
0100
0010
0010
1001
0220
,
1001
0000
1331
0000
0110
0000
0101
0000
0101
0000
0101
0000
1000
0000
1001
0100
,
0010
1000
0100
0100
0010
0010
0101
2020
,
0000
0000
0000
0000
3030
0000
0001
0010
0100
1000
0000
0000
0000
0000
0000
0000
0202
0000
0000
0000
0303
0000
1000
0001
0010
0100
0000
0000
0000
0000
0000
0000
,
0202
0000
0303
0000
0100
0000
0001
0010
0001
0110
1000
0000
0110
0000
1000
0100
,
1000
0101
0010
0000
0010
0000
1000
0000
0100
0000
0001
0000
0001
0000
0100
0000
,
1000
0000
0010
0000
2001
0000
0100
0010
3001
0000
0000
0000
0120
0000
0001
1000
,
0130
0000
0000
0000
0000
0000
0020
0000
0000
0100
0000
0000
2000
0000
0030
0000
0000
0000
3100
0000
0000
0000
0000
0000
0011
0000
0000
0000
0000
0000
1000
0000
0000
0000
0000
0000
0011
0000
0000
0000
0000
0000
0100
0000
0000
0000
0000
0000
,
1001
0000
1001
0000
0110
1000
0001
0000
0010
0000
0100
0000
1001
0000
0100
0010
,
1001
0010
1200
0001
0311
0100
1010
0100
,
0001
0010
1110
0010
0001
0100
1110
0010
,
0100
0000
1001
0000
1001
0000
1110
0000
1110
0000
1110
0000
1001
0000
0100
0001
,
1010
0110
1001
1000
0110
0100
1001
0220
,
1001
1331
0110
1100
1100
0110
0110
0011
,
0011
0000
1001
0000
1001
0010
0100
1000
0100
0010
0001
0010
0100
1000
0010
0100
,
0001
0010
0100
1000
0011
0000
1000
0000
1010
0000
0100
0000
0101
0000
1010
0000
,
0100
0010
1001
0110
0100
1001
0010
1100
,
0001
0000
0010
0000
0100
0000
1001
0000
0000
0010
0000
0000
1100
0000
0000
0010
0000
0000
1100
0000
0000
0001
0000
0000
,
1010
1100
0011
1000
0110
0001
1001
0220
,
1001
0000
1331
0000
0110
0000
1010
0000
1010
0000
1010
0000
0010
0000
1100
0001
,
1000
0010
1000
1000
0100
0100
1001
0220
,
0000
0000
0330
0000
0002
0000
0000
0000
2003
0000
0000
0000
3000
0200
0000
0300
,
1001
0000
0000
0000
0000
0000
1001
0000
0000
0100
0000
0000
0020
0000
0000
0000
0000
0000
0000
0000
0000
0000
0000
0000
0000
0000
0000
0000
0000
0000
0000
0000
0000
0000
0000
0000
0031
0000
0000
0000
1000
0000
0000
0000
0100
0000
0000
0000
,
1000
0000
0000
0000
0100
0000
0000
0000
0000
0000
0000
0000
1001
0000
0000
0000
0000
0000
0100
0000
0000
0000
0000
0000
1000
0000
0000
0000
0000
0000
0010
0000
0000
0000
0000
0000
0101
0000
0000
0010
0000
0000
1000
0000
0000
0000
0000
0000
,
0110
0001
1100
0000
0110
0000
0100
0000
0011
0000
1000
0000
0011
0000
0100
0000
,
0110
0000
1010
0000
0011
0000
0100
0000
1010
0000
0001
0000
1010
0001
0100
0000
,
1010
0001
0110
0000
0101
0000
0001
0000
1010
0000
0100
0000
1010
0000
0001
0000
,
1001
0110
1001
0001
0010
0100
1000
0010
,
1100
0101
0110
1000
0001
0100
1000
0010
,
0100
0001
1010
1010
1100
1100
0110
0110
,
0011
0000
0101
0000
0100
0010
1000
0100
1000
0010
0100
0010
0100
0001
0010
0100
,
0010
0100
1000
0100
0010
0001
0100
0010
1000
0100
1000
0100
0010
0001
0010
0001
,
0100
0010
0100
0010
1000
0001
1000
0001
0010
0100
0001
0100
0010
1000
0100
0010
,
1001
0000
0000
0000
0000
0000
0000
0000
0000
0000
0000
0000
0000
0000
0000
0000
0000
0000
0000
0000
0000
0000
0000
0000
0000
0000
0000
0000
0000
0000
0000
0000
0001
0000
0000
0000
0000
0000
0000
0000
0000
1000
0000
0000
0000
0000
0000
0000
0000
0000
0000
0000
0010
0000
0000
0000
0000
0000
0000
0000
0000
0000
0000
1000
0000
0000
0000
0000
0000
0000
0000
0000
0000
0000
0000
0000
0000
0000
0000
0000
0000
0000
0100
0000
0000
0000
0000
0000
0000
0000
0000
0000
0000
0000
0000
0000
0000
0000
0000
0000
0000
0000
0010
0000
0000
0000
0000
0000
0000
0000
0001
0000
0000
0000
0000
0000
0000
0000
0000
0000
0000
0000
0000
0000
0000
0010
0000
0000
0000
0000
0000
0000
0000
0000
0000
0000
0000
0000
0000
0000
0000
0000
0000
0000
0000
0000
0000
0000
0000
0000
0000
0000
0000
0000
0000
0000
0000
0000
0000
0000
0000
0000
0000
0000
0100
0000
0000
0000
0000
0000
0000
0000
1000
0000
0000
0000
0000
0000
0000
0000
0000
0000
0000
0001
0000
0000
0000
0000
0000
0000
0000
0000
,
0000
0100
0000
0000
0000
0000
0000
0000
0000
0000
0000
0000
0000
0000
0000
0000
0000
0000
0010
0000
0000
0000
0000
0000
0000
0000
0000
0000
0000
1000
0000
0000
0000
0000
0000
0000
0000
0100
0000
0000
0000
0000
0000
0000
0000
0000
1000
0000
0000
0000
0000
0000
0000
0000
0000
0000
0000
0000
0010
0000
0000
0000
0000
0000
0000
0000
0000
0000
0000
0000
0000
0000
0000
0000
0100
0000
0000
0000
0000
0000
0000
0000
0000
0000
0000
0000
0000
0000
0000
0000
0000
0000
0000
0000
0000
0000
0000
0000
0000
0000
0000
0000
0000
0000
0000
0001
0000
0000
0000
0000
0000
0000
0000
0000
1000
0000
0000
0000
0000
0000
0000
0000
0000
0001
0000
0000
0000
0000
0000
0000
0000
0000
0000
1000
0000
0000
0000
0000
0000
0000
0000
0001
0000
0000
0000
0000
0000
0000
0000
0000
0000
1000
0000
0000
0000
0000
0000
0000
0000
0000
0000
0000
0000
0000
0000
0000
0000
0000
0000
0000
0000
0000
0000
0000
0000
0000
0000
0001
0000
0000
0000
0000
0000
0000
0000
0000
0000
0000
0000
0000
0000
0001
,
0000
2002
0000
3003
0000
0000
0000
0000
0000
0000
1010
0000
0011
0000
1010
0000
,
0110
0000
0000
0000
0000
0000
0000
0000
0000
0000
0000
0000
0000
0000
0000
0000
0000
0000
0000
0000
0000
0000
0000
0000
0000
0000
0000
0000
0000
0000
0000
0000
0000
0000
0000
0000
0000
0000
0000
0000
1000
0000
0000
0000
0000
0000
0000
0000
0000
0000
0000
0000
0000
0000
0000
0000
0000
0000
0000
0000
0001
0000
0000
0000
0000
0000
0010
0000
0000
0000
0000
0000
0100
0000
0000
0000
0000
0000
0000
0000
0000
0000
0000
0000
0000
0000
0000
0000
0000
0000
0000
0000
0000
0000
0000
0000
0000
0000
0000
0000
0000
0000
0000
0000
0000
0000
0000
0000
0000
0000
0000
0000
0000
0000
0000
0000
0000
0000
0000
0000
0000
0000
0000
0000
0000
0000
0000
0000
0000
0000
0000
0000
0000
0000
0000
0000
0000
0000
0000
0000
0000
0000
0000
0000
0001
0000
0000
0000
0000
0000
0000
0000
0000
0000
0000
0000
1000
0000
0000
0000
0000
0000
0000
0000
0000
0000
0000
0000
0100
0000
0000
0000
0000
0000
0000
0000
0000
0000
0000
0000
1000
0000
0000
0000
0000
0000
0000
0000
0000
0000
0000
0000
,
0010
0000
0000
0110
0000
0000
1000
0000
0000
1000
0000
0001
0000
0100
0000
1010
0000
0000
1001
0000
0000
0101
0000
0000
,
0011
0000
0100
0000
1100
0000
1010
0000
0100
0000
0011
0000
0100
0010
1001
0000
,
0110
0000
1010
0000
0100
0000
1001
0000
0010
0000
1001
0000
0100
0000
1001
0010
,
0100
0000
1010
0000
0100
1000
0011
0100
1000
0000
1001
0000
0100
0000
1001
0000
,
0001
0000
0110
0000
0001
0000
1010
0000
0010
0000
0101
0000
1000
0100
0011
0000
,
1000
0000
0010
0000
0100
0010
0001
0000
0010
0000
1001
0000
0110
0000
1001
0100
,
1001
0000
0110
0000
0101
0000
0101
0000
0101
0000
1000
0000
1001
0100
0010
0000
,
1000
0100
0100
0010
0010
0101
2020
0000
,
3030
1000
0100
1100
0001
0100
0010
1001
,
0101
0000
1010
0000
0001
1000
0110
0000
1000
0000
0010
0000
0001
0000
1100
0000
,
0011
0000
0011
0000
1000
0010
0100
0000
0001
0000
1000
0000
0001
0100
1000
0000
,
0010
0000
0000
0000
0000
0000
1000
0000
0000
0000
0000
0000
0100
0000
0000
0010
0000
0000
0001
0000
0000
0000
0000
0000
1000
0000
0000
0000
0000
0000
0100
0000
0000
0000
0000
0000
0010
0000
0001
0000
0000
0000
1000
0000
0000
0000
0000
0000
,
0001
0000
1000
0011
0000
0000
1000
0000
0000
0110
0000
0000
1000
0000
0000
0011
0000
0000
0100
0000
0000
1001
0000
0000
,
1001
0000
0110
1000
0001
0000
0010
0000
0100
0000
1001
0010
0100
0010
1001
0000
,
0010
1100
1100
1100
0110
0110
0110
0101
,
0101
0000
0011
1000
0100
0010
0001
0100
0010
1000
0001
0010
0100
1000
0010
0100
,
0001
0010
0100
0000
1000
0000
0110
0000
1000
0000
0011
0000
0100
0000
1001
0000
,
1100
0011
0100
0011
0100
1010
0001
0110
,
1001
1100
0001
0110
0100
0011
0001
0110
,
1001
0000
1100
0000
0001
1000
0110
0001
0100
0000
0101
1000
0001
0100
1010
0000
,
1001
1100
0001
0110
0001
0110
0001
1111
,
1001
0000
0000
1111
0000
0000
0001
0000
0000
0110
0000
0000
0100
0000
0000
1010
0000
0100
0000
0001
0000
0010
0000
0100
,
0000
1100
0001
0110
0000
0001
1000
1111
,
0100
0000
0000
1111
0000
0000
0000
0000
0000
0000
0000
0000
1000
0000
0100
0000
0010
0000
0001
0000
0000
0001
0000
0000
,
1010
0000
0101
0000
1000
0010
0110
0000
1000
0000
0011
0000
0100
0000
1010
0000
,
1001
0000
1100
0000
0001
1000
0110
0000
0100
0000
0011
0000
0001
0000
0110
0000
,
1001
0000
1100
0000
0001
0010
1010
0000
0001
0000
0011
0000
0001
0000
0110
0000
,
1001
0000
1100
0000
0001
1000
0110
0000
0100
0000
1010
0000
0010
0000
0101
0000
,
1010
0000
1100
0000
0001
1000
0110
0000
0001
0000
1010
0000
0001
1000
0110
0000
,
1001
0000
0000
0000
0000
0000
1100
0000
0000
0000
0000
0000
1001
0000
0000
1000
0000
0000
0110
0000
0000
0000
0000
0000
0001
0000
0000
1000
0000
0000
0110
0000
0000
0000
0000
0000
0001
0000
0000
0100
0000
0000
1000
0000
0000
0000
0100
0000
,
0000
1000
0000
0011
0000
0000
0101
0000
0000
0101
0000
0000
1010
0000
0000
1100
0000
0000
1001
0000
0000
0110
0000
0000
,
0011
0000
1100
0010
0001
0010
0100
1000
0010
0100
0001
1000
0100
0010
0001
0010
,
0100
1000
0010
0100
2000
0100
0100
0100
0100
0100
0100
0100
3200
0000
0000
0300
;

//---------------dance-single - ----------------
#NOTES:
     dance-single:
     :
     Challenge:
     17:
     0.932421,1.119542,0.793599,0.291526,0.623542,806.000000,708.000000,98.000000,36.000000,0.000000,2.000000,0.932421,1.119542,0.793599,0.291526,0.623542,806.000000,708.000000,98.000000,36.000000,0.000000,2.000000:
0000
0000
0200
0000
0320
0000
0030
0002
,
0000
0000
2003
0000
0000
0000
3000
0000
0000
0000
0200
0000
0000
0000
0300
1000
,
0001
0000
0000
0000
0000
0000
0000
0000
0020
0000
0000
0000
0000
0000
0000
0030
2000
0000
0000
0000
0000
0000
0000
0000
0000
3000
0000
0000
0002
0000
0000
0000
,
0000
0000
0000
0000
0200
0003
0000
0000
0000
0000
0000
0000
0000
0300
0000
0000
0000
0000
0000
0000
0110
0000
0000
0000
0000
0000
0000
0000
0000
0000
0001
0000
,
1000
0000
0100
1000
0100
1000
0100
1000
,
0100
0100
0100
0010
0001
0010
0001
0010
,
0001
0001
0001
1000
0001
1000
0001
0100
,
1000
1000
1000
0100
0010
0100
0010
0100
,
0001
0000
0001
0000
1001
0000
1000
0000
1001
0000
0100
0000
0010
0000
0001
0010
,
0100
1000
0010
0010
0100
0100
1001
0200
,
0010
0000
0310
0000
0110
0000
0100
0000
0110
0000
1000
0000
0001
0000
1000
0010
,
0100
0001
0010
0010
0100
0100
1001
0220
,
0000
0000
0000
0000
0330
0000
1000
0100
0010
0001
0000
0000
0000
0000
0000
0000
0020
0000
0000
0000
0030
0000
0001
1000
0100
0010
0000
0000
0000
0000
0000
0000
,
0020
0000
0030
0000
0010
0000
1000
0100
1000
0100
0010
0000
0001
0000
0010
0100
,
0010
0100
1000
0000
0100
0000
0010
0000
0001
0000
1000
0000
1000
0000
0100
0000
,
0010
0000
0001
0000
0002
0000
0010
0100
1003
0000
0000
0000
0200
0000
1000
0001
,
0310
0000
0000
0000
0000
0000
0200
0000
0000
0010
0000
0000
0002
0000
0300
0000
0000
0000
0013
0000
0000
0000
0000
0000
0100
0000
0000
0000
0000
0000
1000
0000
0000
0000
0000
0000
0100
0000
0000
0000
0000
0000
1000
0000
0000
0000
0000
0000
,
0010
0000
0100
0000
1001
0100
0001
0000
0100
0000
0010
0000
1001
0100
1000
0000
,
0001
0000
0010
0000
0021
0000
0001
0030
0011
0000
0010
0000
0001
0000
0200
0000
,
0301
0000
0000
0200
0000
0000
1301
0000
0000
0100
0000
0000
1000
0000
0000
0100
0000
0000
0010
0000
0001
0000
1000
0000
,
0100
0000
0000
0000
0010
0000
0000
0000
0000
0000
0000
0000
1001
0000
0000
0000
0000
0000
0001
0000
0000
0000
0000
0000
1001
0000
0000
0000
0000
0000
1000
0000
0000
0000
0000
0000
0001
0000
0000
0000
0000
0000
0010
0000
0000
0100
0000
0000
,
1001
0100
0100
0010
0010
0001
0001
0220
,
1331
1001
0110
0011
0011
0110
0110
1100
,
1100
0000
1001
0000
1001
0100
0010
0001
0010
0100
1000
0100
0010
0001
0100
0010
,
1000
0100
0010
0001
1001
0000
0001
0000
0100
0000
0010
0000
0100
0000
0010
0000
,
1000
1000
1000
0100
0010
0100
0010
0001
,
1000
0000
0100
0000
0010
0000
0001
0000
0000
1000
0000
0000
0100
0000
0000
1000
0000
0000
0100
0000
0000
1000
0000
0000
,
0010
0000
0000
0010
0000
0000
0010
0000
0000
0100
0000
0000
0001
0000
0000
0100
0000
0000
0001
0000
0100
0000
0010
0000
,
1000
0000
0010
0000
0110
0000
0100
0000
0110
0000
1000
0000
0100
0000
0010
0001
,
1000
1000
0100
0100
0010
0010
1001
0220
,
0000
0330
2000
0000
3002
0000
0003
2000
,
0000
0000
0000
0000
0000
0000
3002
0000
0000
0010
0000
0000
0203
0000
0000
0000
0000
0000
0000
0000
0000
0000
0000
0000
0000
0000
0000
0000
0000
0000
0000
0000
0000
0000
0000
0000
1300
0000
0000
0000
0001
0000
0000
0000
0010
0000
0000
0000
,
0001
0000
0000
0000
0010
0000
0000
0000
0000
0000
0000
0000
1001
0000
0000
0000
0000
0000
0010
0000
0000
0000
0000
0000
0001
0000
0000
0000
0000
0000
0100
0000
0000
0000
0000
0000
0010
0000
0000
0100
0000
0000
0001
0000
0000
0000
0000
0000
,
1000
0010
0100
0000
0001
0000
1001
0000
1000
0000
0010
0000
1000
0000
0010
0000
,
1000
0000
1000
0000
1000
0000
0001
0000
0010
0000
0001
0000
0010
0001
1000
0000
,
0010
1000
0001
0000
0001
0000
1001
0000
1000
0000
0100
0000
1000
0000
0100
0000
,
0010
0010
0010
1001
1000
0001
1000
0001
,
0100
0100
0100
1001
1000
0010
1000
0010
,
1000
1000
0101
0101
0011
0011
0110
0110
,
1100
0000
1010
0000
0010
0100
0001
0010
0001
0100
0010
0100
0010
1000
0100
0010
,
0100
0010
0001
0010
0100
1000
0010
0100
0001
0010
0001
0010
0100
1000
0100
1000
,
0010
0100
0010
0100
0001
1000
0001
1000
0100
0010
1000
0010
0100
1000
0001
0010
,
1001
0000
0000
0000
0000
0000
0000
0000
0000
0000
0000
0000
0000
0000
0000
0000
0000
0000
0000
0000
0000
0000
0000
0000
0000
0000
0000
0000
0000
0000
0010
0000
0000
0000
0000
0000
0000
0000
0000
0000
0000
0000
1000
0000
0000
0000
0000
0000
0000
0000
0000
0000
0000
0100
0000
0000
0000
0000
0000
0000
0000
0000
0000
0000
1000
0000
0000
0000
0000
0000
0000
0000
0000
0000
0000
0000
0000
0000
0000
0000
0000
0001
0000
0000
0000
0000
0000
0000
0000
0000
0000
0000
0000
0000
0000
0000
0000
0000
0000
0000
0010
0000
0000
0000
0000
0000
0000
0000
0000
0000
0000
0000
0001
0000
0000
0000
0000
0000
0000
0000
0000
0000
0000
0000
0000
0000
0000
0000
0000
0000
0000
0010
0000
0000
0000
0000
0000
0000
0000
0000
0000
0000
0000
0000
0000
0000
0000
0000
0000
0000
0000
0000
0000
0000
0000
0000
0000
0000
0000
0000
0000
0000
0000
0000
0000
0000
0000
0001
0000
0000
0000
0000
0000
0000
0000
0000
0000
1000
0000
0000
0000
0000
0000
0000
0000
0000
0000
0000
0010
0000
0000
0000
,
0000
0000
0000
0000
0000
0000
0000
0100
0000
0000
0000
0000
0000
0000
0000
0000
0000
0000
0000
0000
0000
0001
0000
0000
0000
0000
0000
0000
0000
0000
0000
0100
0000
0000
0000
0000
0000
0000
0000
0000
0000
0010
0000
0000
0000
0000
0000
0000
0000
0000
1000
0000
0000
0000
0000
0000
0000
0000
0000
0000
0000
0100
0000
0000
0000
0000
0000
0000
0000
0000
0000
0000
0000
0000
0000
0000
0100
0000
0000
0000
0000
0000
0000
0000
0000
0000
0000
0000
0000
0000
0000
0000
0000
0000
0000
0000
0000
0000
0000
0000
0001
0000
0000
0000
0000
0000
0000
0000
0000
0000
0000
0000
1000
0000
0000
0000
0000
0000
0000
0000
0001
0000
0000
0000
0000
0000
0000
0000
1000
0000
0000
0000
0000
0000
0000
0000
0001
0000
0000
0000
0000
0000
0000
0000
1000
0000
0000
0000
0000
0000
0000
0000
0001
0000
0000
0000
0000
0000
0000
0000
0000
0000
0000
0000
0000
0000
0000
0000
0000
0000
0000
0000
0000
0000
0000
0000
0000
0000
0000
0000
0010
0000
0000
0000
0000
0000
0000
0000
0000
0000
0000
0000
,
0010
0000
0000
0000
0220
0000
0000
0000
0000
0330
0000
0000
0000
0000
0000
0000
0000
0000
0000
0000
0000
0000
0000
0000
0000
0000
0000
0000
0000
0000
0000
0000
0000
0000
0000
0000
0000
0000
0000
0000
0001
0000
0000
0000
0000
0000
0000
0000
1001
0000
0000
0000
0000
0000
0000
0000
1000
0000
0000
0000
0000
0000
0000
0000
,
1001
0000
0000
0000
0000
0000
0001
1000
0010
0000
0000
0000
0000
0000
0000
0000
0000
0000
0010
0000
1000
0000
0000
0000
0001
0000
0010
0000
0100
0000
1000
0000
,
0001
1001
0001
1000
0010
1010
1000
1010
,
0010
0000
0010
0000
0110
0001
1000
0000
0010
0000
0110
0000
0010
0000
0100
0000
,
0100
0100
0010
1000
0100
1000
0010
0100
,
0100
0000
0100
0010
1001
0000
0010
0000
1000
0000
0010
0100
1001
0000
0100
0000
,
0100
0000
0100
1000
0010
0000
1000
0000
0100
0000
1000
0010
0100
0000
0001
0000
,
0001
0000
0001
0010
0100
1000
0100
0000
1000
0000
0100
0010
0001
0100
0001
0000
,
0110
0000
1001
0000
1000
0000
1001
0000
0001
0000
1000
0100
1000
0000
0100
0000
,
1000
0010
0010
0010
0010
0110
2002
3000
,
1003
0100
1000
0010
0100
0001
0010
0100
,
0100
0100
0010
0001
0100
1000
0100
0001
,
0001
0001
0010
1000
0010
0001
0100
1000
,
1000
0000
0000
1000
0000
0000
0100
0000
0000
0010
0000
0000
1000
0000
0000
0100
0000
0000
0010
0000
1000
0000
0010
0000
,
1000
1000
0010
0100
1000
0010
0100
0001
,
0001
0000
1001
0010
0100
0000
0010
0000
1000
0000
1001
0100
0010
0000
0100
0000
,
1001
0011
0011
0011
0110
0110
0110
1010
,
1010
0000
1001
0001
0010
0100
1000
0010
0100
0001
1000
0100
0010
0001
0100
0010
,
1000
0100
0010
0001
0100
0000
0010
0000
1000
0000
0100
0010
0100
0000
1000
0000
,
0100
0000
1000
0100
1000
0100
0010
0000
0001
0000
0100
0001
0100
0001
1000
0000
,
0100
0000
0010
0100
0010
0000
0010
0000
0100
0000
1000
0100
1000
0000
0100
0000
,
0100
0000
0001
0100
0010
0100
1000
0000
0100
0000
0010
0001
1000
0001
0100
0000
,
0100
0110
1001
0010
1000
0100
1000
1001
,
0001
0000
0000
1001
0000
0000
1000
0000
0000
0100
0000
0000
0010
0000
0000
0001
0000
1000
0000
0001
0000
0100
0000
0000
,
0001
1001
1000
1001
0000
1000
0001
1001
,
1000
0000
0000
1001
0000
0000
0000
0000
0000
0000
0000
0000
0001
0000
0010
0000
0100
0000
1000
0000
0000
1000
0000
0000
,
0001
0000
1000
0000
0010
0100
1001
0000
0010
0000
0100
0000
0010
0000
1000
0000
,
1000
0000
1000
0000
0100
0010
1001
0000
0010
0000
0100
0000
1000
0000
0100
0000
,
0100
0000
0100
0000
0010
0100
1001
0000
0010
0000
0001
0000
0100
0000
0010
0000
,
1000
0000
1000
0000
1000
0001
0110
0000
1000
0000
0001
0000
0100
0000
0010
0000
,
0010
0000
0010
0000
0001
1000
0110
0000
1000
0000
0100
0000
0010
0100
1001
0000
,
0010
0000
0000
0000
0000
0000
0010
0000
0000
0000
0000
0000
0010
0000
0000
0100
0000
0000
1001
0000
0000
0000
0000
0000
0100
0000
0000
0010
0000
0000
1001
0000
0000
0000
0000
0000
0100
0000
0000
0010
0000
0000
0100
0000
0000
0000
0010
0000
,
0000
0001
0000
1000
0000
0000
1001
0000
0000
1001
0000
0000
0101
0000
0000
0011
0000
0000
1100
0000
0000
1010
0000
0000
,
0110
0000
1001
0100
1000
0100
0010
0001
0100
0010
1000
0001
0010
1000
0010
0001
,
0100
1000
0200
0020
0000
0000
0000
0000
0000
0000
0000
0000
0000
0000
0000
0000
,
0330
0000
0000
0000
;

//---------------dance-single - ----------------
#NOTES:
     dance-single:
     :
     Hard:
     15:
     0.829462,1.055568,0.275330,0.356310,0.579004,717.000000,683.000000,34.000000,44.000000,0.000000,1.000000,0.829462,1.055568,0.275330,0.356310,0.579004,717.000000,683.000000,34.000000,44.000000,0.000000,1.000000:
0000
0000
0020
0000
0230
0000
0300
2000
,
0000
0000
3002
0000
0000
0000
0003
0000
0000
0000
0020
0000
0000
0000
0030
0001
,
1000
0000
0000
0000
0000
0000
0000
0000
0200
0000
0000
0000
0000
0000
0000
0300
0002
0000
0000
0000
0000
0000
0000
0000
0000
0003
0000
0000
2000
0000
0000
0000
,
0000
0000
0000
0000
0020
3000
0000
0000
0000
0000
0000
0000
0000
0030
0000
0000
0000
0000
0000
0000
0110
0000
0000
0000
0000
0000
0000
0000
0000
0000
1000
0000
,
0001
0000
0010
0001
0010
0001
0010
0001
,
0010
0010
0010
0100
1000
0100
1000
0100
,
1000
1000
1000
0001
1000
0001
1000
0010
,
0001
0001
0001
0010
0100
0010
0100
0010
,
1000
0000
1000
0000
1001
0000
0001
0000
1001
0000
0010
0000
0100
0000
1000
0100
,
0010
0001
0100
0100
0010
0010
1001
0020
,
0100
0000
0130
0000
0110
0000
0010
0000
0110
0000
0001
0000
1000
0000
0001
0100
,
0010
1000
0100
0100
0010
0010
1001
0020
,
0000
0030
2000
0000
3200
0300
0020
0000
,
0032
0000
0003
0000
0100
0000
0001
0010
0001
0010
0100
0000
1000
0000
0100
0010
,
0100
0010
0001
0000
0010
0000
0000
0000
0100
0000
0000
0000
0000
0000
1000
0000
,
0000
1000
0000
0000
0000
0001
0000
0000
,
0001
0000
0001
0001
0010
0001
0010
0001
,
0100
0000
0010
0000
1000
0010
1000
0000
0010
0000
0100
0000
0001
0010
0001
0000
,
1000
0100
1000
1000
1000
0100
1000
0020
,
1030
0000
0000
0020
0000
0000
1031
0000
0000
0010
0000
0000
0001
0000
0000
0010
0000
0000
0100
0000
1000
0000
0001
0000
,
0010
0000
0000
0000
0100
0000
0000
0000
0000
0000
0000
0000
2000
0000
0000
0000
0000
0000
0000
0000
0000
0000
0000
0000
3002
0000
0000
0000
0000
0000
0000
0000
0000
0000
0000
0000
0103
0000
0000
0000
0000
0000
0100
0000
0000
0010
0000
0000
,
0100
0010
0010
0100
0100
0001
0001
0110
,
0001
0001
1000
0100
0100
0010
0010
0001
,
0001
0000
1000
0000
1000
0100
1000
0100
1000
0100
1000
0100
0010
0001
0010
0001
,
0010
0001
0100
0010
1000
0000
1000
0000
0010
0000
0100
0000
0010
0000
0100
0000
,
0001
0001
0001
0010
0100
0010
0100
1000
,
0001
0000
0010
0000
0100
0000
1000
0000
0000
0001
0000
0000
0010
0000
0000
0001
0000
0000
0010
0000
0000
0001
0000
0000
,
0100
0000
0000
0100
0000
0000
0100
0000
0000
0010
0000
0000
1000
0000
0000
0010
0000
0000
1000
0000
0010
0000
0100
0000
,
0001
0000
0100
0000
0200
0000
0000
0000
0320
0000
0000
0000
0030
0000
0100
0001
,
0100
0001
0010
0010
0100
0100
1001
0220
,
0000
0330
0002
0000
2003
0000
3000
0002
,
0000
0000
0000
0000
0000
0000
2003
0000
0000
0100
0000
0000
3020
0000
0000
0000
0000
0000
0000
0000
0000
0000
0000
0000
0000
0000
0000
0000
0000
0000
0000
0000
0000
0000
0000
0000
0031
0000
0000
0000
1000
0000
0000
0000
0100
0000
0000
0000
,
1000
0000
0000
0000
0100
0000
0000
0000
0000
0000
0000
0000
1001
0000
0000
0000
0000
0000
0100
0000
0000
0000
0000
0000
1000
0000
0000
0000
0000
0000
0010
0000
0000
0000
0000
0000
0100
0000
0000
0010
0000
0000
0100
0000
0000
0000
0000
0000
,
0010
0100
0010
0000
0100
0000
0110
0000
0001
0000
0100
0000
0001
0000
0100
0000
,
0001
0000
0001
0000
0001
0000
1000
0000
0100
0000
1000
0000
0100
1000
0100
0000
,
1000
0100
1000
0000
0001
0000
1001
0000
0010
0000
0001
0000
0010
0000
0001
0000
,
0100
0100
0100
1001
0001
1000
0001
1000
,
0010
0010
0010
1001
0001
0100
0001
0100
,
0001
0001
1000
1000
0100
0100
0010
0010
,
0001
0000
0001
0000
0100
0010
0100
0010
0100
0010
0100
0010
0100
0001
1000
0001
,
1000
0001
1000
0001
0100
0010
0100
0010
1000
0100
1000
0100
0010
0001
0010
0001
,
0100
0010
0100
0010
1000
0001
1000
0001
0010
0100
1000
0100
0010
0001
1000
0100
,
0010
0000
0000
0000
0000
0000
0000
0000
0000
0000
0000
0000
0000
0000
0000
0000
0000
0000
0000
0000
0000
0000
0000
0000
0000
0000
0000
0000
0000
0000
0100
0000
0000
0000
0000
0000
0000
0000
0000
0000
0000
0000
0001
0000
0000
0000
0000
0000
0000
0000
0000
0000
0000
0010
0000
0000
0000
0000
0000
0000
0000
0000
0000
0000
0001
0000
0000
0000
0000
0000
0000
0000
0000
0000
0000
0000
0000
0000
0000
0000
0000
1000
0000
0000
0000
0000
0000
0000
0000
0000
0000
0000
0000
0000
0000
0000
0000
0000
0000
0000
0100
0000
0000
0000
0000
0000
0000
0000
0000
0000
0000
0000
1000
0000
0000
0000
0000
0000
0000
0000
0000
0000
0000
0000
0000
0000
0000
0000
0000
0000
0000
0100
0000
0000
0000
0000
0000
0000
0000
0000
0000
0000
0000
0000
0000
0000
0000
0000
0000
0000
0000
0000
0000
0000
0000
0000
0000
0000
0000
0000
0000
0000
0000
0000
0000
0000
0000
1000
0000
0000
0000
0000
0000
0000
0000
0000
0000
0001
0000
0000
0000
0000
0000
0000
0000
0000
0000
0000
0100
0000
0000
0000
,
0000
0000
0000
0000
0000
0000
0000
0010
0000
0000
0000
0000
0000
0000
0000
0000
0000
0000
0000
0000
0000
1000
0000
0000
0000
0000
0000
0000
0000
0000
0000
0010
0000
0000
0000
0000
0000
0000
0000
0000
0000
0100
0000
0000
0000
0000
0000
0000
0000
0000
0001
0000
0000
0000
0000
0000
0000
0000
0000
0000
0000
0010
0000
0000
0000
0000
0000
0000
0000
0000
0000
0000
0000
0000
0000
0000
0010
0000
0000
0000
0000
0000
0000
0000
0000
0000
0000
0000
0000
0000
0000
0000
0000
0000
0000
0000
0000
0000
0000
0000
1000
0000
0000
0000
0000
0000
0000
0000
0000
0000
0000
0000
0001
0000
0000
0000
0000
0000
0000
0000
1000
0000
0000
0000
0000
0000
0000
0000
0001
0000
0000
0000
0000
0000
0000
0000
1000
0000
0000
0000
0000
0000
0000
0000
0001
0000
0000
0000
0000
0000
0000
0000
1000
0000
0000
0000
0000
0000
0000
0000
0000
0000
0000
0000
0000
0000
0000
0000
0000
0000
0000
0000
0000
0000
0000
0000
0000
0000
0000
0000
0100
0000
0000
0000
0000
0000
0000
0000
0000
0000
0000
0000
,
0100
0000
0000
0000
0220
0000
0000
0000
0000
0330
0000
0000
0000
0000
0000
0000
0000
0000
0000
0000
0000
0000
0000
0000
0000
0000
0000
0000
0000
0000
0000
0000
0000
0000
0000
0000
0000
0000
0000
0000
1000
0000
0000
0000
0000
0000
0000
0000
2000
0000
0000
0000
0000
0000
0000
0000
0001
0000
0000
0000
0000
0000
0000
0000
,
3002
0000
0000
1003
0100
0000
0000
0000
0000
0000
0001
0000
1000
0100
1000
0100
,
1000
1001
1000
0001
0100
0101
0001
0101
,
0100
0000
0100
0000
0010
1000
0010
0000
0100
0000
0110
0000
0100
0000
0010
0000
,
0010
0010
0100
0001
0010
0001
0100
0010
,
0010
0000
0010
0100
0001
0000
0100
0000
0001
0000
0100
0010
1000
0000
0010
0000
,
0010
0000
0010
1000
0100
0000
0010
0000
0001
0000
0001
0100
0010
0000
1000
0000
,
1000
0000
1000
0100
1000
0100
0010
0000
0001
0000
0010
0001
0010
0001
0100
0000
,
0010
0000
2000
0000
0001
0000
3002
0000
1000
0003
0001
1000
0001
0000
0010
0000
,
0001
0100
0100
0100
0100
0110
2002
0003
,
3001
0010
0001
0100
0010
1000
0100
0010
,
0010
0010
0100
1000
0010
0001
0010
1000
,
1000
1000
0100
0001
0100
1000
0010
0001
,
0001
0000
0000
0001
0000
0000
0010
0000
0000
0100
0000
0000
0001
0000
0000
0010
0000
0000
0100
0000
0001
0000
0100
0000
,
0001
0001
0100
0010
0001
0100
0010
1000
,
1000
0000
1000
0100
1000
0000
0100
0000
0010
0000
0001
0010
0001
0000
0010
0000
,
0001
0001
0010
0010
0100
0100
1000
1000
,
0001
0000
0001
0100
0001
0100
0010
1000
0010
1000
0100
0010
0100
0010
0001
1000
,
0001
1000
0100
0010
0001
0000
0100
0000
0001
0000
0010
0100
0010
0000
0001
0000
,
0010
0000
0001
0010
0001
0010
0100
0000
1000
0000
0010
1000
0010
1000
0001
0000
,
0010
0000
0100
0010
0100
0000
0100
0000
0010
0000
0001
0010
0001
0000
0010
0000
,
0010
0000
1000
0010
0100
0010
0001
0000
0010
0000
0100
1000
0001
1000
0010
0000
,
0010
0110
1001
0100
0001
0010
0001
0002
,
1000
0000
0000
2003
0000
0000
0001
0000
0000
3010
0000
0000
0100
0000
0000
1000
0000
0001
0000
1000
0000
0010
0000
0000
,
1000
0000
2001
0000
0001
0000
3002
0000
0000
0003
0001
0000
1000
0000
2000
0000
,
0001
0000
0000
3002
0000
0000
0000
0000
0000
0003
0000
0000
1000
0000
0100
0000
0010
0000
0001
0000
0000
0001
0000
0000
,
1000
0000
0001
0000
0100
0010
0100
0000
0010
0000
0010
0000
0100
0000
0001
0000
,
0001
0000
0001
0000
0010
0100
0010
0000
0100
0000
0010
0000
0001
0000
0010
0000
,
0010
0000
0010
0000
0100
0010
0100
0000
1000
0000
1000
0000
0010
0000
0100
0000
,
0001
0000
0001
0000
0001
1000
0010
0000
0100
0000
0001
0000
0010
0000
0100
0000
,
0100
0000
0100
0000
1000
0001
0100
0000
0001
0000
0010
0000
0100
0010
0001
0000
,
0100
0000
0000
0000
0000
0000
0100
0000
0000
0000
0000
0000
0100
0000
0000
0010
0000
0000
1000
0000
0000
0000
0000
0000
0010
0000
0000
0100
0000
0000
0001
0000
0000
0000
0000
0000
0010
0000
0000
0100
0000
0000
0010
0000
0000
0000
0100
0000
,
0000
1000
0000
0001
0000
0000
1001
0000
0000
1001
0000
0000
1100
0000
0000
1100
0000
0000
0011
0000
0000
0011
0000
0000
,
1001
0000
1001
0010
0001
0010
0100
1000
0010
0100
0001
1000
0100
0001
0100
1000
,
0010
0001
0020
0200
0000
0000
0000
0000
0000
0000
0000
0000
0000
0000
0000
0000
,
0330
0000
0000
0000
;

//---------------dance-single - ----------------
#NOTES:
     dance-single:
     :
     Medium:
     10:
     0.502073,0.927621,0.072882,0.178155,0.153861,434.000000,425.000000,9.000000,22.000000,0.000000,0.000000,0.502073,0.927621,0.072882,0.178155,0.153861,434.000000,425.000000,9.000000,22.000000,0.000000,0.000000:
// measure 0
0000
0000
0020
0000
0230
0000
0300
2000
,  // measure 1
0000
3002
0000
0003
0000
0020
0000
0031
,  // measure 2
1000
0000
0000
0000
0000
0000
0000
0000
0200
0000
0000
0000
0000
0000
0000
0300
0002
0000
0000
0000
0000
0000
0000
0000
0000
0003
0000
0000
2000
0000
0000
0000
,  // measure 3
0000
0000
0000
0000
0020
3000
0000
0000
0000
0000
0000
0000
0000
0030
0000
0000
0000
0000
0000
0000
0110
0000
0000
0000
0000
0000
0000
0000
1000
0000
0000
0000
,  // measure 4
0001
0001
1000
0100
,  // measure 5
1000
1000
1000
0000
0010
0000
0100
0000
,  // measure 6
0001
0001
0001
0000
0010
0000
0100
0000
,  // measure 7
0010
0010
0010
0000
0100
0000
1000
0000
,  // measure 8
0010
0010
1010
0000
1010
0000
0001
0000
,  // measure 9
0100
0001
0100
0010
0100
0001
0100
0000
,  // measure 10
0001
0000
1000
0001
1000
0000
0001
0000
,  // measure 11
0010
0010
0010
0000
0001
0000
1000
0001
,  // measure 12
1000
0001
0001
1000
,  // measure 13
1000
0000
0010
0010
0010
0000
1000
1000
,  // measure 14
1000
0000
0001
0000
0100
0000
0000
0010
,  // measure 15
0000
0010
0000
0000
0000
0100
0000
0000
,  // measure 16
0001
1000
0001
1000
,  // measure 17
0001
0001
0001
0000
0010
0000
0100
0000
,  // measure 18
0010
0010
0010
0000
0100
0000
1000
0000
,  // measure 19
0010
0010
0010
0000
1000
0000
0001
0000
,  // measure 20
0100
0000
0001
1000
0001
1000
0000
0001
,  // measure 21
1000
0001
1000
0000
0001
0000
1000
0001
,  // measure 22
0000
1000
0100
0010
,  // measure 23
0001
0000
0010
0100
0010
0100
0010
0100
,  // measure 24
0010
0100
0010
0000
0010
0000
0010
0000
,  // measure 25
0001
0001
0001
0000
0100
0000
0010
0000
,  // measure 26
1000
1000
1000
0000
0010
0000
0100
0000
,  // measure 27
0001
0001
0001
0000
1000
0000
0100
0000
,  // measure 28
0010
0010
0010
0000
0100
0000
1000
0000
,  // measure 29
0001
1000
0001
1000
0001
1000
1001
2002
,  // measure 30
0000
3003
0002
0000
2003
0000
3000
0002
,  // measure 31
0000
0000
0000
2003
0000
0000
3020
0000
0000
0000
0000
0000
0000
0000
0000
0000
0000
0000
0031
0000
1000
0000
0001
0000
,  // measure 32
1000
0000
0001
0000
0000
0000
1000
0000
0000
0000
0000
0000
1000
0000
0000
0000
0000
0000
1000
0000
0000
0010
0000
0000
,  // measure 33
0100
0001
0010
0000
0010
0000
0010
0000
,  // measure 34
0010
0001
0100
0000
0100
0000
0100
0010
,  // measure 35
0100
0010
0100
0000
0010
0000
1000
0000
,  // measure 36
0001
1000
0001
0000
1000
0000
0001
0000
,  // measure 37
0010
0000
0100
0010
0100
0000
0010
0000
,  // measure 38
0001
0000
0100
0001
0100
0001
0100
0001
,  // measure 39
0100
0001
1000
0010
1000
0010
1000
0010
,  // measure 40
1000
0010
1000
0010
1000
0010
1000
0010
,  // measure 41
1000
0010
1000
0010
1000
0010
1000
0010
,  // measure 42
0001
0000
0000
0000
0000
0000
0000
0000
0000
0000
0000
0000
0000
0000
0000
0000
0000
0000
0000
0000
0000
0000
0000
0000
0000
0000
0000
0000
0000
0000
1000
0000
0000
0000
0000
0000
0000
0000
0000
0000
0000
0000
0100
0000
0000
0000
0000
0000
0000
0000
0000
0000
0000
0001
0000
0000
0000
0000
0000
0000
0000
0000
0000
0000
0100
0000
0000
0000
0000
0000
0000
0000
0000
0000
0000
0000
0000
0000
0000
0000
0000
0010
0000
0000
0000
0000
0000
0000
0000
0000
0000
0000
0000
0000
0000
0000
0000
0000
0000
0000
1000
0000
0000
0000
0000
0000
0000
0000
0000
0000
0000
0000
0010
0000
0000
0000
0000
0000
0000
0000
0000
0000
0000
0000
0000
0000
0000
0000
0000
0000
0000
1000
0000
0000
0000
0000
0000
0000
0000
0000
0000
0000
0000
0000
0000
0000
0000
0000
0000
0000
0000
0000
0000
0000
0000
0000
0000
0000
0000
0000
0000
0000
0000
0000
0000
0000
0000
0010
0000
0000
0000
0000
0000
0000
0000
0000
0000
0100
0000
0000
0000
0000
0000
0000
0000
0000
0000
0000
1000
0000
0000
0000
,  // measure 43
0000
0000
0000
0000
0000
0000
0000
0001
0000
0000
0000
0000
0000
0000
0000
0000
0000
0000
0000
0000
0000
0010
0000
0000
0000
0000
0000
0000
0000
0000
0000
0001
0000
0000
0000
0000
0000
0000
0000
0000
0000
1000
0000
0000
0000
0000
0000
0000
0000
0000
0100
0000
0000
0000
0000
0000
0000
0000
0000
0000
0000
0001
0000
0000
0000
0000
0000
0000
0000
0000
0000
0000
0000
0000
0000
0000
0001
0000
0000
0000
0000
0000
0000
0000
0000
0000
0000
0000
0000
0000
0000
0000
0000
0000
0000
0000
0000
0000
0000
0000
0010
0000
0000
0000
0000
0000
0000
0000
0000
0000
0000
0000
0100
0000
0000
0000
0000
0000
0000
0000
0010
0000
0000
0000
0000
0000
0000
0000
0100
0000
0000
0000
0000
0000
0000
0000
0010
0000
0000
0000
0000
0000
0000
0000
0100
0000
0000
0000
0000
0000
0000
0000
0010
0000
0000
0000
0000
0000
0000
0000
0000
0000
0000
0000
0000
0000
0000
0000
0000
0000
0000
0000
0000
0000
0000
0000
0000
0000
0000
0000
1000
0000
0000
0000
0000
0000
0000
0000
0000
0000
0000
0000
,  // measure 44
1000
0000
0000
0000
2002
0000
0000
0000
0000
3003
0000
0000
0000
0000
0000
0000
0000
0000
0000
0000
0000
0000
0000
0000
0000
0000
0000
0000
0000
0000
0000
0000
0000
0000
0000
0000
0000
0000
0000
0000
1000
0000
0000
0000
0000
0000
0000
0000
2000
0000
0000
0000
0000
0000
0000
0000
0001
0000
0000
0000
0000
0000
0000
0000
,  // measure 45
3002
0000
0003
0010
0100
0000
0000
0000
0000
0000
0000
0000
0000
0000
0000
0000
,  // measure 46
0000
1000
0000
1000
0000
1000
0000
0010
,  // measure 47
0010
0010
0000
0100
0000
0001
0000
0100
,  // measure 48
0100
0100
0000
0010
0000
1000
0000
0100
,  // measure 49
0100
0100
0000
0010
0000
0001
0000
0010
,  // measure 50
0010
0010
0000
0100
0000
1000
0000
0001
,  // measure 51
0000
1000
0001
1000
0000
0001
1000
0001
,  // measure 52
0000
0100
0000
0100
0000
0000
0000
0000
,  // measure 53
0000
0001
0000
1000
0000
0001
1000
0000
,  // measure 54
0000
0001
0000
0001
0000
0010
0000
0010
,  // measure 55
0000
0100
0000
0100
0000
1000
0000
1000
,  // measure 56
0000
0001
1000
0001
0000
1000
0000
0001
,  // measure 57
0000
1000
0001
1000
0001
1000
0001
1000
,  // measure 58
0000
0001
0000
0100
0000
0010
0000
0100
,  // measure 59
0010
0100
0000
0010
0000
1000
0000
0010
,  // measure 60
1000
0010
1000
0010
1000
0010
1000
0010
,  // measure 61
1000
0001
0100
0001
0100
0001
0100
0001
,  // measure 62
0100
1001
0000
1001
0000
0100
0000
1000
,  // measure 63
0100
1000
0000
0001
0000
0010
0000
0001
,  // measure 64
0010
0001
0000
1000
0000
0001
0000
1000
,  // measure 65
0001
1000
0000
0001
0000
0100
0000
0010
,  // measure 66
0100
0010
0000
1000
0000
0001
0000
0010
,  // measure 67
0100
1000
0000
0100
0000
0010
0001
0100
,  // measure 68
0000
0010
1000
0100
0000
1000
0000
0010
,  // measure 69
0100
1001
0000
0000
0000
0000
0000
0000
,  // measure 70
0000
0010
0000
1000
0000
0001
0000
0100
,  // measure 71
0001
0100
0000
0010
0000
1000
0000
0100
,  // measure 72
0010
0100
0000
0010
0000
0001
0000
1000
,  // measure 73
0001
1000
0000
0001
0000
0100
0000
0010
,  // measure 74
0100
0010
0000
1000
0000
0100
0000
0010
,  // measure 75
0000
0001
0000
0010
0100
0010
0100
0010
,  // measure 76
0000
0100
0000
1000
0001
1000
0001
1000
,  // measure 77
0001
0000
1000
0100
1000
0100
1000
0100
1000
0100
1000
0100
1000
0100
1000
0100
,  // measure 78
1000
0100
2000
0200
0000
0000
0000
0000
0000
0000
0000
0000
0000
0000
0000
0000
,  // measure 79
3300
0000
0000
0000
;

//---------------dance-single - ----------------
#NOTES:
     dance-single:
     :
     Easy:
     6:
     0.322761,0.543778,0.121469,0.113371,0.008098,279.000000,264.000000,15.000000,14.000000,0.000000,0.000000,0.322761,0.543778,0.121469,0.113371,0.008098,279.000000,264.000000,15.000000,14.000000,0.000000,0.000000:
0000
0000
0200
0000
0320
0000
0030
0002
,
0000
2003
0000
3000
0000
0200
0000
1300
,
0001
0000
0000
0000
0000
0000
0000
0000
0020
0000
0000
0000
0000
0000
0000
0030
2000
0000
0000
0000
0000
0000
0000
0000
0000
3000
0000
0000
0002
0000
0000
0000
,
0000
0000
0000
0000
0200
0003
0000
0000
0000
0000
0000
0000
0000
0300
0000
0000
0000
0000
0000
0000
0010
0000
0000
0000
0000
0000
0000
0000
1000
0000
0000
0000
,
0010
1000
1000
0000
,
0010
0010
0000
0100
,
0000
0001
0001
0000
,
0000
0010
0000
0100
,
0000
1000
1000
0000
,
0001
0001
0001
0001
,
0000
0100
0100
0000
,
0010
1000
1000
1000
,
0000
0001
0000
1000
,
0000
1001
0000
1001
,
0000
0000
0100
0000
0100
0000
0000
1000
,
0000
1000
0000
0000
0000
0001
0000
0000
,
0100
0010
0010
0000
,
1000
1000
0000
0001
,
0000
0010
0010
0000
,
0100
0100
0000
1000
,
0000
0100
0100
0000
,
0010
0010
0010
0010
,
0000
0001
0001
1000
,
1000
0000
0001
1000
0001
1000
0001
1000
,
0001
1000
0001
0000
0001
0000
0100
0000
,
0100
0010
0010
1000
,
1000
0001
0000
1000
,
0000
0001
0001
0010
,
0010
0100
0000
1000
,
0000
0001
0001
1000
,
0000
0000
0001
0000
0001
0000
0000
0100
,
0000
0100
0000
0000
0000
0010
0000
0000
,
0010
1000
1000
0000
,
0100
0100
0000
0010
,
0000
0001
0001
0000
,
0100
0100
0000
0010
,
0000
1000
1000
0000
,
0010
0000
0100
0000
,
0010
1001
1001
1001
,
1001
0001
0001
1000
,
1000
1001
1001
1001
,
1001
1001
1001
1001
,
1001
0000
0000
0000
,
0000
0000
0000
0000
0000
0000
0000
0000
0000
0000
0000
0000
0000
0000
0000
0001
,
0001
0000
0000
0000
2002
0000
0000
0000
0000
3003
0000
0000
0000
0000
0000
0000
0000
0000
0000
0000
0000
0000
0000
0000
0000
0000
0000
0000
0000
0000
0000
0000
0000
0000
0000
0000
0000
0000
0000
0000
0000
0000
0000
0000
0000
0000
0000
0000
0002
0000
0000
0000
0000
0000
0000
0000
0000
0000
0000
0000
0000
0000
0000
0000
,
2003
3000
0010
0000
0000
0000
0000
0000
,
0000
0001
0000
0001
0000
0001
0000
0000
,
0000
1000
0000
1000
0000
1000
0000
0000
,
0000
0010
0000
0010
0000
0010
0000
0000
,
0000
0100
0000
0100
0000
0100
0000
0000
,
0000
0001
0000
0000
0000
1000
0000
0000
,
0000
0100
0000
0100
0000
0010
0000
0010
,
0000
0001
0000
1000
0000
0000
0000
0001
,
0000
0100
0000
0010
0000
1000
0000
0000
,
0000
0010
0000
0010
0000
1000
0000
1000
,
0000
0001
0000
0001
0000
0010
0000
0010
,
0000
0100
0000
0100
0000
1000
0000
1000
,
0000
0001
0000
1000
0000
0001
0000
1000
,
0000
0010
0000
0010
0000
0100
0000
0100
,
0000
0001
0000
1000
0000
0001
0000
1000
,
0000
0001
1000
0001
1000
0001
1000
0001
,
1000
0001
0000
1000
0000
0001
0000
1000
,
0000
0001
0000
0001
0000
0010
0000
0010
,
0000
0100
0000
0100
0000
1000
0000
1000
,
0000
0001
0000
0001
0000
0100
0000
0100
,
0000
0010
0000
0010
0000
1000
0000
1000
,
0000
0100
0000
0100
0000
0010
0000
0010
,
0000
0001
0000
0000
0000
1000
0000
0000
,
0000
0010
0000
0010
0000
0000
1000
0000
,
0001
0000
0000
0000
0100
0000
0000
0010
,
0000
1000
0000
1000
0000
0100
0000
0100
,
0000
0010
0000
0010
0000
0100
0000
0100
,
0000
1000
0000
1000
0000
0010
0000
0010
,
0000
1000
0000
1000
0000
0001
0000
0001
,
0000
0100
0000
0100
0000
0001
0000
0001
,
0000
0010
0000
0010
0000
0010
0000
0010
,
0000
0001
1000
0001
1000
0001
1000
0001
,
1000
0001
0001
0001
0001
0001
0001
0001
,
0001
0002
0000
0000
0000
0000
0000
0000
,
0003
0000
0000
0000
;
